  0
SECTION
  2
HEADER
  9
$ACADVER
  1
AC1012
  9
$DWGCODEPAGE
  3
ansi_932
  9
$INSBASE
 10
0.0
 20
0.0
 30
0.0
  9
$EXTMIN
 10
-586.5000002030047
 20
3.082973289489746
 30
0.0
  9
$EXTMAX
 10
-10.0
 20
410.0
 30
0.0
  9
$LIMMIN
 10
-586.5000002030047
 20
3.082973289489746
  9
$LIMMAX
 10
-10.0
 20
410.0
  9
$ORTHOMODE
 70
     0
  9
$REGENMODE
 70
     1
  9
$FILLMODE
 70
     1
  9
$QTEXTMODE
 70
     0
  9
$MIRRTEXT
 70
     1
  9
$DRAGMODE
 70
     2
  9
$LTSCALE
 40
1.0
  9
$OSMODE
 70
    37
  9
$ATTMODE
 70
     1
  9
$TEXTSIZE
 40
2.5
  9
$TRACEWID
 40
1.0
  9
$TEXTSTYLE
  7
STANDARD
  9
$CLAYER
  8
0
  9
$CELTYPE
  6
BYLAYER
  9
$CECOLOR
 62
   256
  9
$CELTSCALE
 40
1.0
  9
$DELOBJ
 70
     1
  9
$DISPSILH
 70
     0
  9
$DIMSCALE
 40
1.0
  9
$DIMASZ
 40
2.5
  9
$DIMEXO
 40
0.625
  9
$DIMDLI
 40
3.75
  9
$DIMRND
 40
0.0
  9
$DIMDLE
 40
0.0
  9
$DIMEXE
 40
1.25
  9
$DIMTP
 40
0.0
  9
$DIMTM
 40
0.0
  9
$DIMTXT
 40
2.5
  9
$DIMCEN
 40
2.5
  9
$DIMTSZ
 40
0.0
  9
$DIMTOL
 70
     0
  9
$DIMLIM
 70
     0
  9
$DIMTIH
 70
     0
  9
$DIMTOH
 70
     0
  9
$DIMSE1
 70
     0
  9
$DIMSE2
 70
     0
  9
$DIMTAD
 70
     1
  9
$DIMZIN
 70
     8
  9
$DIMBLK
  1

  9
$DIMASO
 70
     1
  9
$DIMSHO
 70
     1
  9
$DIMPOST
  1

  9
$DIMAPOST
  1

  9
$DIMALT
 70
     0
  9
$DIMALTD
 70
     3
  9
$DIMALTF
 40
0.03937007874016
  9
$DIMLFAC
 40
1.0
  9
$DIMTOFL
 70
     1
  9
$DIMTVP
 40
0.0
  9
$DIMTIX
 70
     0
  9
$DIMSOXD
 70
     0
  9
$DIMSAH
 70
     0
  9
$DIMBLK1
  1

  9
$DIMBLK2
  1

  9
$DIMSTYLE
  2
ISO-25
  9
$DIMCLRD
 70
     0
  9
$DIMCLRE
 70
     0
  9
$DIMCLRT
 70
     0
  9
$DIMTFAC
 40
1.0
  9
$DIMGAP
 40
0.625
  9
$DIMJUST
 70
     0
  9
$DIMSD1
 70
     0
  9
$DIMSD2
 70
     0
  9
$DIMTOLJ
 70
     0
  9
$DIMTZIN
 70
     8
  9
$DIMALTZ
 70
     0
  9
$DIMALTTZ
 70
     0
  9
$DIMFIT
 70
     3
  9
$DIMUPT
 70
     0
  9
$DIMUNIT
 70
     2
  9
$DIMDEC
 70
     2
  9
$DIMTDEC
 70
     2
  9
$DIMALTU
 70
     2
  9
$DIMALTTD
 70
     3
  9
$DIMTXSTY
  7
STANDARD
  9
$DIMAUNIT
 70
     0
  9
$LUNITS
 70
     2
  9
$LUPREC
 70
     4
  9
$SKETCHINC
 40
1.0
  9
$FILLETRAD
 40
10.0
  9
$AUNITS
 70
     0
  9
$AUPREC
 70
     0
  9
$MENU
  1
.
  9
$ELEVATION
 40
0.0
  9
$PELEVATION
 40
0.0
  9
$THICKNESS
 40
0.0
  9
$LIMCHECK
 70
     0
  9
$CHAMFERA
 40
0.0
  9
$CHAMFERB
 40
0.0
  9
$CHAMFERC
 40
0.0
  9
$CHAMFERD
 40
0.0
  9
$SKPOLY
 70
     0
  9
$TDCREATE
 40
2460892.626769387
  9
$TDUPDATE
 40
2460892.626769815
  9
$TDINDWG
 40
0.0000000116
  9
$TDUSRTIMER
 40
0.0000000116
  9
$USRTIMER
 70
     1
  9
$ANGBASE
 50
0.0
  9
$ANGDIR
 70
     0
  9
$PDMODE
 70
     0
  9
$PDSIZE
 40
0.0
  9
$PLINEWID
 40
0.0
  9
$COORDS
 70
     1
  9
$SPLFRAME
 70
     0
  9
$SPLINETYPE
 70
     6
  9
$SPLINESEGS
 70
     8
  9
$ATTDIA
 70
     0
  9
$ATTREQ
 70
     1
  9
$HANDLING
 70
     1
  9
$HANDSEED
  5
624
  9
$SURFTAB1
 70
     6
  9
$SURFTAB2
 70
     6
  9
$SURFTYPE
 70
     6
  9
$SURFU
 70
     6
  9
$SURFV
 70
     6
  9
$UCSNAME
  2

  9
$UCSORG
 10
0.0
 20
0.0
 30
0.0
  9
$UCSXDIR
 10
1.0
 20
0.0
 30
0.0
  9
$UCSYDIR
 10
0.0
 20
1.0
 30
0.0
  9
$PUCSNAME
  2

  9
$PUCSORG
 10
0.0
 20
0.0
 30
0.0
  9
$PUCSXDIR
 10
1.0
 20
0.0
 30
0.0
  9
$PUCSYDIR
 10
0.0
 20
1.0
 30
0.0
  9
$USERI1
 70
     0
  9
$USERI2
 70
     0
  9
$USERI3
 70
     0
  9
$USERI4
 70
     0
  9
$USERI5
 70
     0
  9
$USERR1
 40
0.0
  9
$USERR2
 40
0.0
  9
$USERR3
 40
0.0
  9
$USERR4
 40
0.0
  9
$USERR5
 40
0.0
  9
$WORLDVIEW
 70
     1
  9
$SHADEDGE
 70
     3
  9
$SHADEDIF
 70
    70
  9
$TILEMODE
 70
     1
  9
$MAXACTVP
 70
    64
  9
$PINSBASE
 10
0.0
 20
0.0
 30
0.0
  9
$PLIMCHECK
 70
     0
  9
$PEXTMIN
 10
1.000000000000000E+20
 20
1.000000000000000E+20
 30
1.000000000000000E+20
  9
$PEXTMAX
 10
-1.000000000000000E+20
 20
-1.000000000000000E+20
 30
-1.000000000000000E+20
  9
$PLIMMIN
 10
-586.5000002030047
 20
3.082973289489746
  9
$PLIMMAX
 10
-10.0
 20
410.0
  9
$UNITMODE
 70
     0
  9
$VISRETAIN
 70
     1
  9
$PLINEGEN
 70
     0
  9
$PSLTSCALE
 70
     1
  9
$TREEDEPTH
 70
  3020
  9
$PICKSTYLE
 70
     1
  9
$CMLSTYLE
  2
STANDARD
  9
$CMLJUST
 70
     0
  9
$CMLSCALE
 40
20.0
  9
$SAVEIMAGES
 70
     1
  0
ENDSEC
  0
SECTION
  2
CLASSES
  0
CLASS
  1
ACDBDICTIONARYWDFLT
  2
AcDbDictionaryWithDefault
  3
ObjectDBX Classes
 90
    32768
280
     0
281
     0
  0
CLASS
  1
VISUALSTYLE
  2
AcDbVisualStyle
  3
ObjectDBX Classes
 90
     4095
280
     0
281
     0
  0
CLASS
  1
MATERIAL
  2
AcDbMaterial
  3
ObjectDBX Classes
 90
     1153
280
     0
281
     0
  0
CLASS
  1
SCALE
  2
AcDbScale
  3
ObjectDBX Classes
 90
     1153
280
     0
281
     0
  0
CLASS
  1
TABLESTYLE
  2
AcDbTableStyle
  3
ObjectDBX Classes
 90
     4095
280
     0
281
     0
  0
CLASS
  1
MLEADERSTYLE
  2
AcDbMLeaderStyle
  3
ACDB_MLEADERSTYLE_CLASS
 90
     4095
280
     0
281
     0
  0
CLASS
  1
SUN
  2
AcDbSun
  3
SCENEOE
 90
     1153
280
     0
281
     0
  0
CLASS
  1
DICTIONARYVAR
  2
AcDbDictionaryVar
  3
ObjectDBX Classes
 90
        0
280
     0
281
     0
  0
CLASS
  1
XRECORD
  2
AcDbXrecord
  3
ObjectDBX Classes
 90
    32768
280
     0
281
     0
  0
CLASS
  1
LWPOLYLINE
  2
AcDbPolyline
  3
ObjectDBX Classes
 90
    32768
280
     0
281
     1
  0
CLASS
  1
HATCH
  2
AcDbHatch
  3
ObjectDBX Classes
 90
    32768
280
     0
281
     1
  0
CLASS
  1
ACDBPLACEHOLDER
  2
AcDbPlaceHolder
  3
ObjectDBX Classes
 90
        0
280
     0
281
     0
  0
CLASS
  1
LAYOUT
  2
AcDbLayout
  3
ObjectDBX Classes
 90
        0
280
     0
281
     0
  0
ENDSEC
  0
SECTION
  2
TABLES
  0
TABLE
  2
VPORT
  5
8
330
0
100
AcDbSymbolTable
 70
     1
  0
VPORT
  5
29
330
8
100
AcDbSymbolTableRecord
100
AcDbViewportTableRecord
  2
*ACTIVE
 70
     0
 10
0.0
 20
0.0
 11
1.0
 21
1.0
 12
344.1869158878504
 22
148.5
 13
0.0
 23
0.0
 14
10.0
 24
10.0
 15
10.0
 25
10.0
 16
0.0
 26
0.0
 36
1.0
 17
0.0
 27
0.0
 37
0.0
 40
297.0
 41
1.972972972850329
 42
50.0
 43
0.0
 44
0.0
 50
0.0
 51
0.0
 71
     0
 72
   100
 73
     1
 74
     3
 75
     0
 76
     0
 77
     0
 78
     0
  0
ENDTAB
  0
TABLE
  2
LTYPE
  5
5
330
0
100
AcDbSymbolTable
 70
     5
  0
LTYPE
  5
14
330
5
100
AcDbSymbolTableRecord
100
AcDbLinetypeTableRecord
  2
BYBLOCK
 70
     0
  3

 72
    65
 73
     0
 40
0.0
  0
LTYPE
  5
15
330
5
100
AcDbSymbolTableRecord
100
AcDbLinetypeTableRecord
  2
BYLAYER
 70
     0
  3

 72
    65
 73
     0
 40
0.0
  0
LTYPE
  5
16
330
5
100
AcDbSymbolTableRecord
100
AcDbLinetypeTableRecord
  2
CONTINUOUS
 70
     0
  3
Solid line
 72
    65
 73
     0
 40
0.0
  0
LTYPE
  5
6E
330
5
100
AcDbSymbolTableRecord
100
AcDbLinetypeTableRecord
  2
CONTINOUS
 70
     0
  3
______________________________
 72
    65
 73
     0
 40
0.0
  0
LTYPE
  5
6F
330
5
100
AcDbSymbolTableRecord
100
AcDbLinetypeTableRecord
  2
DASHED
 70
     0
  3
__ __ __ __ __ __ __ __ __ __ __ __ __ __ __ __
 72
    65
 73
     2
 40
4.5
 49
3.0
 74
     0
 49
-1.5
 74
     0
  0
LTYPE
  5
70
330
5
100
AcDbSymbolTableRecord
100
AcDbLinetypeTableRecord
  2
PHANTOM
 70
     0
  3
______  __  __  ______  __  __  _____
 72
    65
 73
     6
 40
15.0
 49
7.5
 74
     0
 49
-1.5
 74
     0
 49
1.5
 74
     0
 49
-1.5
 74
     0
 49
1.5
 74
     0
 49
-1.5
 74
     0
  0
LTYPE
  5
71
330
5
100
AcDbSymbolTableRecord
100
AcDbLinetypeTableRecord
  2
CENTER
 70
     0
  3
____ _ ____ _ ____ _ ____ _ ____ _ ____
 72
    65
 73
     4
 40
12.0
 49
7.5
 74
     0
 49
-1.5
 74
     0
 49
1.5
 74
     0
 49
-1.5
 74
     0
  0
ENDTAB
  0
TABLE
  2
LAYER
  5
2
330
0
100
AcDbSymbolTable
 70
     5
  0
LAYER
  5
10
330
2
100
AcDbSymbolTableRecord
100
AcDbLayerTableRecord
  2
0
 70
     0
 62
     7
  6
CONTINUOUS
  0
LAYER
  5
2AA
330
2
100
AcDbSymbolTableRecord
100
AcDbLayerTableRecord
  2
DEFPOINTS
 70
     0
 62
     7
  6
CONTINUOUS
  0
LAYER
  5
553
330
2
100
AcDbSymbolTableRecord
100
AcDbLayerTableRecord
  2
VIEW0001
 70
     0
 62
     7
  6
CONTINUOUS
  0
LAYER
  5
58A
330
2
100
AcDbSymbolTableRecord
100
AcDbLayerTableRecord
  2
VIEW0002
 70
     0
 62
     7
  6
CONTINUOUS
  0
LAYER
  5
602
330
2
100
AcDbSymbolTableRecord
100
AcDbLayerTableRecord
  2
VIEW0003
 70
     0
 62
     7
  6
CONTINUOUS
  0
ENDTAB
  0
TABLE
  2
STYLE
  5
3
330
0
100
AcDbSymbolTable
 70
     1
  0
STYLE
  5
11
330
3
100
AcDbSymbolTableRecord
100
AcDbTextStyleTableRecord
  2
STANDARD
 70
     0
 40
0.0
 41
1.0
 50
0.0
 71
     0
 42
2.5
  3
ROMANS
  4
EXTFONT
  0
ENDTAB
  0
TABLE
  2
VIEW
  5
6
330
0
100
AcDbSymbolTable
 70
     0
  0
ENDTAB
  0
TABLE
  2
UCS
  5
7
330
0
100
AcDbSymbolTable
 70
     0
  0
ENDTAB
  0
TABLE
  2
APPID
  5
9
330
0
100
AcDbSymbolTable
 70
     2
  0
APPID
  5
12
330
9
100
AcDbSymbolTableRecord
100
AcDbRegAppTableRecord
  2
ACAD
 70
     0
  0
APPID
  5
622
330
9
100
AcDbSymbolTableRecord
100
AcDbRegAppTableRecord
  2
ACAD_MLEADERVER
 70
     0
  0
ENDTAB
  0
TABLE
  2
DIMSTYLE
  5
A
330
0
100
AcDbSymbolTable
 70
     1
  0
DIMSTYLE
105
27
102
{ACAD_REACTORS
330
2A3
330
2B7
330
2C5
330
2D8
330
2F4
330
301
330
30E
330
31B
330
32B
330
33B
330
347
330
354
330
360
330
36C
330
379
330
38D
330
399
330
3C4
330
3CF
330
3DC
330
3E8
330
3F7
330
404
330
416
330
422
330
42E
330
43B
330
448
330
478
330
487
330
494
330
4AA
330
4B7
330
4C3
330
4D0
330
4DB
330
4E6
330
4F5
330
503
330
510
330
531
330
53E
102
}
330
A
100
AcDbSymbolTableRecord
100
AcDbDimStyleTableRecord
  2
ISO-25
 70
     0
  3

  4

  5

  6

  7

 40
1.0
 41
2.5
 42
0.625
 43
3.75
 44
1.25
 45
0.0
 46
0.0
 47
0.0
 48
0.0
140
2.5
141
2.5
142
0.0
143
0.03937007874016
144
1.0
145
0.0
146
1.0
147
0.625
 71
     0
 72
     0
 73
     0
 74
     0
 75
     0
 76
     0
 77
     1
 78
     8
170
     0
171
     3
172
     1
173
     0
174
     0
175
     0
176
     0
177
     0
178
     0
270
     2
271
     2
272
     2
273
     2
274
     3
340
11
275
     0
280
     0
281
     0
282
     0
283
     0
284
     8
285
     0
286
     0
287
     3
288
     0
  0
ENDTAB
  0
TABLE
  2
BLOCK_RECORD
  5
1
330
0
100
AcDbSymbolTable
 70
    57
  0
BLOCK_RECORD
  5
1F
330
1
100
AcDbSymbolTableRecord
100
AcDbBlockTableRecord
  2
*MODEL_SPACE
  0
BLOCK_RECORD
  5
1B
330
1
100
AcDbSymbolTableRecord
100
AcDbBlockTableRecord
  2
*PAPER_SPACE
  0
BLOCK_RECORD
  5
2A4
330
1
100
AcDbSymbolTableRecord
100
AcDbBlockTableRecord
  2
_OPEN30
  0
BLOCK_RECORD
  5
2AB
330
1
100
AcDbSymbolTableRecord
100
AcDbBlockTableRecord
  2
*D2
  0
BLOCK_RECORD
  5
2B8
330
1
100
AcDbSymbolTableRecord
100
AcDbBlockTableRecord
  2
*D3
  0
BLOCK_RECORD
  5
2C6
330
1
100
AcDbSymbolTableRecord
100
AcDbBlockTableRecord
  2
_NONE
  0
BLOCK_RECORD
  5
2C9
330
1
100
AcDbSymbolTableRecord
100
AcDbBlockTableRecord
  2
*D5
  0
BLOCK_RECORD
  5
2D9
330
1
100
AcDbSymbolTableRecord
100
AcDbBlockTableRecord
  2
_ORIGIN
  0
BLOCK_RECORD
  5
2DE
330
1
100
AcDbSymbolTableRecord
100
AcDbBlockTableRecord
  2
*D7
  0
BLOCK_RECORD
  5
2F5
330
1
100
AcDbSymbolTableRecord
100
AcDbBlockTableRecord
  2
*D8
  0
BLOCK_RECORD
  5
302
330
1
100
AcDbSymbolTableRecord
100
AcDbBlockTableRecord
  2
*D9
  0
BLOCK_RECORD
  5
30F
330
1
100
AcDbSymbolTableRecord
100
AcDbBlockTableRecord
  2
*D10
  0
BLOCK_RECORD
  5
31C
330
1
100
AcDbSymbolTableRecord
100
AcDbBlockTableRecord
  2
*D11
  0
BLOCK_RECORD
  5
32C
330
1
100
AcDbSymbolTableRecord
100
AcDbBlockTableRecord
  2
*D12
  0
BLOCK_RECORD
  5
33C
330
1
100
AcDbSymbolTableRecord
100
AcDbBlockTableRecord
  2
*D13
  0
BLOCK_RECORD
  5
348
330
1
100
AcDbSymbolTableRecord
100
AcDbBlockTableRecord
  2
*D14
  0
BLOCK_RECORD
  5
355
330
1
100
AcDbSymbolTableRecord
100
AcDbBlockTableRecord
  2
*D15
  0
BLOCK_RECORD
  5
361
330
1
100
AcDbSymbolTableRecord
100
AcDbBlockTableRecord
  2
*D16
  0
BLOCK_RECORD
  5
36D
330
1
100
AcDbSymbolTableRecord
100
AcDbBlockTableRecord
  2
*D17
  0
BLOCK_RECORD
  5
37A
330
1
100
AcDbSymbolTableRecord
100
AcDbBlockTableRecord
  2
*D18
  0
BLOCK_RECORD
  5
38E
330
1
100
AcDbSymbolTableRecord
100
AcDbBlockTableRecord
  2
*D19
  0
BLOCK_RECORD
  5
39A
330
1
100
AcDbSymbolTableRecord
100
AcDbBlockTableRecord
  2
*D20
  0
BLOCK_RECORD
  5
3A9
330
1
100
AcDbSymbolTableRecord
100
AcDbBlockTableRecord
  2
SYM0001
  0
BLOCK_RECORD
  5
3B2
330
1
100
AcDbSymbolTableRecord
100
AcDbBlockTableRecord
  2
SYM0002
  0
BLOCK_RECORD
  5
3BB
330
1
100
AcDbSymbolTableRecord
100
AcDbBlockTableRecord
  2
SYM0003
  0
BLOCK_RECORD
  5
3C5
330
1
100
AcDbSymbolTableRecord
100
AcDbBlockTableRecord
  2
*D24
  0
BLOCK_RECORD
  5
3D0
330
1
100
AcDbSymbolTableRecord
100
AcDbBlockTableRecord
  2
*D25
  0
BLOCK_RECORD
  5
3DD
330
1
100
AcDbSymbolTableRecord
100
AcDbBlockTableRecord
  2
*D26
  0
BLOCK_RECORD
  5
3E9
330
1
100
AcDbSymbolTableRecord
100
AcDbBlockTableRecord
  2
*D27
  0
BLOCK_RECORD
  5
3F8
330
1
100
AcDbSymbolTableRecord
100
AcDbBlockTableRecord
  2
*D28
  0
BLOCK_RECORD
  5
405
330
1
100
AcDbSymbolTableRecord
100
AcDbBlockTableRecord
  2
*D29
  0
BLOCK_RECORD
  5
417
330
1
100
AcDbSymbolTableRecord
100
AcDbBlockTableRecord
  2
*D30
  0
BLOCK_RECORD
  5
423
330
1
100
AcDbSymbolTableRecord
100
AcDbBlockTableRecord
  2
*D31
  0
BLOCK_RECORD
  5
42F
330
1
100
AcDbSymbolTableRecord
100
AcDbBlockTableRecord
  2
*D32
  0
BLOCK_RECORD
  5
43C
330
1
100
AcDbSymbolTableRecord
100
AcDbBlockTableRecord
  2
*D33
  0
BLOCK_RECORD
  5
449
330
1
100
AcDbSymbolTableRecord
100
AcDbBlockTableRecord
  2
*D34
  0
BLOCK_RECORD
  5
456
330
1
100
AcDbSymbolTableRecord
100
AcDbBlockTableRecord
  2
SYM0004
  0
BLOCK_RECORD
  5
45F
330
1
100
AcDbSymbolTableRecord
100
AcDbBlockTableRecord
  2
SYM0005
  0
BLOCK_RECORD
  5
467
330
1
100
AcDbSymbolTableRecord
100
AcDbBlockTableRecord
  2
SYM0006
  0
BLOCK_RECORD
  5
46F
330
1
100
AcDbSymbolTableRecord
100
AcDbBlockTableRecord
  2
SYM0007
  0
BLOCK_RECORD
  5
479
330
1
100
AcDbSymbolTableRecord
100
AcDbBlockTableRecord
  2
*D39
  0
BLOCK_RECORD
  5
488
330
1
100
AcDbSymbolTableRecord
100
AcDbBlockTableRecord
  2
*D40
  0
BLOCK_RECORD
  5
495
330
1
100
AcDbSymbolTableRecord
100
AcDbBlockTableRecord
  2
*D41
  0
BLOCK_RECORD
  5
4A1
330
1
100
AcDbSymbolTableRecord
100
AcDbBlockTableRecord
  2
SYM0008
  0
BLOCK_RECORD
  5
4AB
330
1
100
AcDbSymbolTableRecord
100
AcDbBlockTableRecord
  2
*D43
  0
BLOCK_RECORD
  5
4B8
330
1
100
AcDbSymbolTableRecord
100
AcDbBlockTableRecord
  2
*D44
  0
BLOCK_RECORD
  5
4C4
330
1
100
AcDbSymbolTableRecord
100
AcDbBlockTableRecord
  2
*D45
  0
BLOCK_RECORD
  5
4D1
330
1
100
AcDbSymbolTableRecord
100
AcDbBlockTableRecord
  2
*D46
  0
BLOCK_RECORD
  5
4DC
330
1
100
AcDbSymbolTableRecord
100
AcDbBlockTableRecord
  2
*D47
  0
BLOCK_RECORD
  5
4E7
330
1
100
AcDbSymbolTableRecord
100
AcDbBlockTableRecord
  2
*D48
  0
BLOCK_RECORD
  5
4F6
330
1
100
AcDbSymbolTableRecord
100
AcDbBlockTableRecord
  2
*D49
  0
BLOCK_RECORD
  5
504
330
1
100
AcDbSymbolTableRecord
100
AcDbBlockTableRecord
  2
*D50
  0
BLOCK_RECORD
  5
511
330
1
100
AcDbSymbolTableRecord
100
AcDbBlockTableRecord
  2
*D51
  0
BLOCK_RECORD
  5
51F
330
1
100
AcDbSymbolTableRecord
100
AcDbBlockTableRecord
  2
SYM0009
  0
BLOCK_RECORD
  5
528
330
1
100
AcDbSymbolTableRecord
100
AcDbBlockTableRecord
  2
SYM0010
  0
BLOCK_RECORD
  5
532
330
1
100
AcDbSymbolTableRecord
100
AcDbBlockTableRecord
  2
*D54
  0
BLOCK_RECORD
  5
53F
330
1
100
AcDbSymbolTableRecord
100
AcDbBlockTableRecord
  2
*D55
  0
BLOCK_RECORD
  5
54A
330
1
100
AcDbSymbolTableRecord
100
AcDbBlockTableRecord
  2
SYM0011
  0
BLOCK_RECORD
  5
5F9
330
1
100
AcDbSymbolTableRecord
100
AcDbBlockTableRecord
  2
$X0
  0
ENDTAB
  0
ENDSEC
  0
SECTION
  2
BLOCKS
  0
BLOCK
  5
20
330
1F
100
AcDbEntity
  8
0
100
AcDbBlockBegin
  2
*MODEL_SPACE
 70
     0
 10
0.0
 20
0.0
 30
0.0
  3
*MODEL_SPACE
  1

  0
ENDBLK
  5
21
330
1F
100
AcDbEntity
  8
0
100
AcDbBlockEnd
  0
BLOCK
  5
1C
330
1B
100
AcDbEntity
 67
     1
  8
0
100
AcDbBlockBegin
  2
*PAPER_SPACE
 70
     0
 10
0.0
 20
0.0
 30
0.0
  3
*PAPER_SPACE
  1

  0
ENDBLK
  5
1D
330
1B
100
AcDbEntity
 67
     1
  8
0
100
AcDbBlockEnd
  0
BLOCK
  5
2A5
330
2A4
100
AcDbEntity
  8
0
100
AcDbBlockBegin
  2
_OPEN30
 70
     0
 10
0.0
 20
0.0
 30
0.0
  3
_OPEN30
  1

  0
LINE
  5
2A7
330
2A4
100
AcDbEntity
  8
0
  6
BYBLOCK
 62
     0
100
AcDbLine
 10
-1.0
 20
0.267949
 30
0.0
 11
0.0
 21
0.0
 31
0.0
  0
LINE
  5
2A8
330
2A4
100
AcDbEntity
  8
0
  6
BYBLOCK
 62
     0
100
AcDbLine
 10
0.0
 20
0.0
 30
0.0
 11
-1.0
 21
-0.267949
 31
0.0
  0
LINE
  5
2A9
330
2A4
100
AcDbEntity
  8
0
  6
BYBLOCK
 62
     0
100
AcDbLine
 10
0.0
 20
0.0
 30
0.0
 11
-1.0
 21
0.0
 31
0.0
  0
ENDBLK
  5
2A6
330
2A4
100
AcDbEntity
  8
0
100
AcDbBlockEnd
  0
BLOCK
  5
2AC
330
2AB
100
AcDbEntity
  8
0
100
AcDbBlockBegin
  2
*D2
 70
     1
 10
0.0
 20
0.0
 30
0.0
  3
*D2
  1

  0
LINE
  5
2AE
330
2AB
100
AcDbEntity
  8
0
 62
     0
100
AcDbLine
 10
-262.32757640781
 20
186.414919027768
 30
0.0
 11
-246.0033930733404
 21
158.1406046078715
 31
0.0
  0
LINE
  5
2AF
330
2AB
100
AcDbEntity
  8
0
 62
     0
100
AcDbLine
 10
-270.8448818966083
 20
177.1673249362406
 30
0.0
 11
-256.3956978721228
 21
152.1406045271045
 31
0.0
  0
LINE
  5
2B0
330
2AB
100
AcDbEntity
  8
0
 62
     0
100
AcDbLine
 10
-249.2364695104656
 20
157.7404572419858
 30
0.0
 11
-254.4326219098568
 21
154.7404572016023
 31
0.0
  0
INSERT
  5
2B1
330
2AB
100
AcDbEntity
  8
0
 62
     0
100
AcDbBlockReference
  2
_OPEN30
 10
-246.6383933107701
 20
159.2404572621776
 30
0.0
 41
3.0
 42
3.0
 43
3.0
 50
30.00000044529215
  0
INSERT
  5
2B2
330
2AB
100
AcDbEntity
  8
0
 62
     0
100
AcDbBlockReference
  2
_OPEN30
 10
-257.0306981095524
 20
153.2404571814105
 30
0.0
 41
3.0
 42
3.0
 43
3.0
 50
210.0000004452921
  0
MTEXT
  5
2B3
330
2AB
100
AcDbEntity
  8
0
 62
     0
100
AcDbMText
 10
-253.1537332331058
 20
158.5280993970477
 30
0.0
 40
3.5
 41
0.0
 71
     5
 72
     1
  1
12
 11
0.8660253998985317
 21
0.5000000067305885
 31
0.0
  0
POINT
  5
2B4
330
2AB
100
AcDbEntity
  8
DEFPOINTS
 62
     0
100
AcDbPoint
 10
-263.5975764249057
 20
188.6146235435102
 30
0.0
  0
POINT
  5
2B5
330
2AB
100
AcDbEntity
  8
DEFPOINTS
 62
     0
100
AcDbPoint
 10
-272.114881913704
 20
179.3670294519829
 30
0.0
  0
POINT
  5
2B6
330
2AB
100
AcDbEntity
  8
DEFPOINTS
 62
     0
100
AcDbPoint
 10
-257.0305139585755
 20
153.240138222568
 30
0.0
  0
ENDBLK
  5
2AD
330
2AB
100
AcDbEntity
  8
0
100
AcDbBlockEnd
  0
BLOCK
  5
2B9
330
2B8
100
AcDbEntity
  8
0
100
AcDbBlockBegin
  2
*D3
 70
     1
 10
0.0
 20
0.0
 30
0.0
  3
*D3
  1

  0
LINE
  5
2BB
330
2B8
100
AcDbEntity
  8
0
 62
     0
100
AcDbLine
 10
-268.3978729570659
 20
202.0089808109976
 30
0.0
 11
-254.0999041290098
 21
210.2639171109022
 31
0.0
  0
LINE
  5
2BC
330
2B8
100
AcDbEntity
  8
0
 62
     0
100
AcDbLine
 10
-261.3978728628376
 20
189.8846252124181
 30
0.0
 11
-247.0999040347816
 21
198.1395615123227
 31
0.0
  0
LINE
  5
2BD
330
2B8
100
AcDbEntity
  8
0
 62
     0
100
AcDbLine
 10
-253.6997468522499
 20
207.0308463958229
 30
0.0
 11
-249.6997467984052
 21
200.1026431966346
 31
0.0
  0
INSERT
  5
2BE
330
2B8
100
AcDbEntity
  8
0
 62
     0
100
AcDbBlockReference
  2
_OPEN30
 10
-255.1997468724417
 20
209.6289225955185
 30
0.0
 41
3.0
 42
3.0
 43
3.0
 50
120.000000445292
  0
INSERT
  5
2BF
330
2B8
100
AcDbEntity
  8
0
 62
     0
100
AcDbBlockReference
  2
_OPEN30
 10
-248.1997467782135
 20
197.504566996939
 30
0.0
 41
3.0
 42
3.0
 43
3.0
 50
300.000000445292
  0
POINT
  5
2C1
330
2B8
100
AcDbEntity
  8
DEFPOINTS
 62
     0
100
AcDbPoint
 10
-270.5975774728082
 20
200.7389807939019
 30
0.0
  0
POINT
  5
2C2
330
2B8
100
AcDbEntity
  8
DEFPOINTS
 62
     0
100
AcDbPoint
 10
-263.5975773785799
 20
188.6146251953224
 30
0.0
  0
POINT
  5
2C3
330
2B8
100
AcDbEntity
  8
DEFPOINTS
 62
     0
100
AcDbPoint
 10
-248.1997393270362
 20
197.5045712988783
 30
0.0
  0
MTEXT
  5
2C4
330
2B8
100
AcDbEntity
  8
0
 62
     7
100
AcDbMText
 10
-251.6997451782227
 20
204.4417419433594
 30
0.0
 40
3.5
 41
0.0
 71
     8
 72
     1
  1
\W1;14h8
 11
0.5000000000000001
 21
-0.8660254037844386
 31
0.0
  0
ENDBLK
  5
2BA
330
2B8
100
AcDbEntity
  8
0
100
AcDbBlockEnd
  0
BLOCK
  5
2C7
330
2C6
100
AcDbEntity
  8
0
100
AcDbBlockBegin
  2
_NONE
 70
     0
 10
0.0
 20
0.0
 30
0.0
  3
_NONE
  1

  0
ENDBLK
  5
2C8
330
2C6
100
AcDbEntity
  8
0
100
AcDbBlockEnd
  0
BLOCK
  5
2CA
330
2C9
100
AcDbEntity
  8
0
100
AcDbBlockBegin
  2
*D5
 70
     1
 10
0.0
 20
0.0
 30
0.0
  3
*D5
  1

  0
MTEXT
  5
2D0
330
2C9
100
AcDbEntity
  8
0
 62
     0
100
AcDbMText
 10
-296.7713563297594
 20
219.9292951384719
 30
0.0
 40
3.5
 41
0.0
 71
     5
 72
     1
  1
2
 11
0.8660253998985338
 21
0.5000000067305845
 31
0.0
  0
POINT
  5
2D1
330
2C9
100
AcDbEntity
  8
DEFPOINTS
 62
     0
100
AcDbPoint
 10
-286.1611419232444
 20
217.6958648197138
 30
0.0
  0
POINT
  5
2D2
330
2C9
100
AcDbEntity
  8
DEFPOINTS
 62
     0
100
AcDbPoint
 10
-278.9456535114869
 20
209.1982724595902
 30
0.0
  0
POINT
  5
2D3
330
2C9
100
AcDbEntity
  8
DEFPOINTS
 62
     0
100
AcDbPoint
 10
-286.728622137373
 20
222.6787693113883
 30
0.0
  0
LINE
  5
2D4
330
2C9
100
AcDbEntity
  8
0
  6
CONTINUOUS
 62
     7
100
AcDbLine
 10
-293.9599342265257
 20
218.5037692551879
 30
0.0
 11
-286.728622137373
 21
222.6787693113883
 31
0.0
  0
LINE
  5
2D5
330
2C9
100
AcDbEntity
  8
0
  6
CONTINUOUS
 62
     7
100
AcDbLine
 10
-288.46067293717
 20
221.6787692979271
 30
0.0
 11
-290.6967408974501
 21
219.4427013030196
 31
0.0
  0
LINE
  5
2D6
330
2C9
100
AcDbEntity
  8
0
  6
CONTINUOUS
 62
     7
100
AcDbLine
 10
-288.46067293717
 20
221.6787692979271
 30
0.0
 11
-291.5151985927675
 21
220.8603115897114
 31
0.0
  0
LINE
  5
2D7
330
2C9
100
AcDbEntity
  8
0
  6
CONTINUOUS
 62
     7
100
AcDbLine
 10
-288.46067293717
 20
221.6787692979271
 30
0.0
 11
-294.275501746053
 21
218.3215762595713
 31
0.0
  0
ENDBLK
  5
2CB
330
2C9
100
AcDbEntity
  8
0
100
AcDbBlockEnd
  0
BLOCK
  5
2DA
330
2D9
100
AcDbEntity
  8
0
100
AcDbBlockBegin
  2
_ORIGIN
 70
     0
 10
0.0
 20
0.0
 30
0.0
  3
_ORIGIN
  1

  0
CIRCLE
  5
2DC
330
2D9
100
AcDbEntity
  8
0
  6
BYBLOCK
 62
     0
100
AcDbCircle
 10
0.0
 20
0.0
 30
0.0
 40
0.5
  0
LINE
  5
2DD
330
2D9
100
AcDbEntity
  8
0
  6
BYBLOCK
 62
     0
100
AcDbLine
 10
0.0
 20
0.0
 30
0.0
 11
-1.0
 21
0.0
 31
0.0
  0
ENDBLK
  5
2DB
330
2D9
100
AcDbEntity
  8
0
100
AcDbBlockEnd
  0
BLOCK
  5
2DF
330
2DE
100
AcDbEntity
  8
0
100
AcDbBlockBegin
  2
*D7
 70
     1
 10
0.0
 20
0.0
 30
0.0
  3
*D7
  1

  0
MTEXT
  5
2E9
330
2DE
100
AcDbEntity
  8
0
 62
     0
100
AcDbMText
 10
-278.4674402001477
 20
230.4964824245122
 30
0.0
 40
3.5
 41
0.0
 71
     5
 72
     1
  1
3
 11
0.8660253998985311
 21
0.5000000067305892
 31
0.0
  0
POINT
  5
2EA
330
2DE
100
AcDbEntity
  8
DEFPOINTS
 62
     0
100
AcDbPoint
 10
-270.5975765191339
 20
200.7389791420896
 30
0.0
  0
POINT
  5
2EB
330
2DE
100
AcDbEntity
  8
DEFPOINTS
 62
     0
100
AcDbPoint
 10
-278.445649690059
 20
208.3322404524422
 30
0.0
  0
POINT
  5
2EC
330
2DE
100
AcDbEntity
  8
DEFPOINTS
 62
     0
100
AcDbPoint
 10
-286.728622137373
 20
222.6787693113883
 30
0.0
  0
LINE
  5
2ED
330
2DE
100
AcDbEntity
  8
0
  6
CONTINUOUS
 62
     7
100
AcDbLine
 10
-271.8675765362295
 20
202.938683657832
 30
0.0
 11
-284.7655461751071
 21
225.2786219858863
 31
0.0
  0
LINE
  5
2EE
330
2DE
100
AcDbEntity
  8
0
  6
CONTINUOUS
 62
     7
100
AcDbLine
 10
-279.7156497071547
 20
210.5319449681845
 30
0.0
 11
-287.3636223748027
 21
223.7786219656944
 31
0.0
  0
LINE
  5
2EF
330
2DE
100
AcDbEntity
  8
0
  6
CONTINUOUS
 62
     7
100
AcDbLine
 10
-278.6312846483217
 20
227.3537693743193
 30
0.0
 11
-286.728622137373
 21
222.6787693113883
 31
0.0
  0
LINE
  5
2F0
330
2DE
100
AcDbEntity
  8
0
  6
CONTINUOUS
 62
     7
100
AcDbLine
 10
-284.1305459376774
 20
224.17876933158
 30
0.0
 11
-281.8944779773973
 21
226.4148373264875
 31
0.0
  0
LINE
  5
2F1
330
2DE
100
AcDbEntity
  8
0
  6
CONTINUOUS
 62
     7
100
AcDbLine
 10
-284.1305459376774
 20
224.17876933158
 30
0.0
 11
-281.0760202820799
 21
224.9972270397957
 31
0.0
  0
CIRCLE
  5
2F2
330
2DE
100
AcDbEntity
  8
0
  6
CONTINUOUS
 62
     7
100
AcDbCircle
 10
-286.728622137373
 20
222.6787693113883
 30
0.0
 40
1.5
  0
LINE
  5
2F3
330
2DE
100
AcDbEntity
  8
0
  6
CONTINUOUS
 62
     7
100
AcDbLine
 10
-284.1305459376774
 20
224.17876933158
 30
0.0
 11
-277.7515637417634
 21
227.8616764856485
 31
0.0
  0
ENDBLK
  5
2E0
330
2DE
100
AcDbEntity
  8
0
100
AcDbBlockEnd
  0
BLOCK
  5
2F6
330
2F5
100
AcDbEntity
  8
0
100
AcDbBlockBegin
  2
*D8
 70
     1
 10
0.0
 20
0.0
 30
0.0
  3
*D8
  1

  0
LINE
  5
2F8
330
2F5
100
AcDbEntity
  8
0
 62
     0
100
AcDbLine
 10
-280.0810951983812
 20
176.1649155861661
 30
0.0
 11
-263.7571654189921
 21
147.8910403365435
 31
0.0
  0
LINE
  5
2F9
330
2F5
100
AcDbEntity
  8
0
 62
     0
100
AcDbLine
 10
-264.3921656564218
 20
148.9908929908496
 30
0.0
 11
-274.9826075945481
 21
142.8764983772927
 31
0.0
  0
LINE
  5
2FA
330
2F5
100
AcDbEntity
  8
0
 62
     0
100
AcDbLine
 10
-259.6290259569798
 20
151.7408930278679
 30
0.0
 11
-261.7940894567262
 21
150.4908930110414
 31
0.0
  0
INSERT
  5
2FB
330
2F5
100
AcDbEntity
  8
0
 62
     0
100
AcDbBlockReference
  2
_OPEN30
 10
-257.0309497572842
 20
153.2408930480596
 30
0.0
 41
3.0
 42
3.0
 43
3.0
 50
30.00000044529203
  0
INSERT
  5
2FC
330
2F5
100
AcDbEntity
  8
0
 62
     0
100
AcDbBlockReference
  2
_OPEN30
 10
-264.3921656564218
 20
148.9908929908496
 30
0.0
 41
3.0
 42
3.0
 43
3.0
 50
210.000000445292
  0
MTEXT
  5
2FD
330
2F5
100
AcDbEntity
  8
0
 62
     0
100
AcDbMText
 10
-272.3102997431537
 20
147.4767144265566
 30
0.0
 40
3.5
 41
0.0
 71
     5
 72
     1
  1
8.5
 11
0.8660253998985327
 21
0.5000000067305868
 31
0.0
  0
POINT
  5
2FE
330
2F5
100
AcDbEntity
  8
DEFPOINTS
 62
     0
100
AcDbPoint
 10
-272.4898800114033
 20
180.0165451982821
 30
0.0
  0
POINT
  5
2FF
330
2F5
100
AcDbEntity
  8
DEFPOINTS
 62
     0
100
AcDbPoint
 10
-281.3510952154769
 20
178.3646201019084
 30
0.0
  0
POINT
  5
300
330
2F5
100
AcDbEntity
  8
DEFPOINTS
 62
     0
100
AcDbPoint
 10
-264.3917298577131
 20
148.990138165358
 30
0.0
  0
ENDBLK
  5
2F7
330
2F5
100
AcDbEntity
  8
0
100
AcDbBlockEnd
  0
BLOCK
  5
303
330
302
100
AcDbEntity
  8
0
100
AcDbBlockBegin
  2
*D9
 70
     1
 10
0.0
 20
0.0
 30
0.0
  3
*D9
  1

  0
LINE
  5
305
330
302
100
AcDbEntity
  8
0
 62
     0
100
AcDbLine
 10
-289.4527394830468
 20
193.3170488163688
 30
0.0
 11
-320.3333507085715
 21
175.4881192925742
 31
0.0
  0
LINE
  5
306
330
302
100
AcDbEntity
  8
0
 62
     0
100
AcDbLine
 10
-279.4527393484351
 20
175.9965408183982
 30
0.0
 11
-310.3333505739599
 21
158.1676112946036
 31
0.0
  0
LINE
  5
307
330
302
100
AcDbEntity
  8
0
 62
     0
100
AcDbLine
 10
-317.7334947304489
 20
173.5250452376569
 30
0.0
 11
-310.7334946362208
 21
161.4006896390776
 31
0.0
  0
INSERT
  5
308
330
302
100
AcDbEntity
  8
0
 62
     0
100
AcDbBlockReference
  2
_OPEN30
 10
-319.2334947506407
 20
176.1231214373526
 30
0.0
 41
3.0
 42
3.0
 43
3.0
 50
120.000000445292
  0
INSERT
  5
309
330
302
100
AcDbEntity
  8
0
 62
     0
100
AcDbBlockReference
  2
_OPEN30
 10
-309.233494616029
 20
158.802613439382
 30
0.0
 41
3.0
 42
3.0
 43
3.0
 50
300.000000445292
  0
MTEXT
  5
30A
330
302
100
AcDbEntity
  8
0
 62
     0
100
AcDbMText
 10
-311.9467236009992
 20
168.7835637384769
 30
0.0
 40
3.5
 41
0.0
 71
     5
 72
     1
  1
20
 11
0.500000006730586
 21
-0.866025399898533
 31
0.0
  0
POINT
  5
30B
330
302
100
AcDbEntity
  8
DEFPOINTS
 62
     0
100
AcDbPoint
 10
-287.2530349673045
 20
194.5870488334645
 30
0.0
  0
POINT
  5
30C
330
302
100
AcDbEntity
  8
DEFPOINTS
 62
     0
100
AcDbPoint
 10
-277.2530348326928
 20
177.2665408354939
 30
0.0
  0
POINT
  5
30D
330
302
100
AcDbEntity
  8
DEFPOINTS
 62
     0
100
AcDbPoint
 10
-309.2346725685422
 20
158.8019333481691
 30
0.0
  0
ENDBLK
  5
304
330
302
100
AcDbEntity
  8
0
100
AcDbBlockEnd
  0
BLOCK
  5
310
330
30F
100
AcDbEntity
  8
0
100
AcDbBlockBegin
  2
*D10
 70
     1
 10
0.0
 20
0.0
 30
0.0
  3
*D10
  1

  0
LINE
  5
312
330
30F
100
AcDbEntity
  8
0
 62
     0
100
AcDbLine
 10
-430.54
 20
302.5
 30
0.0
 11
-485.2679890136719
 21
302.5
 31
0.0
  0
LINE
  5
313
330
30F
100
AcDbEntity
  8
0
 62
     0
100
AcDbLine
 10
-430.54
 20
236.5
 30
0.0
 11
-485.2679890136719
 21
236.5
 31
0.0
  0
LINE
  5
314
330
30F
100
AcDbEntity
  8
0
 62
     0
100
AcDbLine
 10
-483.998
 20
299.5
 30
0.0
 11
-483.998
 21
239.5
 31
0.0
  0
INSERT
  5
315
330
30F
100
AcDbEntity
  8
0
 62
     0
100
AcDbBlockReference
  2
_OPEN30
 10
-483.998
 20
302.5
 30
0.0
 41
3.0
 42
3.0
 43
3.0
 50
90.0
  0
INSERT
  5
316
330
30F
100
AcDbEntity
  8
0
 62
     0
100
AcDbBlockReference
  2
_OPEN30
 10
-483.998
 20
236.5
 30
0.0
 41
3.0
 42
3.0
 43
3.0
 50
270.0
  0
MTEXT
  5
317
330
30F
100
AcDbEntity
  8
0
 62
     0
100
AcDbMText
 10
-486.6387500000001
 20
269.501
 30
0.0
 40
3.5
 41
0.0
 71
     5
 72
     1
  1
\U+220566
 11
0.0
 21
1.0
 31
0.0
  0
POINT
  5
318
330
30F
100
AcDbEntity
  8
DEFPOINTS
 62
     0
100
AcDbPoint
 10
-428.0
 20
302.5
 30
0.0
  0
POINT
  5
319
330
30F
100
AcDbEntity
  8
DEFPOINTS
 62
     0
100
AcDbPoint
 10
-428.0
 20
236.5
 30
0.0
  0
POINT
  5
31A
330
30F
100
AcDbEntity
  8
DEFPOINTS
 62
     0
100
AcDbPoint
 10
-484.0
 20
236.5
 30
0.0
  0
ENDBLK
  5
311
330
30F
100
AcDbEntity
  8
0
100
AcDbBlockEnd
  0
BLOCK
  5
31D
330
31C
100
AcDbEntity
  8
0
100
AcDbBlockBegin
  2
*D11
 70
     1
 10
0.0
 20
0.0
 30
0.0
  3
*D11
  1

  0
MTEXT
  5
322
330
31C
100
AcDbEntity
  8
0
 62
     0
100
AcDbMText
 10
-327.14075
 20
269.501
 30
0.0
 40
3.5
 41
0.0
 71
     5
 72
     1
  1
\U+220570
 11
0.0
 21
1.0
 31
0.0
  0
POINT
  5
323
330
31C
100
AcDbEntity
  8
DEFPOINTS
 62
     0
100
AcDbPoint
 10
-355.1000061035156
 20
234.5
 30
0.0
  0
POINT
  5
324
330
31C
100
AcDbEntity
  8
DEFPOINTS
 62
     0
100
AcDbPoint
 10
-354.2089538574219
 20
304.5
 30
0.0
  0
POINT
  5
325
330
31C
100
AcDbEntity
  8
DEFPOINTS
 62
     0
100
AcDbPoint
 10
-324.5
 20
304.5
 30
0.0
  0
LINE
  5
326
330
31C
100
AcDbEntity
  8
0
  6
CONTINUOUS
 62
     7
100
AcDbLine
 10
-352.5600061035156
 20
234.5
 30
0.0
 11
-323.2299957275391
 21
234.5
 31
0.0
  0
LINE
  5
327
330
31C
100
AcDbEntity
  8
0
  6
CONTINUOUS
 62
     7
100
AcDbLine
 10
-324.5
 20
234.5
 30
0.0
 11
-324.5
 21
264.6967010498047
 31
0.0
  0
LINE
  5
328
330
31C
100
AcDbEntity
  8
0
  6
CONTINUOUS
 62
     7
100
AcDbLine
 10
-324.5
 20
234.5
 30
0.0
 11
-325.3184576843
 21
237.5545256620056
 31
0.0
  0
LINE
  5
329
330
31C
100
AcDbEntity
  8
0
  6
CONTINUOUS
 62
     7
100
AcDbLine
 10
-324.5
 20
234.5
 30
0.0
 11
-323.6815423157
 21
237.5545256620056
 31
0.0
  0
LINE
  5
32A
330
31C
100
AcDbEntity
  8
0
  6
CONTINUOUS
 62
     7
100
AcDbLine
 10
-324.5
 20
264.6967010498047
 30
0.0
 11
-324.5
 21
276.1979389190674
 31
0.0
  0
ENDBLK
  5
31E
330
31C
100
AcDbEntity
  8
0
100
AcDbBlockEnd
  0
BLOCK
  5
32D
330
32C
100
AcDbEntity
  8
0
100
AcDbBlockBegin
  2
*D12
 70
     1
 10
0.0
 20
0.0
 30
0.0
  3
*D12
  1

  0
MTEXT
  5
332
330
32C
100
AcDbEntity
  8
0
 62
     0
100
AcDbMText
 10
-316.14075
 20
269.501
 30
0.0
 40
3.5
 41
0.0
 71
     5
 72
     1
  1
\U+220582
 11
0.0
 21
1.0
 31
0.0
  0
POINT
  5
333
330
32C
100
AcDbEntity
  8
DEFPOINTS
 62
     0
100
AcDbPoint
 10
-357.5
 20
228.5
 30
0.0
  0
POINT
  5
334
330
32C
100
AcDbEntity
  8
DEFPOINTS
 62
     0
100
AcDbPoint
 10
-357.5
 20
310.5
 30
0.0
  0
POINT
  5
335
330
32C
100
AcDbEntity
  8
DEFPOINTS
 62
     0
100
AcDbPoint
 10
-313.5
 20
310.5
 30
0.0
  0
LINE
  5
336
330
32C
100
AcDbEntity
  8
0
  6
CONTINUOUS
 62
     7
100
AcDbLine
 10
-354.96
 20
228.5
 30
0.0
 11
-312.2299957275391
 21
228.5
 31
0.0
  0
LINE
  5
337
330
32C
100
AcDbEntity
  8
0
  6
CONTINUOUS
 62
     7
100
AcDbLine
 10
-313.5
 20
228.5
 30
0.0
 11
-313.5
 21
264.6967010498047
 31
0.0
  0
LINE
  5
338
330
32C
100
AcDbEntity
  8
0
  6
CONTINUOUS
 62
     7
100
AcDbLine
 10
-313.5
 20
228.5
 30
0.0
 11
-314.3184576843
 21
231.5545256620056
 31
0.0
  0
LINE
  5
339
330
32C
100
AcDbEntity
  8
0
  6
CONTINUOUS
 62
     7
100
AcDbLine
 10
-313.5
 20
228.5
 30
0.0
 11
-312.6815423157
 21
231.5545256620056
 31
0.0
  0
LINE
  5
33A
330
32C
100
AcDbEntity
  8
0
  6
CONTINUOUS
 62
     7
100
AcDbLine
 10
-313.5
 20
264.6967010498047
 30
0.0
 11
-313.5
 21
276.1979389190674
 31
0.0
  0
ENDBLK
  5
32E
330
32C
100
AcDbEntity
  8
0
100
AcDbBlockEnd
  0
BLOCK
  5
33D
330
33C
100
AcDbEntity
  8
0
100
AcDbBlockBegin
  2
*D13
 70
     1
 10
0.0
 20
0.0
 30
0.0
  3
*D13
  1

  0
LINE
  5
33F
330
33C
100
AcDbEntity
  8
0
 62
     0
100
AcDbLine
 10
-443.5
 20
181.96
 30
0.0
 11
-443.5
 21
144.2309957275391
 31
0.0
  0
LINE
  5
340
330
33C
100
AcDbEntity
  8
0
 62
     0
100
AcDbLine
 10
-440.5
 20
145.501
 30
0.0
 11
-360.5
 21
145.501
 31
0.0
  0
INSERT
  5
341
330
33C
100
AcDbEntity
  8
0
 62
     0
100
AcDbBlockReference
  2
_OPEN30
 10
-443.5
 20
145.501
 30
0.0
 41
3.0
 42
3.0
 43
3.0
 50
180.0
  0
INSERT
  5
342
330
33C
100
AcDbEntity
  8
0
 62
     0
100
AcDbBlockReference
  2
_OPEN30
 10
-357.5
 20
145.501
 30
0.0
 41
3.0
 42
3.0
 43
3.0
  0
MTEXT
  5
343
330
33C
100
AcDbEntity
  8
0
 62
     0
100
AcDbMText
 10
-400.499
 20
148.14175
 30
0.0
 40
3.5
 41
0.0
 71
     5
 72
     1
  1
86
  0
POINT
  5
344
330
33C
100
AcDbEntity
  8
DEFPOINTS
 62
     0
100
AcDbPoint
 10
-443.5
 20
184.5
 30
0.0
  0
POINT
  5
345
330
33C
100
AcDbEntity
  8
DEFPOINTS
 62
     0
100
AcDbPoint
 10
-357.5
 20
150.1647186279297
 30
0.0
  0
POINT
  5
346
330
33C
100
AcDbEntity
  8
DEFPOINTS
 62
     0
100
AcDbPoint
 10
-357.5
 20
145.5
 30
0.0
  0
ENDBLK
  5
33E
330
33C
100
AcDbEntity
  8
0
100
AcDbBlockEnd
  0
BLOCK
  5
349
330
348
100
AcDbEntity
  8
0
100
AcDbBlockBegin
  2
*D14
 70
     1
 10
0.0
 20
0.0
 30
0.0
  3
*D14
  1

  0
LINE
  5
34B
330
348
100
AcDbEntity
  8
0
 62
     0
100
AcDbLine
 10
-315.6590051269531
 20
374.9500045776367
 30
0.0
 11
-290.2289957275391
 21
374.9500045776367
 31
0.0
  0
LINE
  5
34C
330
348
100
AcDbEntity
  8
0
 62
     0
100
AcDbLine
 10
-315.6590051269531
 20
279.9500036239624
 30
0.0
 11
-290.228995727539
 21
279.9500036239624
 31
0.0
  0
LINE
  5
34D
330
348
100
AcDbEntity
  8
0
 62
     0
100
AcDbLine
 10
-291.499
 20
371.9500045776367
 30
0.0
 11
-291.499
 21
282.9500036239624
 31
0.0
  0
INSERT
  5
34E
330
348
100
AcDbEntity
  8
0
 62
     0
100
AcDbBlockReference
  2
_OPEN30
 10
-291.499
 20
374.9500045776367
 30
0.0
 41
3.0
 42
3.0
 43
3.0
 50
90.00000000000004
  0
INSERT
  5
34F
330
348
100
AcDbEntity
  8
0
 62
     0
100
AcDbBlockReference
  2
_OPEN30
 10
-291.499
 20
279.9500036239624
 30
0.0
 41
3.0
 42
3.0
 43
3.0
 50
270.0
  0
MTEXT
  5
350
330
348
100
AcDbEntity
  8
0
 62
     0
100
AcDbMText
 10
-294.13975
 20
327.451008392334
 30
0.0
 40
3.5
 41
0.0
 71
     5
 72
     1
  1
95
 11
-5.983517714755294E-16
 21
1.0
 31
0.0
  0
POINT
  5
351
330
348
100
AcDbEntity
  8
DEFPOINTS
 62
     0
100
AcDbPoint
 10
-318.1990051269531
 20
374.9500045776367
 30
0.0
  0
POINT
  5
352
330
348
100
AcDbEntity
  8
DEFPOINTS
 62
     0
100
AcDbPoint
 10
-318.1990051269531
 20
279.9500036239624
 30
0.0
  0
POINT
  5
353
330
348
100
AcDbEntity
  8
DEFPOINTS
 62
     0
100
AcDbPoint
 10
-291.5
 20
279.9500036239624
 30
0.0
  0
ENDBLK
  5
34A
330
348
100
AcDbEntity
  8
0
100
AcDbBlockEnd
  0
BLOCK
  5
356
330
355
100
AcDbEntity
  8
0
100
AcDbBlockBegin
  2
*D15
 70
     1
 10
0.0
 20
0.0
 30
0.0
  3
*D15
  1

  0
LINE
  5
358
330
355
100
AcDbEntity
  8
0
 62
     0
100
AcDbLine
 10
-310.6590051269531
 20
350.9500045776367
 30
0.0
 11
-301.2289957275391
 21
350.9500045776367
 31
0.0
  0
LINE
  5
359
330
355
100
AcDbEntity
  8
0
 62
     0
100
AcDbLine
 10
-302.499
 20
353.9500045776367
 30
0.0
 11
-302.499
 21
371.9500045776367
 31
0.0
  0
INSERT
  5
35A
330
355
100
AcDbEntity
  8
0
 62
     0
100
AcDbBlockReference
  2
_OPEN30
 10
-302.499
 20
350.9500045776367
 30
0.0
 41
3.0
 42
3.0
 43
3.0
 50
270.0
  0
INSERT
  5
35B
330
355
100
AcDbEntity
  8
0
 62
     0
100
AcDbBlockReference
  2
_OPEN30
 10
-302.499
 20
374.9500045776367
 30
0.0
 41
3.0
 42
3.0
 43
3.0
 50
90.0
  0
MTEXT
  5
35C
330
355
100
AcDbEntity
  8
0
 62
     0
100
AcDbMText
 10
-305.13975
 20
362.9510045776367
 30
0.0
 40
3.5
 41
0.0
 71
     5
 72
     1
  1
24
 11
0.0
 21
1.0
 31
0.0
  0
POINT
  5
35D
330
355
100
AcDbEntity
  8
DEFPOINTS
 62
     0
100
AcDbPoint
 10
-313.1990051269531
 20
350.9500045776367
 30
0.0
  0
POINT
  5
35E
330
355
100
AcDbEntity
  8
DEFPOINTS
 62
     0
100
AcDbPoint
 10
-247.2299957275391
 20
374.9500045776367
 30
0.0
  0
POINT
  5
35F
330
355
100
AcDbEntity
  8
DEFPOINTS
 62
     0
100
AcDbPoint
 10
-302.5
 20
374.9500045776367
 30
0.0
  0
ENDBLK
  5
357
330
355
100
AcDbEntity
  8
0
100
AcDbBlockEnd
  0
BLOCK
  5
362
330
361
100
AcDbEntity
  8
0
100
AcDbBlockBegin
  2
*D16
 70
     1
 10
0.0
 20
0.0
 30
0.0
  3
*D16
  1

  0
LINE
  5
364
330
361
100
AcDbEntity
  8
0
 62
     0
100
AcDbLine
 10
-310.6590051269531
 20
325.950008392334
 30
0.0
 11
-301.2279957275391
 21
325.950008392334
 31
0.0
  0
LINE
  5
365
330
361
100
AcDbEntity
  8
0
 62
     0
100
AcDbLine
 10
-302.498
 20
347.9500045776367
 30
0.0
 11
-302.498
 21
328.950008392334
 31
0.0
  0
INSERT
  5
366
330
361
100
AcDbEntity
  8
0
 62
     0
100
AcDbBlockReference
  2
_OPEN30
 10
-302.498
 20
350.9500045776367
 30
0.0
 41
3.0
 42
3.0
 43
3.0
 50
90.0
  0
INSERT
  5
367
330
361
100
AcDbEntity
  8
0
 62
     0
100
AcDbBlockReference
  2
_OPEN30
 10
-302.498
 20
325.950008392334
 30
0.0
 41
3.0
 42
3.0
 43
3.0
 50
270.0
  0
MTEXT
  5
368
330
361
100
AcDbEntity
  8
0
 62
     0
100
AcDbMText
 10
-305.1387500000001
 20
338.4510045776367
 30
0.0
 40
3.5
 41
0.0
 71
     5
 72
     1
  1
25
 11
0.0
 21
1.0
 31
0.0
  0
POINT
  5
369
330
361
100
AcDbEntity
  8
DEFPOINTS
 62
     0
100
AcDbPoint
 10
-269.2299957275391
 20
350.9500045776367
 30
0.0
  0
POINT
  5
36A
330
361
100
AcDbEntity
  8
DEFPOINTS
 62
     0
100
AcDbPoint
 10
-313.1990051269531
 20
325.950008392334
 30
0.0
  0
POINT
  5
36B
330
361
100
AcDbEntity
  8
DEFPOINTS
 62
     0
100
AcDbPoint
 10
-302.5
 20
325.950008392334
 30
0.0
  0
ENDBLK
  5
363
330
361
100
AcDbEntity
  8
0
100
AcDbBlockEnd
  0
BLOCK
  5
36E
330
36D
100
AcDbEntity
  8
0
100
AcDbBlockBegin
  2
*D17
 70
     1
 10
0.0
 20
0.0
 30
0.0
  3
*D17
  1

  0
LINE
  5
370
330
36D
100
AcDbEntity
  8
0
 62
     0
100
AcDbLine
 10
-357.5
 20
375.04
 30
0.0
 11
-357.5
 21
402.7700042724609
 31
0.0
  0
LINE
  5
371
330
36D
100
AcDbEntity
  8
0
 62
     0
100
AcDbLine
 10
-318.1990051269531
 20
377.4900045776367
 30
0.0
 11
-318.1990051269531
 21
402.7700042724609
 31
0.0
  0
LINE
  5
372
330
36D
100
AcDbEntity
  8
0
 62
     0
100
AcDbLine
 10
-354.5
 20
401.5
 30
0.0
 11
-321.1990051269531
 21
401.5
 31
0.0
  0
INSERT
  5
373
330
36D
100
AcDbEntity
  8
0
 62
     0
100
AcDbBlockReference
  2
_OPEN30
 10
-357.5
 20
401.5
 30
0.0
 41
3.0
 42
3.0
 43
3.0
 50
180.0
  0
INSERT
  5
374
330
36D
100
AcDbEntity
  8
0
 62
     0
100
AcDbBlockReference
  2
_OPEN30
 10
-318.1990051269531
 20
401.5
 30
0.0
 41
3.0
 42
3.0
 43
3.0
  0
MTEXT
  5
375
330
36D
100
AcDbEntity
  8
0
 62
     0
100
AcDbMText
 10
-337.8485025634766
 20
404.14075
 30
0.0
 40
3.5
 41
0.0
 71
     5
 72
     1
  1
39
  0
POINT
  5
376
330
36D
100
AcDbEntity
  8
DEFPOINTS
 62
     0
100
AcDbPoint
 10
-357.5
 20
372.5
 30
0.0
  0
POINT
  5
377
330
36D
100
AcDbEntity
  8
DEFPOINTS
 62
     0
100
AcDbPoint
 10
-318.1990051269531
 20
374.9500045776367
 30
0.0
  0
POINT
  5
378
330
36D
100
AcDbEntity
  8
DEFPOINTS
 62
     0
100
AcDbPoint
 10
-318.1990051269531
 20
401.5
 30
0.0
  0
ENDBLK
  5
36F
330
36D
100
AcDbEntity
  8
0
100
AcDbBlockEnd
  0
BLOCK
  5
37B
330
37A
100
AcDbEntity
  8
0
100
AcDbBlockBegin
  2
*D18
 70
     1
 10
0.0
 20
0.0
 30
0.0
  3
*D18
  1

  0
MTEXT
  5
383
330
37A
100
AcDbEntity
  8
0
 62
     0
100
AcDbMText
 10
-360.498
 20
159.14175
 30
0.0
 40
3.5
 41
0.0
 71
     5
 72
     1
  1
6
  0
POINT
  5
384
330
37A
100
AcDbEntity
  8
DEFPOINTS
 62
     0
100
AcDbPoint
 10
-357.5
 20
166.5
 30
0.0
  0
POINT
  5
385
330
37A
100
AcDbEntity
  8
DEFPOINTS
 62
     0
100
AcDbPoint
 10
-363.5
 20
228.5
 30
0.0
  0
POINT
  5
386
330
37A
100
AcDbEntity
  8
DEFPOINTS
 62
     0
100
AcDbPoint
 10
-363.5
 20
156.5
 30
0.0
  0
LINE
  5
387
330
37A
100
AcDbEntity
  8
0
  6
CONTINUOUS
 62
     7
100
AcDbLine
 10
-363.5
 20
225.96
 30
0.0
 11
-363.5
 21
155.2300033569336
 31
0.0
  0
LINE
  5
388
330
37A
100
AcDbEntity
  8
0
  6
CONTINUOUS
 62
     7
100
AcDbLine
 10
-351.15
 20
156.5
 30
0.0
 11
-369.85
 21
156.5
 31
0.0
  0
LINE
  5
389
330
37A
100
AcDbEntity
  8
0
  6
CONTINUOUS
 62
     7
100
AcDbLine
 10
-357.5
 20
156.5
 30
0.0
 11
-354.4454743379944
 21
157.3184576843
 31
0.0
  0
LINE
  5
38A
330
37A
100
AcDbEntity
  8
0
  6
CONTINUOUS
 62
     7
100
AcDbLine
 10
-357.5
 20
156.5
 30
0.0
 11
-354.4454743379944
 21
155.6815423157
 31
0.0
  0
LINE
  5
38B
330
37A
100
AcDbEntity
  8
0
  6
CONTINUOUS
 62
     7
100
AcDbLine
 10
-363.5
 20
156.5
 30
0.0
 11
-366.5545256620056
 21
155.6815423157
 31
0.0
  0
LINE
  5
38C
330
37A
100
AcDbEntity
  8
0
  6
CONTINUOUS
 62
     7
100
AcDbLine
 10
-363.5
 20
156.5
 30
0.0
 11
-366.5545256620056
 21
157.3184576843
 31
0.0
  0
ENDBLK
  5
37C
330
37A
100
AcDbEntity
  8
0
100
AcDbBlockEnd
  0
BLOCK
  5
38F
330
38E
100
AcDbEntity
  8
0
100
AcDbBlockBegin
  2
*D19
 70
     1
 10
0.0
 20
0.0
 30
0.0
  3
*D19
  1

  0
LINE
  5
391
330
38E
100
AcDbEntity
  8
0
 62
     0
100
AcDbLine
 10
-427.5
 20
328.54
 30
0.0
 11
-427.5
 21
347.7709966430664
 31
0.0
  0
LINE
  5
392
330
38E
100
AcDbEntity
  8
0
 62
     0
100
AcDbLine
 10
-440.5
 20
346.501
 30
0.0
 11
-430.5
 21
346.501
 31
0.0
  0
INSERT
  5
393
330
38E
100
AcDbEntity
  8
0
 62
     0
100
AcDbBlockReference
  2
_OPEN30
 10
-443.5
 20
346.501
 30
0.0
 41
3.0
 42
3.0
 43
3.0
 50
180.0
  0
INSERT
  5
394
330
38E
100
AcDbEntity
  8
0
 62
     0
100
AcDbBlockReference
  2
_OPEN30
 10
-427.5
 20
346.501
 30
0.0
 41
3.0
 42
3.0
 43
3.0
  0
MTEXT
  5
395
330
38E
100
AcDbEntity
  8
0
 62
     0
100
AcDbMText
 10
-430.1384958496094
 20
352.0584166666666
 30
0.0
 40
3.5
 41
0.0
 71
     5
 72
     1
  1
\A1;MAX{\H0.5x;\S ;}16\PMIN{\H0.5x;\S ;} 0
  0
POINT
  5
396
330
38E
100
AcDbEntity
  8
DEFPOINTS
 62
     0
100
AcDbPoint
 10
-443.5
 20
354.5
 30
0.0
  0
POINT
  5
397
330
38E
100
AcDbEntity
  8
DEFPOINTS
 62
     0
100
AcDbPoint
 10
-427.5
 20
326.0
 30
0.0
  0
POINT
  5
398
330
38E
100
AcDbEntity
  8
DEFPOINTS
 62
     0
100
AcDbPoint
 10
-427.5
 20
346.5
 30
0.0
  0
ENDBLK
  5
390
330
38E
100
AcDbEntity
  8
0
100
AcDbBlockEnd
  0
BLOCK
  5
39B
330
39A
100
AcDbEntity
  8
0
100
AcDbBlockBegin
  2
*D20
 70
     1
 10
0.0
 20
0.0
 30
0.0
  3
*D20
  1

  0
MTEXT
  5
3A1
330
39A
100
AcDbEntity
  8
0
 62
     0
100
AcDbMText
 10
-417.1425
 20
316.14775
 30
0.0
 40
3.5
 41
0.0
 71
     5
 72
     1
  1
\A1;1.5
  0
POINT
  5
3A2
330
39A
100
AcDbEntity
  8
DEFPOINTS
 62
     0
100
AcDbPoint
 10
-427.5
 20
302.5
 30
0.0
  0
POINT
  5
3A3
330
39A
100
AcDbEntity
  8
DEFPOINTS
 62
     0
100
AcDbPoint
 10
-429.0
 20
301.5
 30
0.0
  0
POINT
  5
3A4
330
39A
100
AcDbEntity
  8
DEFPOINTS
 62
     0
100
AcDbPoint
 10
-429.0
 20
313.5
 30
0.0
  0
LINE
  5
3A5
330
39A
100
AcDbEntity
  8
0
  6
CONTINUOUS
 62
     7
100
AcDbLine
 10
-421.15
 20
313.5
 30
0.0
 11
-429.0
 21
313.5
 31
0.0
  0
LINE
  5
3A6
330
39A
100
AcDbEntity
  8
0
  6
CONTINUOUS
 62
     7
100
AcDbLine
 10
-427.5
 20
313.5
 30
0.0
 11
-424.4454743379944
 21
314.3184576843
 31
0.0
  0
LINE
  5
3A7
330
39A
100
AcDbEntity
  8
0
  6
CONTINUOUS
 62
     7
100
AcDbLine
 10
-427.5
 20
313.5
 30
0.0
 11
-424.4454743379944
 21
312.6815423157
 31
0.0
  0
LINE
  5
3A8
330
39A
100
AcDbEntity
  8
0
  6
CONTINUOUS
 62
     7
100
AcDbLine
 10
-427.5
 20
313.5
 30
0.0
 11
-417.8041687011719
 21
313.5
 31
0.0
  0
ENDBLK
  5
39C
330
39A
100
AcDbEntity
  8
0
100
AcDbBlockEnd
  0
BLOCK
  5
3B0
330
3A9
100
AcDbEntity
  8
0
100
AcDbBlockBegin
  2
SYM0001
 70
     0
 10
0.0
 20
0.0
 30
0.0
  3
SYM0001
  1

  0
LINE
  5
3AA
330
3A9
100
AcDbEntity
  8
0
  6
CONTINUOUS
 62
     7
100
AcDbLine
 10
0.0
 20
0.0
 30
0.0
 11
-11.66392006491196
 21
-11.99997604589083
 31
0.0
  0
LINE
  5
3AB
330
3A9
100
AcDbEntity
  8
0
  6
CONTINUOUS
 62
     7
100
AcDbLine
 10
0.0
 20
0.0
 30
0.0
 11
-1.542091719908797
 21
-2.760788497554501
 31
0.0
  0
LINE
  5
3AC
330
3A9
100
AcDbEntity
  8
0
  6
CONTINUOUS
 62
     7
100
AcDbLine
 10
0.0
 20
0.0
 30
0.0
 11
-2.715884853090358
 21
-1.619867113560559
 31
0.0
  0
LINE
  5
3AD
330
3A9
100
AcDbEntity
  8
0
  6
CONTINUOUS
 62
     7
100
AcDbLine
 10
-11.66392006491196
 20
-11.99997604589083
 30
0.0
 11
-27.39931262847517
 21
-11.99997604589083
 31
0.0
  0
MTEXT
  5
3AE
330
3A9
100
AcDbEntity
  8
0
 62
     7
100
AcDbMText
 10
-12.89931262847517
 20
-11.12498004136572
 30
0.0
 40
3.5
 41
0.0
 71
     9
 72
     1
  1
{\W1;3-M5}
  0
ENDBLK
  5
3B1
330
3A9
100
AcDbEntity
  8
0
100
AcDbBlockEnd
  0
BLOCK
  5
3B9
330
3B2
100
AcDbEntity
  8
0
100
AcDbBlockBegin
  2
SYM0002
 70
     0
 10
0.0
 20
0.0
 30
0.0
  3
SYM0002
  1

  0
LINE
  5
3B3
330
3B2
100
AcDbEntity
  8
0
  6
CONTINUOUS
 62
     7
100
AcDbLine
 10
0.0
 20
0.0
 30
0.0
 11
5.910622918599529
 21
22.47161318482694
 31
0.0
  0
LINE
  5
3B4
330
3B2
100
AcDbEntity
  8
0
  6
CONTINUOUS
 62
     7
100
AcDbLine
 10
0.0
 20
0.0
 30
0.0
 11
-0.014542778153327
 21
3.162244220240467
 31
0.0
  0
LINE
  5
3B5
330
3B2
100
AcDbEntity
  8
0
  6
CONTINUOUS
 62
     7
100
AcDbLine
 10
0.0
 20
0.0
 30
0.0
 11
1.568527694639215
 21
2.745855216866033
 31
0.0
  0
LINE
  5
3B6
330
3B2
100
AcDbEntity
  8
0
  6
CONTINUOUS
 62
     7
100
AcDbLine
 10
5.910622918599529
 20
22.47161318482694
 30
0.0
 11
18.93891730734441
 21
22.47161318482694
 31
0.0
  0
MTEXT
  5
3B7
330
3B2
100
AcDbEntity
  8
0
 62
     7
100
AcDbMText
 10
8.063917307344411
 20
23.34661430387149
 30
0.0
 40
3.5
 41
0.0
 71
     7
 72
     1
  1
{\W0.833333;Ｍ１２}
  0
ENDBLK
  5
3BA
330
3B2
100
AcDbEntity
  8
0
100
AcDbBlockEnd
  0
BLOCK
  5
3C2
330
3BB
100
AcDbEntity
  8
0
100
AcDbBlockBegin
  2
SYM0003
 70
     0
 10
0.0
 20
0.0
 30
0.0
  3
SYM0003
  1

  0
LINE
  5
3BC
330
3BB
100
AcDbEntity
  8
0
  6
CONTINUOUS
 62
     7
100
AcDbLine
 10
0.0
 20
0.0
 30
0.0
 11
41.99999685103552
 21
16.87676273085782
 31
0.0
  0
LINE
  5
3BD
330
3BB
100
AcDbEntity
  8
0
  6
CONTINUOUS
 62
     7
100
AcDbLine
 10
0.0
 20
0.0
 30
0.0
 11
2.529102316752073
 21
1.898325965749848
 31
0.0
  0
LINE
  5
3BE
330
3BB
100
AcDbEntity
  8
0
  6
CONTINUOUS
 62
     7
100
AcDbLine
 10
0.0
 20
0.0
 30
0.0
 11
3.139429837930379
 21
0.379447352808313
 31
0.0
  0
LINE
  5
3BF
330
3BB
100
AcDbEntity
  8
0
  6
CONTINUOUS
 62
     7
100
AcDbLine
 10
41.99999685103552
 20
16.87676273085782
 30
0.0
 11
65.61202596444343
 21
16.87676273085782
 31
0.0
  0
MTEXT
  5
3C0
102
{ACAD_XDICTIONARY
360
614
102
}
330
3BB
100
AcDbEntity
  8
0
 62
     7
100
AcDbMText
 10
44.23702596444343
 20
18.62675711578601
 30
0.0
 40
3.5
 41
22.14
 71
     7
 72
     1
  1
{\fＭＳ Ｐゴシック|b0|i0|c0|p0;\W0.83333x;\U+30BB\U+30EC\U+30FC\U+30B7\U+30E7\U+30F3}\P{\fＭＳ Ｐゴシック|b0|i0|c0|p0;\W0.83333x;\U+30D4\U+30C3\U+30C1\U+FF11\U+FF0E\U+FF15}
1001
ACAD
1000
MTEXTBEGIN
1070
    44
1040
0.7875
1000
MTEXTEND
  0
ENDBLK
  5
3C3
330
3BB
100
AcDbEntity
  8
0
100
AcDbBlockEnd
  0
BLOCK
  5
3C6
330
3C5
100
AcDbEntity
  8
0
100
AcDbBlockBegin
  2
*D24
 70
     1
 10
0.0
 20
0.0
 30
0.0
  3
*D24
  1

  0
LINE
  5
3C8
330
3C5
100
AcDbEntity
  8
0
 62
     0
100
AcDbLine
 10
-302.499
 20
322.950008392334
 30
0.0
 11
-302.499
 21
282.9500036239624
 31
0.0
  0
INSERT
  5
3C9
330
3C5
100
AcDbEntity
  8
0
 62
     0
100
AcDbBlockReference
  2
_OPEN30
 10
-302.499
 20
325.950008392334
 30
0.0
 41
3.0
 42
3.0
 43
3.0
 50
90.0
  0
INSERT
  5
3CA
330
3C5
100
AcDbEntity
  8
0
 62
     0
100
AcDbBlockReference
  2
_OPEN30
 10
-302.499
 20
279.9500036239624
 30
0.0
 41
3.0
 42
3.0
 43
3.0
 50
270.0
  0
MTEXT
  5
3CB
330
3C5
100
AcDbEntity
  8
0
 62
     0
100
AcDbMText
 10
-305.13975
 20
302.951008392334
 30
0.0
 40
3.5
 41
0.0
 71
     5
 72
     1
  1
46
 11
0.0
 21
1.0
 31
0.0
  0
POINT
  5
3CC
330
3C5
100
AcDbEntity
  8
DEFPOINTS
 62
     0
100
AcDbPoint
 10
-310.8848266601562
 20
325.950008392334
 30
0.0
  0
POINT
  5
3CD
330
3C5
100
AcDbEntity
  8
DEFPOINTS
 62
     0
100
AcDbPoint
 10
-318.1990051269531
 20
279.9500036239624
 30
0.0
  0
POINT
  5
3CE
330
3C5
100
AcDbEntity
  8
DEFPOINTS
 62
     0
100
AcDbPoint
 10
-302.5
 20
279.9500036239624
 30
0.0
  0
ENDBLK
  5
3C7
330
3C5
100
AcDbEntity
  8
0
100
AcDbBlockEnd
  0
BLOCK
  5
3D1
330
3D0
100
AcDbEntity
  8
0
100
AcDbBlockBegin
  2
*D25
 70
     1
 10
0.0
 20
0.0
 30
0.0
  3
*D25
  1

  0
LINE
  5
3D3
330
3D0
100
AcDbEntity
  8
0
 62
     0
100
AcDbLine
 10
-358.04
 20
308.9500007629395
 30
0.0
 11
-386.2679890136719
 21
308.9500007629395
 31
0.0
  0
LINE
  5
3D4
330
3D0
100
AcDbEntity
  8
0
 62
     0
100
AcDbLine
 10
-384.998
 20
308.9500007629395
 30
0.0
 11
-384.998
 21
341.7315007629395
 31
0.0
  0
LINE
  5
3D5
330
3D0
100
AcDbEntity
  8
0
 62
     0
100
AcDbLine
 10
-384.998
 20
305.9500007629395
 30
0.0
 11
-384.998
 21
272.5
 31
0.0
  0
INSERT
  5
3D6
330
3D0
100
AcDbEntity
  8
0
 62
     0
100
AcDbBlockReference
  2
_OPEN30
 10
-384.998
 20
308.9500007629395
 30
0.0
 41
3.0
 42
3.0
 43
3.0
 50
90.0
  0
INSERT
  5
3D7
330
3D0
100
AcDbEntity
  8
0
 62
     0
100
AcDbBlockReference
  2
_OPEN30
 10
-384.998
 20
269.5
 30
0.0
 41
3.0
 42
3.0
 43
3.0
 50
270.0
  0
MTEXT
  5
3D8
330
3D0
100
AcDbEntity
  8
0
 62
     0
100
AcDbMText
 10
-390.5624166666667
 20
326.8407507629395
 30
0.0
 40
3.5
 41
0.0
 71
     5
 72
     1
  1
MAX 39.45\PMIN 35.76
 11
0.0
 21
1.0
 31
0.0
  0
POINT
  5
3D9
330
3D0
100
AcDbEntity
  8
DEFPOINTS
 62
     0
100
AcDbPoint
 10
-355.5
 20
308.9500007629395
 30
0.0
  0
POINT
  5
3DA
330
3D0
100
AcDbEntity
  8
DEFPOINTS
 62
     0
100
AcDbPoint
 10
-352.5
 20
269.5
 30
0.0
  0
POINT
  5
3DB
330
3D0
100
AcDbEntity
  8
DEFPOINTS
 62
     0
100
AcDbPoint
 10
-385.0
 20
269.5
 30
0.0
  0
ENDBLK
  5
3D2
330
3D0
100
AcDbEntity
  8
0
100
AcDbBlockEnd
  0
BLOCK
  5
3DE
330
3DD
100
AcDbEntity
  8
0
100
AcDbBlockBegin
  2
*D26
 70
     1
 10
0.0
 20
0.0
 30
0.0
  3
*D26
  1

  0
LINE
  5
3E0
330
3DD
100
AcDbEntity
  8
0
 62
     0
100
AcDbLine
 10
-365.04
 20
325.950008392334
 30
0.0
 11
-370.768004272461
 21
325.950008392334
 31
0.0
  0
LINE
  5
3E1
330
3DD
100
AcDbEntity
  8
0
 62
     0
100
AcDbLine
 10
-369.498
 20
322.950008392334
 30
0.0
 11
-369.498
 21
311.9500007629395
 31
0.0
  0
INSERT
  5
3E2
330
3DD
100
AcDbEntity
  8
0
 62
     0
100
AcDbBlockReference
  2
_OPEN30
 10
-369.498
 20
325.950008392334
 30
0.0
 41
3.0
 42
3.0
 43
3.0
 50
90.0
  0
INSERT
  5
3E3
330
3DD
100
AcDbEntity
  8
0
 62
     0
100
AcDbBlockReference
  2
_OPEN30
 10
-369.498
 20
308.9500007629395
 30
0.0
 41
3.0
 42
3.0
 43
3.0
 50
270.0
  0
MTEXT
  5
3E4
330
3DD
100
AcDbEntity
  8
0
 62
     0
100
AcDbMText
 10
-375.0396666666667
 20
322.4802060852051
 30
0.0
 40
3.5
 41
0.0
 71
     5
 72
     1
  1
MAX 29\PMIN 14
 11
0.0
 21
1.0
 31
0.0
  0
POINT
  5
3E5
330
3DD
100
AcDbEntity
  8
DEFPOINTS
 62
     0
100
AcDbPoint
 10
-362.5
 20
325.950008392334
 30
0.0
  0
POINT
  5
3E6
330
3DD
100
AcDbEntity
  8
DEFPOINTS
 62
     0
100
AcDbPoint
 10
-355.5
 20
308.9500007629395
 30
0.0
  0
POINT
  5
3E7
330
3DD
100
AcDbEntity
  8
DEFPOINTS
 62
     0
100
AcDbPoint
 10
-369.5
 20
308.9500007629395
 30
0.0
  0
ENDBLK
  5
3DF
330
3DD
100
AcDbEntity
  8
0
100
AcDbBlockEnd
  0
BLOCK
  5
3EA
330
3E9
100
AcDbEntity
  8
0
100
AcDbBlockBegin
  2
*D27
 70
     1
 10
0.0
 20
0.0
 30
0.0
  3
*D27
  1

  0
POINT
  5
3F0
330
3E9
100
AcDbEntity
  8
DEFPOINTS
 62
     0
100
AcDbPoint
 10
-132.9048231281937
 20
276.9227202084345
 30
0.0
  0
POINT
  5
3F1
330
3E9
100
AcDbEntity
  8
DEFPOINTS
 62
     0
100
AcDbPoint
 10
-193.464411563557
 20
179.0990904692546
 30
0.0
  0
LINE
  5
3F2
330
3E9
100
AcDbEntity
  8
0
  6
CONTINUOUS
 62
     7
100
AcDbLine
 10
-132.9048231281937
 20
276.9227202084345
 30
0.0
 11
-193.464411563557
 21
179.0990904692546
 31
0.0
  0
LINE
  5
3F3
330
3E9
100
AcDbEntity
  8
0
  6
CONTINUOUS
 62
     7
100
AcDbLine
 10
-193.464411563557
 20
179.0990904692546
 30
0.0
 11
-192.5525068612311
 21
182.1270319836694
 31
0.0
  0
LINE
  5
3F4
330
3E9
100
AcDbEntity
  8
0
  6
CONTINUOUS
 62
     7
100
AcDbLine
 10
-193.464411563557
 20
179.0990904692546
 30
0.0
 11
-191.16070816843
 21
181.2654123908815
 31
0.0
  0
LINE
  5
3F5
330
3E9
100
AcDbEntity
  8
0
  6
CONTINUOUS
 62
     7
100
AcDbLine
 10
-193.4644115635569
 20
179.0990904692545
 30
0.0
 11
-204.2941550096608
 21
161.6054971273396
 31
0.0
  0
MTEXT
  5
3F6
330
3E9
100
AcDbEntity
  8
0
 62
     7
100
AcDbMText
 10
-199.3594553505285
 20
170.4516594931845
 30
0.0
 40
3.5
 41
0.0
 71
     8
 72
     1
  1
\W1;\U+2205212.7
 11
0.5269557954966775
 21
0.849892692986864
 31
0.0
  0
ENDBLK
  5
3EB
330
3E9
100
AcDbEntity
  8
0
100
AcDbBlockEnd
  0
BLOCK
  5
3F9
330
3F8
100
AcDbEntity
  8
0
100
AcDbBlockBegin
  2
*D28
 70
     1
 10
0.0
 20
0.0
 30
0.0
  3
*D28
  1

  0
LINE
  5
3FB
330
3F8
100
AcDbEntity
  8
0
 62
     0
100
AcDbLine
 10
-155.0
 20
377.4900045776367
 30
0.0
 11
-155.0
 21
391.7699966430664
 31
0.0
  0
LINE
  5
3FC
330
3F8
100
AcDbEntity
  8
0
 62
     0
100
AcDbLine
 10
-120.0
 20
377.4900045776367
 30
0.0
 11
-120.0
 21
391.7699966430664
 31
0.0
  0
LINE
  5
3FD
330
3F8
100
AcDbEntity
  8
0
 62
     0
100
AcDbLine
 10
-152.0
 20
390.5
 30
0.0
 11
-123.0
 21
390.5
 31
0.0
  0
INSERT
  5
3FE
330
3F8
100
AcDbEntity
  8
0
 62
     0
100
AcDbBlockReference
  2
_OPEN30
 10
-155.0
 20
390.5
 30
0.0
 41
3.0
 42
3.0
 43
3.0
 50
180.0
  0
INSERT
  5
3FF
330
3F8
100
AcDbEntity
  8
0
 62
     0
100
AcDbBlockReference
  2
_OPEN30
 10
-120.0
 20
390.5
 30
0.0
 41
3.0
 42
3.0
 43
3.0
  0
MTEXT
  5
400
330
3F8
100
AcDbEntity
  8
0
 62
     0
100
AcDbMText
 10
-137.499
 20
393.14075
 30
0.0
 40
3.5
 41
0.0
 71
     5
 72
     1
  1
35
  0
POINT
  5
401
330
3F8
100
AcDbEntity
  8
DEFPOINTS
 62
     0
100
AcDbPoint
 10
-155.0
 20
374.9500045776367
 30
0.0
  0
POINT
  5
402
330
3F8
100
AcDbEntity
  8
DEFPOINTS
 62
     0
100
AcDbPoint
 10
-120.0
 20
374.9500045776367
 30
0.0
  0
POINT
  5
403
330
3F8
100
AcDbEntity
  8
DEFPOINTS
 62
     0
100
AcDbPoint
 10
-120.0
 20
390.5
 30
0.0
  0
ENDBLK
  5
3FA
330
3F8
100
AcDbEntity
  8
0
100
AcDbBlockEnd
  0
BLOCK
  5
406
330
405
100
AcDbEntity
  8
0
100
AcDbBlockBegin
  2
*D29
 70
     1
 10
0.0
 20
0.0
 30
0.0
  3
*D29
  1

  0
MTEXT
  5
40D
330
405
100
AcDbEntity
  8
0
 62
     0
100
AcDbMText
 10
-445.999
 20
159.14175
 30
0.0
 40
3.5
 41
0.0
 71
     5
 72
     1
  1
5
  0
POINT
  5
40E
330
405
100
AcDbEntity
  8
DEFPOINTS
 62
     0
100
AcDbPoint
 10
-448.5
 20
166.5
 30
0.0
  0
POINT
  5
40F
330
405
100
AcDbEntity
  8
DEFPOINTS
 62
     0
100
AcDbPoint
 10
-443.5
 20
184.5
 30
0.0
  0
POINT
  5
410
330
405
100
AcDbEntity
  8
DEFPOINTS
 62
     0
100
AcDbPoint
 10
-443.5
 20
156.5
 30
0.0
  0
LINE
  5
411
330
405
100
AcDbEntity
  8
0
  6
CONTINUOUS
 62
     7
100
AcDbLine
 10
-454.85
 20
156.5
 30
0.0
 11
-437.15
 21
156.5
 31
0.0
  0
LINE
  5
412
330
405
100
AcDbEntity
  8
0
  6
CONTINUOUS
 62
     7
100
AcDbLine
 10
-448.5
 20
156.5
 30
0.0
 11
-451.5545256620056
 21
155.6815423157
 31
0.0
  0
LINE
  5
413
330
405
100
AcDbEntity
  8
0
  6
CONTINUOUS
 62
     7
100
AcDbLine
 10
-448.5
 20
156.5
 30
0.0
 11
-451.5545256620056
 21
157.3184576843
 31
0.0
  0
LINE
  5
414
330
405
100
AcDbEntity
  8
0
  6
CONTINUOUS
 62
     7
100
AcDbLine
 10
-443.5
 20
156.5
 30
0.0
 11
-440.4454743379944
 21
157.3184576843
 31
0.0
  0
LINE
  5
415
330
405
100
AcDbEntity
  8
0
  6
CONTINUOUS
 62
     7
100
AcDbLine
 10
-443.5
 20
156.5
 30
0.0
 11
-440.4454743379944
 21
155.6815423157
 31
0.0
  0
ENDBLK
  5
407
330
405
100
AcDbEntity
  8
0
100
AcDbBlockEnd
  0
BLOCK
  5
418
330
417
100
AcDbEntity
  8
0
100
AcDbBlockBegin
  2
*D30
 70
     1
 10
0.0
 20
0.0
 30
0.0
  3
*D30
  1

  0
LINE
  5
41A
330
417
100
AcDbEntity
  8
0
 62
     0
100
AcDbLine
 10
-393.5
 20
378.3618688964844
 30
0.0
 11
-393.5
 21
402.7699890136719
 31
0.0
  0
LINE
  5
41B
330
417
100
AcDbEntity
  8
0
 62
     0
100
AcDbLine
 10
-390.5
 20
401.5
 30
0.0
 11
-360.5
 21
401.5
 31
0.0
  0
INSERT
  5
41C
330
417
100
AcDbEntity
  8
0
 62
     0
100
AcDbBlockReference
  2
_OPEN30
 10
-393.5
 20
401.5
 30
0.0
 41
3.0
 42
3.0
 43
3.0
 50
180.0
  0
INSERT
  5
41D
330
417
100
AcDbEntity
  8
0
 62
     0
100
AcDbBlockReference
  2
_OPEN30
 10
-357.5
 20
401.5
 30
0.0
 41
3.0
 42
3.0
 43
3.0
  0
MTEXT
  5
41E
330
417
100
AcDbEntity
  8
0
 62
     0
100
AcDbMText
 10
-375.499
 20
404.14075
 30
0.0
 40
3.5
 41
0.0
 71
     5
 72
     1
  1
36
  0
POINT
  5
41F
330
417
100
AcDbEntity
  8
DEFPOINTS
 62
     0
100
AcDbPoint
 10
-393.5
 20
375.8218688964844
 30
0.0
  0
POINT
  5
420
330
417
100
AcDbEntity
  8
DEFPOINTS
 62
     0
100
AcDbPoint
 10
-357.5
 20
372.5
 30
0.0
  0
POINT
  5
421
330
417
100
AcDbEntity
  8
DEFPOINTS
 62
     0
100
AcDbPoint
 10
-357.5
 20
401.5
 30
0.0
  0
ENDBLK
  5
419
330
417
100
AcDbEntity
  8
0
100
AcDbBlockEnd
  0
BLOCK
  5
424
330
423
100
AcDbEntity
  8
0
100
AcDbBlockBegin
  2
*D31
 70
     1
 10
0.0
 20
0.0
 30
0.0
  3
*D31
  1

  0
LINE
  5
426
330
423
100
AcDbEntity
  8
0
 62
     0
100
AcDbLine
 10
-383.0
 20
387.6493826293946
 30
0.0
 11
-383.0
 21
391.7699966430664
 31
0.0
  0
LINE
  5
427
330
423
100
AcDbEntity
  8
0
 62
     0
100
AcDbLine
 10
-380.0
 20
390.5
 30
0.0
 11
-360.5
 21
390.5
 31
0.0
  0
INSERT
  5
428
330
423
100
AcDbEntity
  8
0
 62
     0
100
AcDbBlockReference
  2
_OPEN30
 10
-383.0
 20
390.5
 30
0.0
 41
3.0
 42
3.0
 43
3.0
 50
180.0
  0
INSERT
  5
429
330
423
100
AcDbEntity
  8
0
 62
     0
100
AcDbBlockReference
  2
_OPEN30
 10
-357.5
 20
390.5
 30
0.0
 41
3.0
 42
3.0
 43
3.0
  0
MTEXT
  5
42A
330
423
100
AcDbEntity
  8
0
 62
     0
100
AcDbMText
 10
-370.249
 20
393.14775
 30
0.0
 40
3.5
 41
0.0
 71
     5
 72
     1
  1
25.5
  0
POINT
  5
42B
330
423
100
AcDbEntity
  8
DEFPOINTS
 62
     0
100
AcDbPoint
 10
-383.0
 20
385.1093826293945
 30
0.0
  0
POINT
  5
42C
330
423
100
AcDbEntity
  8
DEFPOINTS
 62
     0
100
AcDbPoint
 10
-357.5
 20
372.5
 30
0.0
  0
POINT
  5
42D
330
423
100
AcDbEntity
  8
DEFPOINTS
 62
     0
100
AcDbPoint
 10
-357.5
 20
390.5
 30
0.0
  0
ENDBLK
  5
425
330
423
100
AcDbEntity
  8
0
100
AcDbBlockEnd
  0
BLOCK
  5
430
330
42F
100
AcDbEntity
  8
0
100
AcDbBlockBegin
  2
*D32
 70
     1
 10
0.0
 20
0.0
 30
0.0
  3
*D32
  1

  0
LINE
  5
432
330
42F
100
AcDbEntity
  8
0
 62
     0
100
AcDbLine
 10
-390.75
 20
376.7395162963867
 30
0.0
 11
-390.75
 21
380.7699966430664
 31
0.0
  0
LINE
  5
433
330
42F
100
AcDbEntity
  8
0
 62
     0
100
AcDbLine
 10
-375.25
 20
376.7395162963867
 30
0.0
 11
-375.25
 21
380.7699966430664
 31
0.0
  0
LINE
  5
434
330
42F
100
AcDbEntity
  8
0
 62
     0
100
AcDbLine
 10
-387.75
 20
379.5
 30
0.0
 11
-378.25
 21
379.5
 31
0.0
  0
INSERT
  5
435
330
42F
100
AcDbEntity
  8
0
 62
     0
100
AcDbBlockReference
  2
_OPEN30
 10
-390.75
 20
379.5
 30
0.0
 41
3.0
 42
3.0
 43
3.0
 50
180.0
  0
INSERT
  5
436
330
42F
100
AcDbEntity
  8
0
 62
     0
100
AcDbBlockReference
  2
_OPEN30
 10
-375.25
 20
379.5
 30
0.0
 41
3.0
 42
3.0
 43
3.0
  0
MTEXT
  5
437
330
42F
100
AcDbEntity
  8
0
 62
     0
100
AcDbMText
 10
-382.999
 20
382.14775
 30
0.0
 40
3.5
 41
0.0
 71
     5
 72
     1
  1
\U+220515.5
  0
POINT
  5
438
330
42F
100
AcDbEntity
  8
DEFPOINTS
 62
     0
100
AcDbPoint
 10
-390.75
 20
374.1995162963867
 30
0.0
  0
POINT
  5
439
330
42F
100
AcDbEntity
  8
DEFPOINTS
 62
     0
100
AcDbPoint
 10
-375.25
 20
374.1995162963867
 30
0.0
  0
POINT
  5
43A
330
42F
100
AcDbEntity
  8
DEFPOINTS
 62
     0
100
AcDbPoint
 10
-375.25
 20
379.5
 30
0.0
  0
ENDBLK
  5
431
330
42F
100
AcDbEntity
  8
0
100
AcDbBlockEnd
  0
BLOCK
  5
43D
330
43C
100
AcDbEntity
  8
0
100
AcDbBlockBegin
  2
*D33
 70
     1
 10
0.0
 20
0.0
 30
0.0
  3
*D33
  1

  0
LINE
  5
43F
330
43C
100
AcDbEntity
  8
0
 62
     0
100
AcDbLine
 10
-396.04
 20
374.1999969482422
 30
0.0
 11
-399.4108112792969
 21
374.1999969482422
 31
0.0
  0
LINE
  5
440
330
43C
100
AcDbEntity
  8
0
 62
     0
100
AcDbLine
 10
-393.29
 20
363.1995162963867
 30
0.0
 11
-399.4108112792969
 21
363.1995162963867
 31
0.0
  0
LINE
  5
441
330
43C
100
AcDbEntity
  8
0
 62
     0
100
AcDbLine
 10
-398.140822265625
 20
371.1999969482422
 30
0.0
 11
-398.140822265625
 21
366.1995162963867
 31
0.0
  0
INSERT
  5
442
330
43C
100
AcDbEntity
  8
0
 62
     0
100
AcDbBlockReference
  2
_OPEN30
 10
-398.140822265625
 20
374.1999969482422
 30
0.0
 41
3.0
 42
3.0
 43
3.0
 50
90.0
  0
INSERT
  5
443
330
43C
100
AcDbEntity
  8
0
 62
     0
100
AcDbBlockReference
  2
_OPEN30
 10
-398.140822265625
 20
363.1995162963867
 30
0.0
 41
3.0
 42
3.0
 43
3.0
 50
270.0
  0
MTEXT
  5
444
330
43C
100
AcDbEntity
  8
0
 62
     0
100
AcDbMText
 10
-400.765822265625
 20
368.7007528076172
 30
0.0
 40
3.5
 41
0.0
 71
     5
 72
     1
  1
11
 11
0.0
 21
1.0
 31
0.0
  0
POINT
  5
445
330
43C
100
AcDbEntity
  8
DEFPOINTS
 62
     0
100
AcDbPoint
 10
-393.5
 20
374.1999969482422
 30
0.0
  0
POINT
  5
446
330
43C
100
AcDbEntity
  8
DEFPOINTS
 62
     0
100
AcDbPoint
 10
-390.75
 20
363.1995162963867
 30
0.0
  0
POINT
  5
447
330
43C
100
AcDbEntity
  8
DEFPOINTS
 62
     0
100
AcDbPoint
 10
-398.142822265625
 20
363.1995162963867
 30
0.0
  0
ENDBLK
  5
43E
330
43C
100
AcDbEntity
  8
0
100
AcDbBlockEnd
  0
BLOCK
  5
44A
330
449
100
AcDbEntity
  8
0
100
AcDbBlockBegin
  2
*D34
 70
     1
 10
0.0
 20
0.0
 30
0.0
  3
*D34
  1

  0
LINE
  5
44C
330
449
100
AcDbEntity
  8
0
 62
     0
100
AcDbLine
 10
-388.54
 20
356.1995162963867
 30
0.0
 11
-399.4108112792969
 21
356.1995162963867
 31
0.0
  0
LINE
  5
44D
330
449
100
AcDbEntity
  8
0
 62
     0
100
AcDbLine
 10
-398.140822265625
 20
363.1995162963867
 30
0.0
 11
-398.140822265625
 21
356.1995162963867
 31
0.0
  0
LINE
  5
44E
330
449
100
AcDbEntity
  8
0
 62
     0
100
AcDbLine
 10
-398.140822265625
 20
366.1995162963867
 30
0.0
 11
-398.140822265625
 21
369.1995162963867
 31
0.0
  0
LINE
  5
44F
330
449
100
AcDbEntity
  8
0
 62
     0
100
AcDbLine
 10
-398.140822265625
 20
353.1995162963867
 30
0.0
 11
-398.140822265625
 21
350.1995162963867
 31
0.0
  0
INSERT
  5
450
330
449
100
AcDbEntity
  8
0
 62
     0
100
AcDbBlockReference
  2
_OPEN30
 10
-398.140822265625
 20
363.1995162963867
 30
0.0
 41
3.0
 42
3.0
 43
3.0
 50
270.0
  0
INSERT
  5
451
330
449
100
AcDbEntity
  8
0
 62
     0
100
AcDbBlockReference
  2
_OPEN30
 10
-398.140822265625
 20
356.1995162963867
 30
0.0
 41
3.0
 42
3.0
 43
3.0
 50
90.0
  0
MTEXT
  5
452
330
449
100
AcDbEntity
  8
0
 62
     0
100
AcDbMText
 10
-400.771072265625
 20
359.7005162963867
 30
0.0
 40
3.5
 41
0.0
 71
     5
 72
     1
  1
7
 11
0.0
 21
1.0
 31
0.0
  0
POINT
  5
453
330
449
100
AcDbEntity
  8
DEFPOINTS
 62
     0
100
AcDbPoint
 10
-390.75
 20
363.1995162963867
 30
0.0
  0
POINT
  5
454
330
449
100
AcDbEntity
  8
DEFPOINTS
 62
     0
100
AcDbPoint
 10
-386.0
 20
356.1995162963867
 30
0.0
  0
POINT
  5
455
330
449
100
AcDbEntity
  8
DEFPOINTS
 62
     0
100
AcDbPoint
 10
-398.142822265625
 20
356.1995162963867
 30
0.0
  0
ENDBLK
  5
44B
330
449
100
AcDbEntity
  8
0
100
AcDbBlockEnd
  0
BLOCK
  5
45D
330
456
100
AcDbEntity
  8
0
100
AcDbBlockBegin
  2
SYM0004
 70
     0
 10
0.0
 20
0.0
 30
0.0
  3
SYM0004
  1

  0
LINE
  5
457
330
456
100
AcDbEntity
  8
0
  6
CONTINUOUS
 62
     7
100
AcDbLine
 10
0.0
 20
0.0
 30
0.0
 11
-4.500000218728871
 21
-12.32130597242286
 31
0.0
  0
LINE
  5
458
330
456
100
AcDbEntity
  8
0
  6
CONTINUOUS
 62
     7
100
AcDbLine
 10
0.0
 20
0.0
 30
0.0
 11
-0.279088509430835
 21
-3.149938031889519
 31
0.0
  0
LINE
  5
459
330
456
100
AcDbEntity
  8
0
  6
CONTINUOUS
 62
     7
100
AcDbLine
 10
0.0
 20
0.0
 30
0.0
 11
-1.816666754866674
 21
-2.588382101352636
 31
0.0
  0
LINE
  5
45A
330
456
100
AcDbEntity
  8
0
  6
CONTINUOUS
 62
     7
100
AcDbLine
 10
-4.500000218728871
 20
-12.32130597242292
 30
0.0
 11
-20.05599366144844
 21
-12.32130597242292
 31
0.0
  0
MTEXT
  5
45B
330
456
100
AcDbEntity
  8
0
 62
     7
100
AcDbMText
 10
-5.55599366144844
 20
-11.44630339612291
 30
0.0
 40
3.5
 41
0.0
 71
     9
 72
     1
  1
{\W1;3-M6}
  0
ENDBLK
  5
45E
330
456
100
AcDbEntity
  8
0
100
AcDbBlockEnd
  0
BLOCK
  5
465
330
45F
100
AcDbEntity
  8
0
100
AcDbBlockBegin
  2
SYM0005
 70
     0
 10
0.0
 20
0.0
 30
0.0
  3
SYM0005
  1

  0
LINE
  5
460
330
45F
100
AcDbEntity
  8
0
  6
CONTINUOUS
 62
     7
100
AcDbLine
 10
0.0
 20
0.0
 30
0.0
 11
-17.63658748390532
 21
9.255162117059626
 31
0.0
  0
CIRCLE
  5
461
330
45F
100
AcDbEntity
  8
0
  6
CONTINUOUS
 62
     7
100
AcDbCircle
 10
0.0
 20
0.0
 30
0.0
 40
0.4
  0
LINE
  5
462
330
45F
100
AcDbEntity
  8
0
  6
CONTINUOUS
 62
     7
100
AcDbLine
 10
-17.63658748390532
 20
9.255162117059626
 30
0.0
 11
-51.43343980507183
 21
9.255162117059626
 31
0.0
  0
MTEXT
  5
463
102
{ACAD_XDICTIONARY
360
616
102
}
330
45F
100
AcDbEntity
  8
0
 62
     7
100
AcDbMText
 10
-16.43343980507183
 20
11.00515734766191
 30
0.0
 40
3.5
 41
33.48
 71
     9
 72
     1
  1
{\fＭＳ Ｐゴシック|b0|i0|c0|p0;\W0.83333x;\U+30B0\U+30EA\U+30FC\U+30B9\U+30CB\U+30C3\U+30D7\U+30EB}\P{\fＭＳ Ｐゴシック|b0|i0|c0|p0;\W0.83333x;\U+FF08\U+5186\U+5468\U+7B49\U+5206\U+FF13\U+30F6\U+6240\U+FF09}
1001
ACAD
1000
MTEXTBEGIN
1070
    44
1040
0.7875
1000
MTEXTEND
  0
ENDBLK
  5
466
330
45F
100
AcDbEntity
  8
0
100
AcDbBlockEnd
  0
BLOCK
  5
46D
330
467
100
AcDbEntity
  8
0
100
AcDbBlockBegin
  2
SYM0006
 70
     0
 10
0.0
 20
0.0
 30
0.0
  3
SYM0006
  1

  0
LINE
  5
468
330
467
100
AcDbEntity
  8
0
  6
CONTINUOUS
 62
     7
100
AcDbLine
 10
0.0
 20
0.0
 30
0.0
 11
20.6195567554837
 21
20.27772418633521
 31
0.0
  0
CIRCLE
  5
469
330
467
100
AcDbEntity
  8
0
  6
CONTINUOUS
 62
     7
100
AcDbCircle
 10
0.0
 20
0.0
 30
0.0
 40
0.4
  0
LINE
  5
46A
330
467
100
AcDbEntity
  8
0
  6
CONTINUOUS
 62
     7
100
AcDbLine
 10
20.6195567554837
 20
20.27772418633509
 30
0.0
 11
54.43477735691459
 21
20.27772418633509
 31
0.0
  0
MTEXT
  5
46B
102
{ACAD_XDICTIONARY
360
618
102
}
330
467
100
AcDbEntity
  8
0
 62
     7
100
AcDbMText
 10
22.55977735691459
 20
22.02772061916954
 30
0.0
 40
3.5
 41
33.48
 71
     7
 72
     1
  1
{\fＭＳ Ｐゴシック|b0|i0|c0|p0;\W0.83333x;\U+30B0\U+30EA\U+30FC\U+30B9\U+30CB\U+30C3\U+30D7\U+30EB}\P{\fＭＳ Ｐゴシック|b0|i0|c0|p0;\W0.83333x;\U+FF08\U+5186\U+5468\U+7B49\U+5206\U+FF13\U+30F6\U+6240\U+FF09}
1001
ACAD
1000
MTEXTBEGIN
1070
    44
1040
0.7875
1000
MTEXTEND
  0
ENDBLK
  5
46E
330
467
100
AcDbEntity
  8
0
100
AcDbBlockEnd
  0
BLOCK
  5
476
330
46F
100
AcDbEntity
  8
0
100
AcDbBlockBegin
  2
SYM0007
 70
     0
 10
0.0
 20
0.0
 30
0.0
  3
SYM0007
  1

  0
LINE
  5
470
330
46F
100
AcDbEntity
  8
0
  6
CONTINUOUS
 62
     7
100
AcDbLine
 10
0.0
 20
0.0
 30
0.0
 11
-9.99999464365601
 21
-16.7558650796864
 31
0.0
  0
LINE
  5
471
330
46F
100
AcDbEntity
  8
0
  6
CONTINUOUS
 62
     7
100
AcDbLine
 10
0.0
 20
0.0
 30
0.0
 11
-0.862565228506412
 21
-3.042364413973502
 31
0.0
  0
LINE
  5
472
330
46F
100
AcDbEntity
  8
0
  6
CONTINUOUS
 62
     7
100
AcDbLine
 10
0.0
 20
0.0
 30
0.0
 11
-2.26818560716714
 21
-2.203482255948614
 31
0.0
  0
LINE
  5
473
330
46F
100
AcDbEntity
  8
0
  6
CONTINUOUS
 62
     7
100
AcDbLine
 10
-9.99999464365601
 20
-16.7558650796864
 30
0.0
 11
26.3630743887644
 21
-16.7558650796864
 31
0.0
  0
MTEXT
  5
474
330
46F
100
AcDbEntity
  8
0
 62
     7
100
AcDbMText
 10
-5.511925611235597
 20
-15.88085832143244
 30
0.0
 40
3.5
 41
0.0
 71
     7
 72
     1
  1
{\W0.833333;２－Ｍ１０{\H0.5x;\S　;}深サ１８}
  0
ENDBLK
  5
477
330
46F
100
AcDbEntity
  8
0
100
AcDbBlockEnd
  0
BLOCK
  5
47A
330
479
100
AcDbEntity
  8
0
100
AcDbBlockBegin
  2
*D39
 70
     1
 10
0.0
 20
0.0
 30
0.0
  3
*D39
  1

  0
MTEXT
  5
47F
330
479
100
AcDbEntity
  8
0
 62
     0
100
AcDbMText
 10
-338.14075
 20
269.501
 30
0.0
 40
3.5
 41
0.0
 71
     5
 72
     1
  1
\U+220553
 11
0.0
 21
1.0
 31
0.0
  0
POINT
  5
480
330
479
100
AcDbEntity
  8
DEFPOINTS
 62
     0
100
AcDbPoint
 10
-359.5000301474893
 20
243.0000000000001
 30
0.0
  0
POINT
  5
481
330
479
100
AcDbEntity
  8
DEFPOINTS
 62
     0
100
AcDbPoint
 10
-359.0000301474892
 20
296.0
 30
0.0
  0
POINT
  5
482
330
479
100
AcDbEntity
  8
DEFPOINTS
 62
     0
100
AcDbPoint
 10
-335.5
 20
296.0
 30
0.0
  0
LINE
  5
483
330
479
100
AcDbEntity
  8
0
  6
CONTINUOUS
 62
     7
100
AcDbLine
 10
-356.9600301474892
 20
243.0000000000001
 30
0.0
 11
-334.23
 21
243.0000000000001
 31
0.0
  0
LINE
  5
484
330
479
100
AcDbEntity
  8
0
  6
CONTINUOUS
 62
     7
100
AcDbLine
 10
-335.5
 20
243.0000000000001
 30
0.0
 11
-335.5
 21
276.1979389190674
 31
0.0
  0
LINE
  5
485
330
479
100
AcDbEntity
  8
0
  6
CONTINUOUS
 62
     7
100
AcDbLine
 10
-335.5
 20
243.0000000000001
 30
0.0
 11
-336.3184576843
 21
246.0545256620057
 31
0.0
  0
LINE
  5
486
330
479
100
AcDbEntity
  8
0
  6
CONTINUOUS
 62
     7
100
AcDbLine
 10
-335.5
 20
243.0000000000001
 30
0.0
 11
-334.6815423157
 21
246.0545256620057
 31
0.0
  0
ENDBLK
  5
47B
330
479
100
AcDbEntity
  8
0
100
AcDbBlockEnd
  0
BLOCK
  5
489
330
488
100
AcDbEntity
  8
0
100
AcDbBlockBegin
  2
*D40
 70
     1
 10
0.0
 20
0.0
 30
0.0
  3
*D40
  1

  0
LINE
  5
48B
330
488
100
AcDbEntity
  8
0
 62
     0
100
AcDbLine
 10
-451.04
 20
184.5
 30
0.0
 11
-507.268989013672
 21
184.5
 31
0.0
  0
LINE
  5
48C
330
488
100
AcDbEntity
  8
0
 62
     0
100
AcDbLine
 10
-451.04
 20
354.5
 30
0.0
 11
-507.2689890136719
 21
354.5
 31
0.0
  0
LINE
  5
48D
330
488
100
AcDbEntity
  8
0
 62
     0
100
AcDbLine
 10
-505.9990000000001
 20
187.5
 30
0.0
 11
-505.999
 21
351.5
 31
0.0
  0
INSERT
  5
48E
330
488
100
AcDbEntity
  8
0
 62
     0
100
AcDbBlockReference
  2
_OPEN30
 10
-505.9990000000001
 20
184.5
 30
0.0
 41
3.0
 42
3.0
 43
3.0
 50
270.0
  0
INSERT
  5
48F
330
488
100
AcDbEntity
  8
0
 62
     0
100
AcDbBlockReference
  2
_OPEN30
 10
-505.999
 20
354.5
 30
0.0
 41
3.0
 42
3.0
 43
3.0
 50
89.99999999999999
  0
MTEXT
  5
490
330
488
100
AcDbEntity
  8
0
 62
     0
100
AcDbMText
 10
-508.63975
 20
269.501
 30
0.0
 40
3.5
 41
0.0
 71
     5
 72
     1
  1
\U+2205170H6
 11
3.343730521224001E-16
 21
1.0
 31
0.0
  0
POINT
  5
491
330
488
100
AcDbEntity
  8
DEFPOINTS
 62
     0
100
AcDbPoint
 10
-448.5
 20
184.5
 30
0.0
  0
POINT
  5
492
330
488
100
AcDbEntity
  8
DEFPOINTS
 62
     0
100
AcDbPoint
 10
-448.5
 20
354.5
 30
0.0
  0
POINT
  5
493
330
488
100
AcDbEntity
  8
DEFPOINTS
 62
     0
100
AcDbPoint
 10
-506.0
 20
354.5
 30
0.0
  0
ENDBLK
  5
48A
330
488
100
AcDbEntity
  8
0
100
AcDbBlockEnd
  0
BLOCK
  5
496
330
495
100
AcDbEntity
  8
0
100
AcDbBlockBegin
  2
*D41
 70
     1
 10
0.0
 20
0.0
 30
0.0
  3
*D41
  1

  0
LINE
  5
498
330
495
100
AcDbEntity
  8
0
 62
     0
100
AcDbLine
 10
-449.04
 20
374.5
 30
0.0
 11
-518.2679890136719
 21
374.5
 31
0.0
  0
LINE
  5
499
330
495
100
AcDbEntity
  8
0
 62
     0
100
AcDbLine
 10
-449.04
 20
164.5
 30
0.0
 11
-518.2679890136718
 21
164.5
 31
0.0
  0
LINE
  5
49A
330
495
100
AcDbEntity
  8
0
 62
     0
100
AcDbLine
 10
-516.998
 20
371.5
 30
0.0
 11
-516.9979999999999
 21
167.5
 31
0.0
  0
INSERT
  5
49B
330
495
100
AcDbEntity
  8
0
 62
     0
100
AcDbBlockReference
  2
_OPEN30
 10
-516.998
 20
374.5
 30
0.0
 41
3.0
 42
3.0
 43
3.0
 50
90.00000000000004
  0
INSERT
  5
49C
330
495
100
AcDbEntity
  8
0
 62
     0
100
AcDbBlockReference
  2
_OPEN30
 10
-516.9979999999999
 20
164.5
 30
0.0
 41
3.0
 42
3.0
 43
3.0
 50
270.0
  0
MTEXT
  5
49D
330
495
100
AcDbEntity
  8
0
 62
     0
100
AcDbMText
 10
-519.6387500000001
 20
269.501
 30
0.0
 40
3.5
 41
0.0
 71
     5
 72
     1
  1
\U+2205210
 11
-5.413658939124573E-16
 21
1.0
 31
0.0
  0
POINT
  5
49E
330
495
100
AcDbEntity
  8
DEFPOINTS
 62
     0
100
AcDbPoint
 10
-446.5
 20
374.5
 30
0.0
  0
POINT
  5
49F
330
495
100
AcDbEntity
  8
DEFPOINTS
 62
     0
100
AcDbPoint
 10
-446.5
 20
164.5
 30
0.0
  0
POINT
  5
4A0
330
495
100
AcDbEntity
  8
DEFPOINTS
 62
     0
100
AcDbPoint
 10
-517.0
 20
164.5
 30
0.0
  0
ENDBLK
  5
497
330
495
100
AcDbEntity
  8
0
100
AcDbBlockEnd
  0
BLOCK
  5
4A8
330
4A1
100
AcDbEntity
  8
0
100
AcDbBlockBegin
  2
SYM0008
 70
     0
 10
0.0
 20
0.0
 30
0.0
  3
SYM0008
  1

  0
LINE
  5
4A2
330
4A1
100
AcDbEntity
  8
0
  6
CONTINUOUS
 62
     7
100
AcDbLine
 10
0.0
 20
0.0
 30
0.0
 11
-24.85187850094826
 21
-48.30003276592868
 31
0.0
  0
LINE
  5
4A3
330
4A1
100
AcDbEntity
  8
0
  6
CONTINUOUS
 62
     7
100
AcDbLine
 10
0.0
 20
0.0
 30
0.0
 11
-0.669736987437204
 21
-3.090542406843667
 31
0.0
  0
LINE
  5
4A4
330
4A1
100
AcDbEntity
  8
0
  6
CONTINUOUS
 62
     7
100
AcDbLine
 10
0.0
 20
0.0
 30
0.0
 11
-2.125280448261265
 21
-2.341619742203875
 31
0.0
  0
LINE
  5
4A5
330
4A1
100
AcDbEntity
  8
0
  6
CONTINUOUS
 62
     7
100
AcDbLine
 10
-24.85187850094826
 20
-48.30003276592865
 30
0.0
 11
-44.46009477706878
 21
-48.30003276592865
 31
0.0
  0
MTEXT
  5
4A6
330
4A1
100
AcDbEntity
  8
0
 62
     7
100
AcDbMText
 10
-26.46009477706878
 20
-47.42502731981034
 30
0.0
 40
3.5
 41
0.0
 71
     9
 72
     1
  1
{\W0.833333;６－Ｍ１２}
  0
ENDBLK
  5
4A9
330
4A1
100
AcDbEntity
  8
0
100
AcDbBlockEnd
  0
BLOCK
  5
4AC
330
4AB
100
AcDbEntity
  8
0
100
AcDbBlockBegin
  2
*D43
 70
     1
 10
0.0
 20
0.0
 30
0.0
  3
*D43
  1

  0
LINE
  5
4AE
330
4AB
100
AcDbEntity
  8
0
 62
     0
100
AcDbLine
 10
-429.0
 20
304.04
 30
0.0
 11
-429.0
 21
314.7700004577637
 31
0.0
  0
LINE
  5
4AF
330
4AB
100
AcDbEntity
  8
0
 62
     0
100
AcDbLine
 10
-443.5
 20
313.5
 30
0.0
 11
-477.7599809570313
 21
313.5
 31
0.0
  0
LINE
  5
4B0
330
4AB
100
AcDbEntity
  8
0
 62
     0
100
AcDbLine
 10
-432.0
 20
313.5
 30
0.0
 11
-440.5
 21
313.5
 31
0.0
  0
INSERT
  5
4B1
330
4AB
100
AcDbEntity
  8
0
 62
     0
100
AcDbBlockReference
  2
_OPEN30
 10
-429.0
 20
313.5
 30
0.0
 41
3.0
 42
3.0
 43
3.0
  0
INSERT
  5
4B2
330
4AB
100
AcDbEntity
  8
0
 62
     0
100
AcDbBlockReference
  2
_OPEN30
 10
-443.5
 20
313.5
 30
0.0
 41
3.0
 42
3.0
 43
3.0
 50
180.0
  0
MTEXT
  5
4B3
330
4AB
100
AcDbEntity
  8
0
 62
     0
100
AcDbMText
 10
-464.5544809570313
 20
319.0644166666667
 30
0.0
 40
3.5
 41
0.0
 71
     5
 72
     1
  1
MAX 14.5\PMIN -1.5
  0
POINT
  5
4B4
330
4AB
100
AcDbEntity
  8
DEFPOINTS
 62
     0
100
AcDbPoint
 10
-429.0
 20
301.5
 30
0.0
  0
POINT
  5
4B5
330
4AB
100
AcDbEntity
  8
DEFPOINTS
 62
     0
100
AcDbPoint
 10
-443.5
 20
299.6981983184814
 30
0.0
  0
POINT
  5
4B6
330
4AB
100
AcDbEntity
  8
DEFPOINTS
 62
     0
100
AcDbPoint
 10
-443.5
 20
313.5
 30
0.0
  0
ENDBLK
  5
4AD
330
4AB
100
AcDbEntity
  8
0
100
AcDbBlockEnd
  0
BLOCK
  5
4B9
330
4B8
100
AcDbEntity
  8
0
100
AcDbBlockBegin
  2
*D44
 70
     1
 10
0.0
 20
0.0
 30
0.0
  3
*D44
  1

  0
LINE
  5
4BB
330
4B8
100
AcDbEntity
  8
0
 62
     0
100
AcDbLine
 10
-458.5
 20
194.2600030517578
 30
0.0
 11
-458.5
 21
144.2309957275391
 31
0.0
  0
LINE
  5
4BC
330
4B8
100
AcDbEntity
  8
0
 62
     0
100
AcDbLine
 10
-446.5
 20
145.501
 30
0.0
 11
-455.5
 21
145.501
 31
0.0
  0
INSERT
  5
4BD
330
4B8
100
AcDbEntity
  8
0
 62
     0
100
AcDbBlockReference
  2
_OPEN30
 10
-443.5
 20
145.501
 30
0.0
 41
3.0
 42
3.0
 43
3.0
  0
INSERT
  5
4BE
330
4B8
100
AcDbEntity
  8
0
 62
     0
100
AcDbBlockReference
  2
_OPEN30
 10
-458.5
 20
145.501
 30
0.0
 41
3.0
 42
3.0
 43
3.0
 50
180.0
  0
MTEXT
  5
4BF
330
4B8
100
AcDbEntity
  8
0
 62
     0
100
AcDbMText
 10
-452.2837666015625
 20
148.14175
 30
0.0
 40
3.5
 41
0.0
 71
     5
 72
     1
  1
15
  0
POINT
  5
4C0
330
4B8
100
AcDbEntity
  8
DEFPOINTS
 62
     0
100
AcDbPoint
 10
-443.5
 20
125.2299957275391
 30
0.0
  0
POINT
  5
4C1
330
4B8
100
AcDbEntity
  8
DEFPOINTS
 62
     0
100
AcDbPoint
 10
-458.5
 20
196.8000030517578
 30
0.0
  0
POINT
  5
4C2
330
4B8
100
AcDbEntity
  8
DEFPOINTS
 62
     0
100
AcDbPoint
 10
-458.5
 20
145.5
 30
0.0
  0
ENDBLK
  5
4BA
330
4B8
100
AcDbEntity
  8
0
100
AcDbBlockEnd
  0
BLOCK
  5
4C5
330
4C4
100
AcDbEntity
  8
0
100
AcDbBlockBegin
  2
*D45
 70
     1
 10
0.0
 20
0.0
 30
0.0
  3
*D45
  1

  0
LINE
  5
4C7
330
4C4
100
AcDbEntity
  8
0
 62
     0
100
AcDbLine
 10
-448.5
 20
163.96
 30
0.0
 11
-448.5
 21
133.2309957275391
 31
0.0
  0
LINE
  5
4C8
330
4C4
100
AcDbEntity
  8
0
 62
     0
100
AcDbLine
 10
-357.5
 20
163.96
 30
0.0
 11
-357.5
 21
133.2309957275391
 31
0.0
  0
LINE
  5
4C9
330
4C4
100
AcDbEntity
  8
0
 62
     0
100
AcDbLine
 10
-445.5
 20
134.501
 30
0.0
 11
-360.5
 21
134.501
 31
0.0
  0
INSERT
  5
4CA
330
4C4
100
AcDbEntity
  8
0
 62
     0
100
AcDbBlockReference
  2
_OPEN30
 10
-448.5
 20
134.501
 30
0.0
 41
3.0
 42
3.0
 43
3.0
 50
180.0
  0
INSERT
  5
4CB
330
4C4
100
AcDbEntity
  8
0
 62
     0
100
AcDbBlockReference
  2
_OPEN30
 10
-357.5
 20
134.501
 30
0.0
 41
3.0
 42
3.0
 43
3.0
  0
MTEXT
  5
4CC
330
4C4
100
AcDbEntity
  8
0
 62
     0
100
AcDbMText
 10
-402.999
 20
137.14175
 30
0.0
 40
3.5
 41
0.0
 71
     5
 72
     1
  1
91
  0
POINT
  5
4CD
330
4C4
100
AcDbEntity
  8
DEFPOINTS
 62
     0
100
AcDbPoint
 10
-448.5
 20
166.5
 30
0.0
  0
POINT
  5
4CE
330
4C4
100
AcDbEntity
  8
DEFPOINTS
 62
     0
100
AcDbPoint
 10
-357.5
 20
166.5
 30
0.0
  0
POINT
  5
4CF
330
4C4
100
AcDbEntity
  8
DEFPOINTS
 62
     0
100
AcDbPoint
 10
-357.5
 20
134.5
 30
0.0
  0
ENDBLK
  5
4C6
330
4C4
100
AcDbEntity
  8
0
100
AcDbBlockEnd
  0
BLOCK
  5
4D2
330
4D1
100
AcDbEntity
  8
0
100
AcDbBlockBegin
  2
*D46
 70
     1
 10
0.0
 20
0.0
 30
0.0
  3
*D46
  1

  0
LINE
  5
4D4
330
4D1
100
AcDbEntity
  8
0
 62
     0
100
AcDbLine
 10
-466.04
 20
202.8000030517578
 30
0.0
 11
-496.268
 21
202.8000030517578
 31
0.0
  0
LINE
  5
4D5
330
4D1
100
AcDbEntity
  8
0
 62
     0
100
AcDbLine
 10
-494.998
 20
336.1999969482422
 30
0.0
 11
-494.998
 21
205.8000030517578
 31
0.0
  0
INSERT
  5
4D6
330
4D1
100
AcDbEntity
  8
0
 62
     0
100
AcDbBlockReference
  2
_OPEN30
 10
-494.998
 20
202.8000030517578
 30
0.0
 41
3.0
 42
3.0
 43
3.0
 50
270.0
  0
MTEXT
  5
4D7
330
4D1
100
AcDbEntity
  8
0
 62
     0
100
AcDbMText
 10
-497.6481637176441
 20
269.501
 30
0.0
 40
3.5
 41
0.0
 71
     5
 72
     1
  1
\U+2205１３３．４
 11
-4.261126046596174E-16
 21
1.0
 31
0.0
  0
POINT
  5
4D8
330
4D1
100
AcDbEntity
  8
DEFPOINTS
 62
     0
100
AcDbPoint
 10
-463.5
 20
336.1999969482422
 30
0.0
  0
POINT
  5
4D9
330
4D1
100
AcDbEntity
  8
DEFPOINTS
 62
     0
100
AcDbPoint
 10
-463.5
 20
202.8000030517578
 30
0.0
  0
POINT
  5
4DA
330
4D1
100
AcDbEntity
  8
DEFPOINTS
 62
     0
100
AcDbPoint
 10
-495.0
 20
202.8000030517578
 30
0.0
  0
ENDBLK
  5
4D3
330
4D1
100
AcDbEntity
  8
0
100
AcDbBlockEnd
  0
BLOCK
  5
4DD
330
4DC
100
AcDbEntity
  8
0
100
AcDbBlockBegin
  2
*D47
 70
     1
 10
0.0
 20
0.0
 30
0.0
  3
*D47
  1

  0
LINE
  5
4DF
330
4DC
100
AcDbEntity
  8
0
 62
     0
100
AcDbLine
 10
-426.0
 20
247.501
 30
0.0
 11
-411.5
 21
247.501
 31
0.0
  0
INSERT
  5
4E0
330
4DC
100
AcDbEntity
  8
0
 62
     0
100
AcDbBlockReference
  2
_OPEN30
 10
-429.0
 20
247.501
 30
0.0
 41
3.0
 42
3.0
 43
3.0
 50
180.0
  0
INSERT
  5
4E1
330
4DC
100
AcDbEntity
  8
0
 62
     0
100
AcDbBlockReference
  2
_OPEN30
 10
-408.5
 20
247.501
 30
0.0
 41
3.0
 42
3.0
 43
3.0
  0
MTEXT
  5
4E2
330
4DC
100
AcDbEntity
  8
0
 62
     0
100
AcDbMText
 10
-419.6558298339844
 20
250.14875
 30
0.0
 40
3.5
 41
0.0
 71
     5
 72
     1
  1
20.5
  0
POINT
  5
4E3
330
4DC
100
AcDbEntity
  8
DEFPOINTS
 62
     0
100
AcDbPoint
 10
-429.0
 20
302.5
 30
0.0
  0
POINT
  5
4E4
330
4DC
100
AcDbEntity
  8
DEFPOINTS
 62
     0
100
AcDbPoint
 10
-408.5
 20
300.0
 30
0.0
  0
POINT
  5
4E5
330
4DC
100
AcDbEntity
  8
DEFPOINTS
 62
     0
100
AcDbPoint
 10
-408.5
 20
247.5
 30
0.0
  0
ENDBLK
  5
4DE
330
4DC
100
AcDbEntity
  8
0
100
AcDbBlockEnd
  0
BLOCK
  5
4E8
330
4E7
100
AcDbEntity
  8
0
100
AcDbBlockBegin
  2
*D48
 70
     1
 10
0.0
 20
0.0
 30
0.0
  3
*D48
  1

  0
LINE
  5
4EA
330
4E7
100
AcDbEntity
  8
0
 62
     0
100
AcDbLine
 10
-159.3029178077192
 20
188.1304040423568
 30
0.0
 11
-169.1454808002702
 21
151.3974591853355
 31
0.0
  0
LINE
  5
4EB
330
4E7
100
AcDbEntity
  8
0
 62
     0
100
AcDbLine
 10
-137.5000000585446
 20
156.96
 30
0.0
 11
-137.5000002827832
 21
147.2312522331054
 31
0.0
  0
ARC
  5
4EC
330
4E7
100
AcDbEntity
  8
0
 62
     0
100
AcDbCircle
 10
-137.4999974646024
 20
269.500009834248
 30
0.0
 40
120.9987576011427
100
AcDbArc
 50
256.4206073712373
 51
268.5793911880927
  0
INSERT
  5
4ED
330
4E7
100
AcDbEntity
  8
0
 62
     0
100
AcDbBlockReference
  2
_OPEN30
 10
-168.8167806104196
 20
152.6241849840338
 30
0.0
 41
3.0
 42
3.0
 43
3.0
 50
165.7103036255907
  0
INSERT
  5
4EE
330
4E7
100
AcDbEntity
  8
0
 62
     0
100
AcDbBlockReference
  2
_OPEN30
 10
-137.5000002535109
 20
148.5012522331053
 30
0.0
 41
3.0
 42
3.0
 43
3.0
 50
359.2896949337392
  0
POINT
  5
4F0
330
4E7
100
AcDbEntity
  8
DEFPOINTS
 62
     0
100
AcDbPoint
 10
-137.4999974646024
 20
269.500009834248
 30
0.0
  0
POINT
  5
4F1
330
4E7
100
AcDbEntity
  8
DEFPOINTS
 62
     0
100
AcDbPoint
 10
-158.6455174280179
 20
190.5838556397536
 30
0.0
  0
POINT
  5
4F2
330
4E7
100
AcDbEntity
  8
DEFPOINTS
 62
     0
100
AcDbPoint
 10
-137.5
 20
159.5
 30
0.0
  0
POINT
  5
4F3
330
4E7
100
AcDbEntity
  8
DEFPOINTS
 62
     0
100
AcDbPoint
 10
-158.5112123039732
 20
150.3394954345783
 30
0.0
  0
MTEXT
  5
4F4
330
4E7
100
AcDbEntity
  8
0
 62
     7
100
AcDbMText
 10
-153.2936695585546
 20
150.4101718100451
 30
0.0
 40
3.5
 41
0.0
 71
     8
 72
     1
  1
\W1;15°
 11
0.9914448613738104
 21
-0.1305261922200517
 31
0.0
  0
ENDBLK
  5
4E9
330
4E7
100
AcDbEntity
  8
0
100
AcDbBlockEnd
  0
BLOCK
  5
4F7
330
4F6
100
AcDbEntity
  8
0
100
AcDbBlockBegin
  2
*D49
 70
     1
 10
0.0
 20
0.0
 30
0.0
  3
*D49
  1

  0
LINE
  5
4F9
330
4F6
100
AcDbEntity
  8
0
 62
     0
100
AcDbLine
 10
-115.6970823941166
 20
188.1304039882751
 30
0.0
 11
-105.8543844781971
 21
151.3969546424637
 31
0.0
  0
ARC
  5
4FA
330
4F6
100
AcDbEntity
  8
0
 62
     0
100
AcDbCircle
 10
-137.4999999999997
 20
269.5000016644609
 30
0.0
 40
120.9992712730137
100
AcDbArc
 50
271.4206014601533
 51
283.5793982902646
  0
INSERT
  5
4FB
330
4F6
100
AcDbEntity
  8
0
 62
     0
100
AcDbBlockReference
  2
_OPEN30
 10
-137.5
 20
148.5007303914471
 30
0.0
 41
3.0
 42
3.0
 43
3.0
 50
180.7103007300766
  0
INSERT
  5
4FC
330
4F6
100
AcDbEntity
  8
0
 62
     0
100
AcDbBlockReference
  2
_OPEN30
 10
-106.1830846601336
 20
152.6236804432827
 30
0.0
 41
3.0
 42
3.0
 43
3.0
 50
14.28969902034135
  0
POINT
  5
4FE
330
4F6
100
AcDbEntity
  8
DEFPOINTS
 62
     0
100
AcDbPoint
 10
-137.4999999999997
 20
269.5000016644609
 30
0.0
  0
POINT
  5
4FF
330
4F6
100
AcDbEntity
  8
DEFPOINTS
 62
     0
100
AcDbPoint
 10
-137.5
 20
159.5
 30
0.0
  0
POINT
  5
500
330
4F6
100
AcDbEntity
  8
DEFPOINTS
 62
     0
100
AcDbPoint
 10
-116.3544827579897
 20
190.583855589913
 30
0.0
  0
POINT
  5
501
330
4F6
100
AcDbEntity
  8
DEFPOINTS
 62
     0
100
AcDbPoint
 10
-126.9542188152984
 20
148.9611691340071
 30
0.0
  0
MTEXT
  5
502
330
4F6
100
AcDbEntity
  8
0
 62
     7
100
AcDbMText
 10
-121.7063307899315
 20
150.4101717705863
 30
0.0
 40
3.5
 41
0.0
 71
     8
 72
     1
  1
\W1;15°
 11
0.9914448613738104
 21
0.1305261922200516
 31
0.0
  0
ENDBLK
  5
4F8
330
4F6
100
AcDbEntity
  8
0
100
AcDbBlockEnd
  0
BLOCK
  5
505
330
504
100
AcDbEntity
  8
0
100
AcDbBlockBegin
  2
*D50
 70
     1
 10
0.0
 20
0.0
 30
0.0
  3
*D50
  1

  0
LINE
  5
507
330
504
100
AcDbEntity
  8
0
 62
     0
100
AcDbLine
 10
-431.54
 20
284.5
 30
0.0
 11
-463.268
 21
284.5
 31
0.0
  0
LINE
  5
508
330
504
100
AcDbEntity
  8
0
 62
     0
100
AcDbLine
 10
-431.54
 20
254.5
 30
0.0
 11
-463.268
 21
254.5
 31
0.0
  0
LINE
  5
509
330
504
100
AcDbEntity
  8
0
 62
     0
100
AcDbLine
 10
-461.998
 20
281.5
 30
0.0
 11
-461.998
 21
257.5
 31
0.0
  0
INSERT
  5
50A
330
504
100
AcDbEntity
  8
0
 62
     0
100
AcDbBlockReference
  2
_OPEN30
 10
-461.998
 20
284.5
 30
0.0
 41
3.0
 42
3.0
 43
3.0
 50
90.0
  0
INSERT
  5
50B
330
504
100
AcDbEntity
  8
0
 62
     0
100
AcDbBlockReference
  2
_OPEN30
 10
-461.998
 20
254.5
 30
0.0
 41
3.0
 42
3.0
 43
3.0
 50
270.0
  0
MTEXT
  5
50C
330
504
100
AcDbEntity
  8
0
 62
     0
100
AcDbMText
 10
-464.6481637176441
 20
269.501
 30
0.0
 40
3.5
 41
0.0
 71
     5
 72
     1
  1
\U+2205３０
 11
0.0
 21
1.0
 31
0.0
  0
POINT
  5
50D
330
504
100
AcDbEntity
  8
DEFPOINTS
 62
     0
100
AcDbPoint
 10
-429.0
 20
284.5
 30
0.0
  0
POINT
  5
50E
330
504
100
AcDbEntity
  8
DEFPOINTS
 62
     0
100
AcDbPoint
 10
-429.0
 20
254.5
 30
0.0
  0
POINT
  5
50F
330
504
100
AcDbEntity
  8
DEFPOINTS
 62
     0
100
AcDbPoint
 10
-462.0
 20
254.5
 30
0.0
  0
ENDBLK
  5
506
330
504
100
AcDbEntity
  8
0
100
AcDbBlockEnd
  0
BLOCK
  5
512
330
511
100
AcDbEntity
  8
0
100
AcDbBlockBegin
  2
*D51
 70
     1
 10
0.0
 20
0.0
 30
0.0
  3
*D51
  1

  0
POINT
  5
517
330
511
100
AcDbEntity
  8
DEFPOINTS
 62
     0
100
AcDbPoint
 10
-115.7253044054283
 20
294.2964237696435
 30
0.0
  0
POINT
  5
518
330
511
100
AcDbEntity
  8
DEFPOINTS
 62
     0
100
AcDbPoint
 10
-159.2746955945717
 20
244.7035762303566
 30
0.0
  0
LINE
  5
519
330
511
100
AcDbEntity
  8
0
  6
CONTINUOUS
 62
     7
100
AcDbLine
 10
-115.7253044054283
 20
294.2964237696435
 30
0.0
 11
-159.2746955945717
 21
244.7035762303566
 31
0.0
  0
LINE
  5
51A
330
511
100
AcDbEntity
  8
0
  6
CONTINUOUS
 62
     7
100
AcDbLine
 10
-115.7253044054283
 20
294.2964237696435
 30
0.0
 11
-117.1258057053846
 21
291.4611819616734
 31
0.0
  0
LINE
  5
51B
330
511
100
AcDbEntity
  8
0
  6
CONTINUOUS
 62
     7
100
AcDbLine
 10
-115.7253044054283
 20
294.2964237696435
 30
0.0
 11
-118.3557950131072
 21
292.5412829878959
 31
0.0
  0
LINE
  5
51C
330
511
100
AcDbEntity
  8
0
  6
CONTINUOUS
 62
     7
100
AcDbLine
 10
-159.2746955945717
 20
244.7035762303566
 30
0.0
 11
-157.8741942946155
 21
247.5388180383267
 31
0.0
  0
LINE
  5
51D
330
511
100
AcDbEntity
  8
0
  6
CONTINUOUS
 62
     7
100
AcDbLine
 10
-159.2746955945717
 20
244.7035762303566
 30
0.0
 11
-156.6442049868928
 21
246.4587170121042
 31
0.0
  0
MTEXT
  5
51E
330
511
100
AcDbEntity
  8
0
 62
     7
100
AcDbMText
 10
-150.6427304762173
 20
255.4084204231201
 30
0.0
 40
3.5
 41
0.0
 71
     8
 72
     1
  1
\W1;\U+220566
 11
0.6600016679609368
 21
0.7512641335035111
 31
0.0
  0
ENDBLK
  5
513
330
511
100
AcDbEntity
  8
0
100
AcDbBlockEnd
  0
BLOCK
  5
526
330
51F
100
AcDbEntity
  8
0
100
AcDbBlockBegin
  2
SYM0009
 70
     0
 10
0.0
 20
0.0
 30
0.0
  3
SYM0009
  1

  0
LINE
  5
520
330
51F
100
AcDbEntity
  8
0
  6
CONTINUOUS
 62
     7
100
AcDbLine
 10
0.0
 20
0.0
 30
0.0
 11
-40.03447679380741
 21
-81.85094568376084
 31
0.0
  0
LINE
  5
521
330
51F
100
AcDbEntity
  8
0
  6
CONTINUOUS
 62
     7
100
AcDbLine
 10
0.0
 20
0.0
 30
0.0
 11
-0.606853878590755
 21
-3.103502597208518
 31
0.0
  0
LINE
  5
522
330
51F
100
AcDbEntity
  8
0
  6
CONTINUOUS
 62
     7
100
AcDbLine
 10
0.0
 20
0.0
 30
0.0
 11
-2.077302173711246
 21
-2.384285150718171
 31
0.0
  0
LINE
  5
523
330
51F
100
AcDbEntity
  8
0
  6
CONTINUOUS
 62
     7
100
AcDbLine
 10
-40.03447679380741
 20
-81.85094568376087
 30
0.0
 11
-67.31478614136091
 21
-81.85094568376087
 31
0.0
  0
MTEXT
  5
524
330
51F
100
AcDbEntity
  8
0
 62
     7
100
AcDbMText
 10
-42.31478614136091
 20
-80.97594568376084
 30
0.0
 40
3.5
 41
0.0
 71
     9
 72
     1
  1
{\W0.833333;３－Ｍ４{\H0.5x;\S　;}深サ６}
  0
ENDBLK
  5
527
330
51F
100
AcDbEntity
  8
0
100
AcDbBlockEnd
  0
BLOCK
  5
52F
330
528
100
AcDbEntity
  8
0
100
AcDbBlockBegin
  2
SYM0010
 70
     0
 10
0.0
 20
0.0
 30
0.0
  3
SYM0010
  1

  0
LINE
  5
529
330
528
100
AcDbEntity
  8
0
  6
CONTINUOUS
 62
     7
100
AcDbLine
 10
0.0
 20
0.0
 30
0.0
 11
44.7385210662629
 21
-19.94842846988723
 31
0.0
  0
LINE
  5
52A
330
528
100
AcDbEntity
  8
0
  6
CONTINUOUS
 62
     7
100
AcDbLine
 10
0.0
 20
0.0
 30
0.0
 11
3.123071626414827
 21
-0.496410734294841
 31
0.0
  0
LINE
  5
52B
330
528
100
AcDbEntity
  8
0
  6
CONTINUOUS
 62
     7
100
AcDbLine
 10
0.0
 20
0.0
 30
0.0
 11
2.456453999281251
 21
-1.991440119676156
 31
0.0
  0
LINE
  5
52C
330
528
100
AcDbEntity
  8
0
  6
CONTINUOUS
 62
     7
100
AcDbLine
 10
44.73852106626293
 20
-19.94842846988723
 30
0.0
 11
76.32450300507747
 21
-19.94842846988723
 31
0.0
  0
MTEXT
  5
52D
330
528
100
AcDbEntity
  8
0
 62
     7
100
AcDbMText
 10
47.94950300507747
 20
-19.07342846988712
 30
0.0
 40
3.5
 41
0.0
 71
     7
 72
     1
  1
{\W0.833333;６－Ｍ８{\H0.5x;\S　;}深サ１６}
  0
ENDBLK
  5
530
330
528
100
AcDbEntity
  8
0
100
AcDbBlockEnd
  0
BLOCK
  5
533
330
532
100
AcDbEntity
  8
0
100
AcDbBlockBegin
  2
*D54
 70
     1
 10
0.0
 20
0.0
 30
0.0
  3
*D54
  1

  0
LINE
  5
535
330
532
100
AcDbEntity
  8
0
 62
     0
100
AcDbLine
 10
-24.96
 20
269.5
 30
0.0
 11
-20.72900000000001
 21
269.5
 31
0.0
  0
LINE
  5
536
330
532
100
AcDbEntity
  8
0
 62
     0
100
AcDbLine
 10
-127.96
 20
219.5
 30
0.0
 11
-20.72899999999999
 21
219.5
 31
0.0
  0
LINE
  5
537
330
532
100
AcDbEntity
  8
0
 62
     0
100
AcDbLine
 10
-21.99900000000001
 20
266.5
 30
0.0
 11
-21.99899999999999
 21
222.5
 31
0.0
  0
INSERT
  5
538
330
532
100
AcDbEntity
  8
0
 62
     0
100
AcDbBlockReference
  2
_OPEN30
 10
-21.99900000000001
 20
269.5
 30
0.0
 41
3.0
 42
3.0
 43
3.0
 50
90.00000000000001
  0
INSERT
  5
539
330
532
100
AcDbEntity
  8
0
 62
     0
100
AcDbBlockReference
  2
_OPEN30
 10
-21.99899999999999
 20
219.5
 30
0.0
 41
3.0
 42
3.0
 43
3.0
 50
270.0
  0
MTEXT
  5
53A
330
532
100
AcDbEntity
  8
0
 62
     0
100
AcDbMText
 10
-24.63975
 20
244.501
 30
0.0
 40
3.5
 41
0.0
 71
     5
 72
     1
  1
50
 11
-3.552713678800501E-16
 21
1.0
 31
0.0
  0
POINT
  5
53B
330
532
100
AcDbEntity
  8
DEFPOINTS
 62
     0
100
AcDbPoint
 10
-27.5
 20
269.5
 30
0.0
  0
POINT
  5
53C
330
532
100
AcDbEntity
  8
DEFPOINTS
 62
     0
100
AcDbPoint
 10
-130.5
 20
219.5
 30
0.0
  0
POINT
  5
53D
330
532
100
AcDbEntity
  8
DEFPOINTS
 62
     0
100
AcDbPoint
 10
-22.0
 20
219.5
 30
0.0
  0
ENDBLK
  5
534
330
532
100
AcDbEntity
  8
0
100
AcDbBlockEnd
  0
BLOCK
  5
540
330
53F
100
AcDbEntity
  8
0
100
AcDbBlockBegin
  2
*D55
 70
     1
 10
0.0
 20
0.0
 30
0.0
  3
*D55
  1

  0
LINE
  5
542
330
53F
100
AcDbEntity
  8
0
 62
     0
100
AcDbLine
 10
-127.96
 20
189.5
 30
0.0
 11
-20.729
 21
189.5000000000001
 31
0.0
  0
LINE
  5
543
330
53F
100
AcDbEntity
  8
0
 62
     0
100
AcDbLine
 10
-21.999
 20
216.5000000000001
 30
0.0
 11
-21.99899999999999
 21
192.5000000000001
 31
0.0
  0
INSERT
  5
544
330
53F
100
AcDbEntity
  8
0
 62
     0
100
AcDbBlockReference
  2
_OPEN30
 10
-21.999
 20
219.5000000000001
 30
0.0
 41
3.0
 42
3.0
 43
3.0
 50
90.00000000000001
  0
INSERT
  5
545
330
53F
100
AcDbEntity
  8
0
 62
     0
100
AcDbBlockReference
  2
_OPEN30
 10
-21.99899999999999
 20
189.5000000000001
 30
0.0
 41
3.0
 42
3.0
 43
3.0
 50
270.0
  0
MTEXT
  5
546
330
53F
100
AcDbEntity
  8
0
 62
     0
100
AcDbMText
 10
-24.63975
 20
204.501
 30
0.0
 40
3.5
 41
0.0
 71
     5
 72
     1
  1
30
 11
-3.552713678800494E-16
 21
1.0
 31
0.0
  0
POINT
  5
547
330
53F
100
AcDbEntity
  8
DEFPOINTS
 62
     0
100
AcDbPoint
 10
-130.5
 20
219.5
 30
0.0
  0
POINT
  5
548
330
53F
100
AcDbEntity
  8
DEFPOINTS
 62
     0
100
AcDbPoint
 10
-130.5
 20
189.5
 30
0.0
  0
POINT
  5
549
330
53F
100
AcDbEntity
  8
DEFPOINTS
 62
     0
100
AcDbPoint
 10
-22.0
 20
189.5
 30
0.0
  0
ENDBLK
  5
541
330
53F
100
AcDbEntity
  8
0
100
AcDbBlockEnd
  0
BLOCK
  5
551
330
54A
100
AcDbEntity
  8
0
100
AcDbBlockBegin
  2
SYM0011
 70
     0
 10
0.0
 20
0.0
 30
0.0
  3
SYM0011
  1

  0
LINE
  5
54B
330
54A
100
AcDbEntity
  8
0
  6
CONTINUOUS
 62
     7
100
AcDbLine
 10
0.0
 20
0.0
 30
0.0
 11
-83.60943140244046
 21
80.36418739341082
 31
0.0
  0
LINE
  5
54C
330
54A
100
AcDbEntity
  8
0
  6
CONTINUOUS
 62
     7
100
AcDbLine
 10
0.0
 20
0.0
 30
0.0
 11
-2.769363194163986
 21
1.526639282755013
 31
0.0
  0
LINE
  5
54D
330
54A
100
AcDbEntity
  8
0
  6
CONTINUOUS
 62
     7
100
AcDbLine
 10
0.0
 20
0.0
 30
0.0
 11
-1.635019237230438
 21
2.706789998268619
 31
0.0
  0
LINE
  5
54E
330
54A
100
AcDbEntity
  8
0
  6
CONTINUOUS
 62
     7
100
AcDbLine
 10
-83.6094314024404
 20
80.36418739341082
 30
0.0
 11
-124.1094314024403
 21
80.36418739341082
 31
0.0
  0
MTEXT
  5
54F
330
54A
100
AcDbEntity
  8
0
 62
     7
100
AcDbMText
 10
-85.1094314024403
 20
81.2391873934107
 30
0.0
 40
3.5
 41
0.0
 71
     9
 72
     1
  1
{\W0.833333;（ＭＡＸ　Ｍ６０×２）}
  0
ENDBLK
  5
552
330
54A
100
AcDbEntity
  8
0
100
AcDbBlockEnd
  0
BLOCK
  5
600
330
5F9
100
AcDbEntity
  8
0
100
AcDbBlockBegin
  2
$X0
 70
     0
 10
0.0
 20
0.0
 30
0.0
  3
$X0
  1

  0
LINE
  5
5FA
330
5F9
100
AcDbEntity
  8
0
  6
CONTINUOUS
 62
     7
100
AcDbLine
 10
-0.061887898966539
 20
-1.498722752199846
 30
0.0
 11
1.498722628421056
 21
0.061890896411924
 31
0.0
  0
LINE
  5
5FB
330
5F9
100
AcDbEntity
  8
0
  6
CONTINUOUS
 62
     7
100
AcDbLine
 10
-0.698714932392285
 20
-1.32732718018282
 30
0.0
 11
1.327325782750286
 21
0.698717587045238
 31
0.0
  0
LINE
  5
5FC
330
5F9
100
AcDbEntity
  8
0
  6
CONTINUOUS
 62
     7
100
AcDbLine
 10
-1.146656821762683
 20
-0.967046086339778
 30
0.0
 11
0.967043793024203
 21
1.14665875585257
 31
0.0
  0
LINE
  5
5FD
330
5F9
100
AcDbEntity
  8
0
  6
CONTINUOUS
 62
     7
100
AcDbLine
 10
-1.432557514845364
 20
-0.444723472126306
 30
0.0
 11
0.444720607010389
 21
1.432558404289445
 31
0.0
  0
LINE
  5
5FE
330
5F9
100
AcDbEntity
  8
0
  6
CONTINUOUS
 62
     7
100
AcDbLine
 10
-1.462425988983341
 20
0.33363187309682
 30
0.0
 11
-0.333634797948122
 21
1.46242532171668
 31
0.0
  0
ENDBLK
  5
601
330
5F9
100
AcDbEntity
  8
0
100
AcDbBlockEnd
  0
ENDSEC
  0
SECTION
  2
ENTITIES
  0
LINE
  5
72
330
1F
100
AcDbEntity
  8
0
  6
CONTINUOUS
 62
     7
100
AcDbLine
 10
-220.0
 20
82.5
 30
0.0
 11
-140.0
 21
82.5
 31
0.0
  0
LINE
  5
73
330
1F
100
AcDbEntity
  8
0
  6
CONTINUOUS
 62
     7
100
AcDbLine
 10
-220.0
 20
122.5
 30
0.0
 11
-220.0
 21
82.5
 31
0.0
  0
LINE
  5
74
330
1F
100
AcDbEntity
  8
0
  6
CONTINUOUS
 62
     7
100
AcDbLine
 10
-204.0
 20
122.5
 30
0.0
 11
-204.0
 21
82.5
 31
0.0
  0
LINE
  5
75
330
1F
100
AcDbEntity
  8
0
  6
CONTINUOUS
 62
     7
100
AcDbLine
 10
-188.0
 20
122.5
 30
0.0
 11
-188.0
 21
82.5
 31
0.0
  0
LINE
  5
76
330
1F
100
AcDbEntity
  8
0
  6
CONTINUOUS
 62
     7
100
AcDbLine
 10
-172.0
 20
122.5
 30
0.0
 11
-172.0
 21
82.5
 31
0.0
  0
LINE
  5
77
330
1F
100
AcDbEntity
  8
0
  6
CONTINUOUS
 62
     7
100
AcDbLine
 10
-220.0
 20
98.5
 30
0.0
 11
-140.0
 21
98.5
 31
0.0
  0
LINE
  5
78
330
1F
100
AcDbEntity
  8
0
  6
CONTINUOUS
 62
     7
100
AcDbLine
 10
-220.0
 20
90.5
 30
0.0
 11
-140.0
 21
90.5
 31
0.0
  0
LINE
  5
79
330
1F
100
AcDbEntity
  8
0
  6
CONTINUOUS
 62
     7
100
AcDbLine
 10
-156.0
 20
122.5
 30
0.0
 11
-156.0
 21
82.5
 31
0.0
  0
LINE
  5
7A
330
1F
100
AcDbEntity
  8
0
  6
CONTINUOUS
 62
     7
100
AcDbLine
 10
-220.0
 20
106.5
 30
0.0
 11
-140.0
 21
106.5
 31
0.0
  0
LINE
  5
7B
330
1F
100
AcDbEntity
  8
0
  6
CONTINUOUS
 62
     7
100
AcDbLine
 10
-140.0
 20
122.5
 30
0.0
 11
-140.0
 21
82.5
 31
0.0
  0
LINE
  5
7C
330
1F
100
AcDbEntity
  8
0
  6
CONTINUOUS
 62
     7
100
AcDbLine
 10
-220.0
 20
114.5
 30
0.0
 11
-140.0
 21
114.5
 31
0.0
  0
LINE
  5
7D
330
1F
100
AcDbEntity
  8
0
  6
CONTINUOUS
 62
     7
100
AcDbLine
 10
-220.0
 20
122.5
 30
0.0
 11
-140.0
 21
122.5
 31
0.0
  0
LINE
  5
7E
330
1F
100
AcDbEntity
  8
0
  6
CENTER
 62
     7
100
AcDbLine
 10
-232.7627941369115
 20
214.4999995161053
 30
0.0
 11
-42.23720615923436
 21
324.5000009968344
 31
0.0
  0
LINE
  5
7F
330
1F
100
AcDbEntity
  8
0
  6
CONTINUOUS
 62
     7
100
AcDbLine
 10
-357.5
 20
372.5
 30
0.0
 11
-357.5
 21
323.1587677001953
 31
0.0
  0
LINE
  5
80
330
1F
100
AcDbEntity
  8
0
  6
CONTINUOUS
 62
     7
100
AcDbLine
 10
-446.5
 20
164.5
 30
0.0
 11
-359.5
 21
164.5
 31
0.0
  0
LINE
  5
81
330
1F
100
AcDbEntity
  8
0
  6
CONTINUOUS
 62
     7
100
AcDbLine
 10
-446.5
 20
374.5
 30
0.0
 11
-359.5
 21
374.5
 31
0.0
  0
LINE
  5
82
330
1F
100
AcDbEntity
  8
0
  6
CONTINUOUS
 62
     7
100
AcDbLine
 10
-448.5000117890823
 20
166.4999967894417
 30
0.0
 11
-446.5000096316747
 21
164.4999946320341
 31
0.0
  0
LINE
  5
83
330
1F
100
AcDbEntity
  8
0
  6
CONTINUOUS
 62
     7
100
AcDbLine
 10
-359.5000128907839
 20
164.4999838424411
 30
0.0
 11
-357.5000107333763
 21
166.4999859998487
 31
0.0
  0
LINE
  5
84
330
1F
100
AcDbEntity
  8
0
  6
CONTINUOUS
 62
     7
100
AcDbLine
 10
-359.5000128907839
 20
374.5000161575591
 30
0.0
 11
-359.1995227196406
 21
374.1995259864158
 31
0.0
  0
LINE
  5
85
330
1F
100
AcDbEntity
  8
0
  6
CONTINUOUS
 62
     7
100
AcDbLine
 10
-446.5000096316748
 20
374.5000053679659
 30
0.0
 11
-448.5000117890824
 21
372.5000032105584
 31
0.0
  0
LINE
  5
86
330
1F
100
AcDbEntity
  8
0
  6
CONTINUOUS
 62
     7
100
AcDbLine
 10
-448.5
 20
354.5
 30
0.0
 11
-443.5
 21
354.5
 31
0.0
  0
LINE
  5
87
330
1F
100
AcDbEntity
  8
0
  6
CONTINUOUS
 62
     7
100
AcDbLine
 10
-448.5
 20
184.5
 30
0.0
 11
-443.5
 21
184.5
 31
0.0
  0
LINE
  5
88
330
1F
100
AcDbEntity
  8
0
  6
CONTINUOUS
 62
     7
100
AcDbLine
 10
-443.5
 20
328.0
 30
0.0
 11
-420.5
 21
328.0
 31
0.0
  0
LINE
  5
89
330
1F
100
AcDbEntity
  8
0
  6
CONTINUOUS
 62
     7
100
AcDbLine
 10
-443.5
 20
211.0
 30
0.0
 11
-409.9450988769531
 21
211.0
 31
0.0
  0
LINE
  5
8A
330
1F
100
AcDbEntity
  8
0
  6
CONTINUOUS
 62
     7
100
AcDbLine
 10
-373.5
 20
212.7999992370605
 30
0.0
 11
-373.5
 21
192.8000030517578
 31
0.0
  0
LINE
  5
8B
330
1F
100
AcDbEntity
  8
0
  6
CONTINUOUS
 62
     7
100
AcDbLine
 10
-373.5
 20
212.7999992370605
 30
0.0
 11
-357.5
 21
212.7999992370605
 31
0.0
  0
LINE
  5
8C
330
1F
100
AcDbEntity
  8
0
  6
CONTINUOUS
 62
     7
100
AcDbLine
 10
-373.5
 20
192.8000030517578
 30
0.0
 11
-357.5
 21
192.8000030517578
 31
0.0
  0
LINE
  5
8D
330
1F
100
AcDbEntity
  8
0
  6
CONTINUOUS
 62
     7
100
AcDbLine
 10
-443.5
 20
209.7999992370605
 30
0.0
 11
-373.5
 21
209.7999992370605
 31
0.0
  0
LINE
  5
8E
330
1F
100
AcDbEntity
  8
0
  6
CONTINUOUS
 62
     7
100
AcDbLine
 10
-443.5
 20
195.8000030517578
 30
0.0
 11
-373.5
 21
195.8000030517578
 31
0.0
  0
LINE
  5
8F
330
1F
100
AcDbEntity
  8
0
  6
CONTINUOUS
 62
     7
100
AcDbLine
 10
-363.5
 20
241.5
 30
0.0
 11
-363.5
 21
236.5
 31
0.0
  0
LINE
  5
90
330
1F
100
AcDbEntity
  8
0
  6
CONTINUOUS
 62
     7
100
AcDbLine
 10
-363.5
 20
228.5
 30
0.0
 11
-357.5
 21
228.5
 31
0.0
  0
LINE
  5
91
330
1F
100
AcDbEntity
  8
0
  6
CONTINUOUS
 62
     7
100
AcDbLine
 10
-405.5
 20
241.5
 30
0.0
 11
-363.5
 21
241.5
 31
0.0
  0
LINE
  5
92
330
1F
100
AcDbEntity
  8
0
  6
CONTINUOUS
 62
     7
100
AcDbLine
 10
-363.5
 20
297.5
 30
0.0
 11
-363.5
 21
308.2000045776367
 31
0.0
  0
LINE
  5
93
330
1F
100
AcDbEntity
  8
0
  6
CONTINUOUS
 62
     7
100
AcDbLine
 10
-403.2009619176388
 20
296.0
 30
0.0
 11
-359.5000301474893
 21
296.0
 31
0.0
  0
LINE
  5
94
330
1F
100
AcDbEntity
  8
0
  6
CONTINUOUS
 62
     7
100
AcDbLine
 10
-405.5
 20
297.5
 30
0.0
 11
-363.5
 21
297.5
 31
0.0
  0
LINE
  5
95
330
1F
100
AcDbEntity
  8
0
  6
CONTINUOUS
 62
     7
100
AcDbLine
 10
-404.5
 20
241.5
 30
0.0
 11
-404.5
 21
297.5
 31
0.0
  0
LINE
  5
96
330
1F
100
AcDbEntity
  8
0
  6
CONTINUOUS
 62
     7
100
AcDbLine
 10
-363.5
 20
303.5
 30
0.0
 11
-362.5
 21
303.5
 31
0.0
  0
LINE
  5
97
330
1F
100
AcDbEntity
  8
0
  6
CONTINUOUS
 62
     7
100
AcDbLine
 10
-362.5000110675396
 20
303.5000067172678
 30
0.0
 11
-357.5000146898173
 21
300.6132574108306
 31
0.0
  0
LINE
  5
98
330
1F
100
AcDbEntity
  8
0
  6
CONTINUOUS
 62
     7
100
AcDbLine
 10
-448.5
 20
372.5
 30
0.0
 11
-448.5
 21
208.7999992370605
 31
0.0
  0
LINE
  5
99
330
1F
100
AcDbEntity
  8
0
  6
CONTINUOUS
 62
     7
100
AcDbLine
 10
-458.5
 20
196.8000030517578
 30
0.0
 11
-373.5
 21
196.8000030517578
 31
0.0
  0
LINE
  5
9A
330
1F
100
AcDbEntity
  8
0
  6
CONTINUOUS
 62
     7
100
AcDbLine
 10
-458.5
 20
208.7999992370605
 30
0.0
 11
-373.5
 21
208.7999992370605
 31
0.0
  0
LINE
  5
9B
330
1F
100
AcDbEntity
  8
0
  6
CONTINUOUS
 62
     7
100
AcDbLine
 10
-361.5
 20
211.7999992370605
 30
0.0
 11
-361.5
 21
193.8000030517578
 31
0.0
  0
LINE
  5
9C
330
1F
100
AcDbEntity
  8
0
  6
CONTINUOUS
 62
     7
100
AcDbLine
 10
-373.5
 20
211.7999992370605
 30
0.0
 11
-361.5
 21
211.7999992370605
 31
0.0
  0
LINE
  5
9D
330
1F
100
AcDbEntity
  8
0
  6
CONTINUOUS
 62
     7
100
AcDbLine
 10
-373.5
 20
193.8000030517578
 30
0.0
 11
-361.5
 21
193.8000030517578
 31
0.0
  0
LINE
  5
9E
330
1F
100
AcDbEntity
  8
0
  6
CONTINUOUS
 62
     7
100
AcDbLine
 10
-458.5
 20
207.9249992370605
 30
0.0
 11
-422.5
 21
207.9249992370605
 31
0.0
  0
LINE
  5
9F
330
1F
100
AcDbEntity
  8
0
  6
CONTINUOUS
 62
     7
100
AcDbLine
 10
-458.5
 20
197.6750030517578
 30
0.0
 11
-422.5
 21
197.6750030517578
 31
0.0
  0
LINE
  5
A0
330
1F
100
AcDbEntity
  8
0
  6
CONTINUOUS
 62
     7
100
AcDbLine
 10
-443.5
 20
196.8000030517578
 30
0.0
 11
-443.5
 21
184.5
 31
0.0
  0
LINE
  5
A1
330
1F
100
AcDbEntity
  8
0
  6
CONTINUOUS
 62
     7
100
AcDbLine
 10
-429.0
 20
301.5
 30
0.0
 11
-429.0
 21
237.5
 31
0.0
  0
LINE
  5
A2
330
1F
100
AcDbEntity
  8
0
  6
CONTINUOUS
 62
     7
100
AcDbLine
 10
-428.0
 20
302.5
 30
0.0
 11
-418.5
 21
302.5
 31
0.0
  0
LINE
  5
A3
330
1F
100
AcDbEntity
  8
0
  6
CONTINUOUS
 62
     7
100
AcDbLine
 10
-428.0
 20
236.5
 30
0.0
 11
-418.5
 21
236.5
 31
0.0
  0
LINE
  5
A4
330
1F
100
AcDbEntity
  8
0
  6
CONTINUOUS
 62
     7
100
AcDbLine
 10
-428.0000220444343
 20
302.4999924388524
 30
0.0
 11
-429.0000123335449
 21
301.5000021497418
 31
0.0
  0
LINE
  5
A5
330
1F
100
AcDbEntity
  8
0
  6
CONTINUOUS
 62
     7
100
AcDbLine
 10
-429.0000123335449
 20
237.4999978502583
 30
0.0
 11
-428.0000220444343
 21
236.5000075611478
 31
0.0
  0
LINE
  5
A6
330
1F
100
AcDbEntity
  8
0
  6
CONTINUOUS
 62
     7
100
AcDbLine
 10
-405.5
 20
302.0
 30
0.0
 11
-405.5
 21
237.0
 31
0.0
  0
LINE
  5
A7
330
1F
100
AcDbEntity
  8
0
  6
CONTINUOUS
 62
     7
100
AcDbLine
 10
-412.5
 20
300.0
 30
0.0
 11
-412.5
 21
239.0
 31
0.0
  0
LINE
  5
A8
330
1F
100
AcDbEntity
  8
0
  6
CONTINUOUS
 62
     7
100
AcDbLine
 10
-418.5
 20
236.5
 30
0.0
 11
-418.5
 21
233.5
 31
0.0
  0
LINE
  5
A9
330
1F
100
AcDbEntity
  8
0
  6
CONTINUOUS
 62
     7
100
AcDbLine
 10
-418.5
 20
233.5
 30
0.0
 11
-412.5
 21
233.5
 31
0.0
  0
LINE
  5
AA
330
1F
100
AcDbEntity
  8
0
  6
CONTINUOUS
 62
     7
100
AcDbLine
 10
-412.5
 20
237.0
 30
0.0
 11
-405.5
 21
237.0
 31
0.0
  0
LINE
  5
AB
330
1F
100
AcDbEntity
  8
0
  6
CONTINUOUS
 62
     7
100
AcDbLine
 10
-408.5
 20
300.0
 30
0.0
 11
-408.5
 21
239.0
 31
0.0
  0
LINE
  5
AC
330
1F
100
AcDbEntity
  8
0
  6
CONTINUOUS
 62
     7
100
AcDbLine
 10
-412.5
 20
239.0
 30
0.0
 11
-408.5
 21
239.0
 31
0.0
  0
LINE
  5
AD
330
1F
100
AcDbEntity
  8
0
  6
CONTINUOUS
 62
     7
100
AcDbLine
 10
-418.5
 20
305.5
 30
0.0
 11
-412.5
 21
305.5
 31
0.0
  0
LINE
  5
AE
330
1F
100
AcDbEntity
  8
0
  6
CONTINUOUS
 62
     7
100
AcDbLine
 10
-418.5
 20
302.5
 30
0.0
 11
-418.5
 21
305.5
 31
0.0
  0
LINE
  5
AF
330
1F
100
AcDbEntity
  8
0
  6
CONTINUOUS
 62
     7
100
AcDbLine
 10
-412.5
 20
302.0
 30
0.0
 11
-405.5
 21
302.0
 31
0.0
  0
LINE
  5
B0
330
1F
100
AcDbEntity
  8
0
  6
CONTINUOUS
 62
     7
100
AcDbLine
 10
-412.5
 20
300.0
 30
0.0
 11
-408.5
 21
300.0
 31
0.0
  0
LINE
  5
B1
330
1F
100
AcDbEntity
  8
0
  6
CONTINUOUS
 62
     7
100
AcDbLine
 10
-412.5
 20
302.4000015258789
 30
0.0
 11
-412.5
 21
305.0
 31
0.0
  0
LINE
  5
B2
330
1F
100
AcDbEntity
  8
0
  6
CONTINUOUS
 62
     7
100
AcDbLine
 10
-427.5
 20
236.5
 30
0.0
 11
-427.5
 21
213.0
 31
0.0
  0
LINE
  5
B3
330
1F
100
AcDbEntity
  8
0
  6
CONTINUOUS
 62
     7
100
AcDbLine
 10
-412.5
 20
237.0
 30
0.0
 11
-412.5
 21
228.3499984741211
 31
0.0
  0
LINE
  5
B4
330
1F
100
AcDbEntity
  8
0
  6
CONTINUOUS
 62
     7
100
AcDbLine
 10
-427.5
 20
302.5
 30
0.0
 11
-427.5
 21
326.0
 31
0.0
  0
LINE
  5
B5
330
1F
100
AcDbEntity
  8
0
  6
CONTINUOUS
 62
     7
100
AcDbLine
 10
-412.5
 20
221.6500015258789
 30
0.0
 11
-412.5
 21
217.0
 31
0.0
  0
LINE
  5
B6
330
1F
100
AcDbEntity
  8
0
  6
CONTINUOUS
 62
     7
100
AcDbLine
 10
-412.5
 20
302.0
 30
0.0
 11
-412.5
 21
305.5
 31
0.0
  0
LINE
  5
B7
330
1F
100
AcDbEntity
  8
0
  6
PHANTOM
 62
     7
100
AcDbLine
 10
-355.5
 20
371.7767868041992
 30
0.0
 11
-355.5
 21
310.6232223510742
 31
0.0
  0
LINE
  5
B8
330
1F
100
AcDbEntity
  8
0
  6
CONTINUOUS
 62
     7
100
AcDbLine
 10
-363.5
 20
308.2000045776367
 30
0.0
 11
-356.1990051269531
 21
308.2000045776367
 31
0.0
  0
LINE
  5
B9
330
1F
100
AcDbEntity
  8
0
  6
CONTINUOUS
 62
     7
100
AcDbLine
 10
-357.5
 20
308.2000045776367
 30
0.0
 11
-357.5
 21
166.5
 31
0.0
  0
LINE
  5
BA
330
1F
100
AcDbEntity
  8
0
  6
CONTINUOUS
 62
     7
100
AcDbLine
 10
-359.1999969482422
 20
374.1999969482422
 30
0.0
 11
-356.1990051269531
 21
374.1999969482422
 31
0.0
  0
LINE
  5
BB
330
1F
100
AcDbEntity
  8
0
  6
CONTINUOUS
 62
     7
100
AcDbLine
 10
-359.1995227196406
 20
374.1995259864158
 30
0.0
 11
-357.5000107333763
 21
372.5000140001515
 31
0.0
  0
LINE
  5
BC
330
1F
100
AcDbEntity
  8
0
  6
CONTINUOUS
 62
     7
100
AcDbLine
 10
-315.1225670214656
 20
199.858524564462
 30
0.0
 11
-301.266160623089
 21
207.8585246721514
 31
0.0
  0
LINE
  5
BD
330
1F
100
AcDbEntity
  8
0
  6
CONTINUOUS
 62
     7
100
AcDbLine
 10
-286.6225675914965
 20
150.4950784220581
 30
0.0
 11
-272.76616119312
 21
158.4950785297475
 31
0.0
  0
LINE
  5
BE
330
1F
100
AcDbEntity
  8
0
  6
CONTINUOUS
 62
     7
100
AcDbLine
 10
-290.4470335138355
 20
225.1192466771131
 30
0.0
 11
-280.6777033576096
 21
208.1982707943167
 31
0.0
  0
LINE
  5
BF
330
1F
100
AcDbEntity
  8
0
  6
CENTER
 62
     7
100
AcDbLine
 10
-307.4718480847897
 20
171.3667041318127
 30
0.0
 11
-262.7674493821814
 21
197.1768012199695
 31
0.0
  0
LINE
  5
C0
330
1F
100
AcDbEntity
  8
0
  6
CONTINUOUS
 62
     7
100
AcDbLine
 10
-296.2661615094575
 20
199.1982723249785
 30
0.0
 11
-279.8116789113854
 21
208.6982724528596
 31
0.0
  0
LINE
  5
C1
330
1F
100
AcDbEntity
  8
0
  6
CONTINUOUS
 62
     7
100
AcDbLine
 10
-277.7661612604259
 20
167.1553325287327
 30
0.0
 11
-261.3116786623538
 21
176.6553326566139
 31
0.0
  0
LINE
  5
C2
330
1F
100
AcDbEntity
  8
0
  6
CONTINUOUS
 62
     7
100
AcDbLine
 10
-301.2661606230891
 20
207.8585246721514
 30
0.0
 11
-296.2661615094576
 21
199.1982723249785
 31
0.0
  0
LINE
  5
C3
330
1F
100
AcDbEntity
  8
0
  6
CONTINUOUS
 62
     7
100
AcDbLine
 10
-277.7661612604259
 20
167.1553325287327
 30
0.0
 11
-272.76616119312
 21
158.4950785297474
 31
0.0
  0
LINE
  5
C4
330
1F
100
AcDbEntity
  8
0
  6
CONTINUOUS
 62
     7
100
AcDbLine
 10
-262.1777040622522
 20
176.1553326498833
 30
0.0
 11
-254.7730465986852
 21
163.3300899405317
 31
0.0
  0
LINE
  5
C5
330
1F
100
AcDbEntity
  8
0
  6
CONTINUOUS
 62
     7
100
AcDbLine
 10
-278.445652551082
 20
208.3322454078793
 30
0.0
 11
-273.69565272556
 21
200.1050045217964
 31
0.0
  0
LINE
  5
C6
330
1F
100
AcDbEntity
  8
0
  6
CONTINUOUS
 62
     7
100
AcDbLine
 10
-280.9898817947534
 20
194.7389798872288
 30
0.0
 11
-270.597576995971
 21
200.7389799679958
 31
0.0
  0
LINE
  5
C7
330
1F
100
AcDbEntity
  8
0
  6
CONTINUOUS
 62
     7
100
AcDbLine
 10
-273.989881223688
 20
182.6146234627431
 30
0.0
 11
-263.5975764249056
 21
188.6146235435101
 31
0.0
  0
LINE
  5
C8
330
1F
100
AcDbEntity
  8
0
  6
CONTINUOUS
 62
     7
100
AcDbLine
 10
-279.8116896334398
 20
208.6982723681741
 30
0.0
 11
-278.4456701263147
 21
208.3322485413269
 31
0.0
  0
LINE
  5
C9
330
1F
100
AcDbEntity
  8
0
  6
CONTINUOUS
 62
     7
100
AcDbLine
 10
-265.695652379452
 20
186.2485977104667
 30
0.0
 11
-260.9456532691858
 21
178.021358063243
 31
0.0
  0
LINE
  5
CA
330
1F
100
AcDbEntity
  8
0
  6
CONTINUOUS
 62
     7
100
AcDbLine
 10
-260.9456601274716
 20
178.0213527332845
 30
0.0
 11
-261.3116839543187
 21
176.6553332261595
 31
0.0
  0
LINE
  5
CB
330
1F
100
AcDbEntity
  8
0
  6
CONTINUOUS
 62
     7
100
AcDbLine
 10
-282.8648815815745
 20
197.9865747238952
 30
0.0
 11
-280.9898817947534
 21
194.7389798872288
 31
0.0
  0
LINE
  5
CC
330
1F
100
AcDbEntity
  8
0
  6
CONTINUOUS
 62
     7
100
AcDbLine
 10
-280.7751359126894
 20
174.367029384677
 30
0.0
 11
-272.114881913704
 21
179.3670294519829
 31
0.0
  0
LINE
  5
CD
330
1F
100
AcDbEntity
  8
0
  6
CONTINUOUS
 62
     7
100
AcDbLine
 10
-291.5251355805598
 20
192.9865746565892
 30
0.0
 11
-282.8648815815745
 21
197.9865747238951
 31
0.0
  0
LINE
  5
CE
330
1F
100
AcDbEntity
  8
0
  6
CONTINUOUS
 62
     7
100
AcDbLine
 10
-274.061688846558
 20
198.7389788135403
 30
0.0
 11
-273.6956630450782
 21
200.1050056900946
 31
0.0
  0
LINE
  5
CF
330
1F
100
AcDbEntity
  8
0
  6
CONTINUOUS
 62
     7
100
AcDbLine
 10
-265.6956578646461
 20
186.2486009793135
 30
0.0
 11
-267.0616847412004
 21
186.6146267807932
 31
0.0
  0
LINE
  5
D0
330
1F
100
AcDbEntity
  8
0
  6
CONTINUOUS
 62
     7
100
AcDbLine
 10
-272.114881913704
 20
179.3670294519829
 30
0.0
 11
-273.989881223688
 21
182.6146234627431
 31
0.0
  0
LINE
  5
D1
330
1F
100
AcDbEntity
  8
0
  6
CONTINUOUS
 62
     7
100
AcDbLine
 10
-280.7751359126893
 20
174.367029384677
 30
0.0
 11
-291.5251355805598
 21
192.9865746565893
 31
0.0
  0
LINE
  5
D2
330
1F
100
AcDbEntity
  8
0
  6
CONTINUOUS
 62
     7
100
AcDbLine
 10
-279.400508452841
 20
208.5880940788616
 30
0.0
 11
-273.9515087361652
 21
199.1501498885453
 31
0.0
  0
LINE
  5
D3
330
1F
100
AcDbEntity
  8
0
  6
CONTINUOUS
 62
     7
100
AcDbLine
 10
-263.5975764249057
 20
188.6146235435102
 30
0.0
 11
-270.5975765191339
 21
200.7389791420896
 31
0.0
  0
LINE
  5
D4
330
1F
100
AcDbEntity
  8
0
  6
CONTINUOUS
 62
     7
100
AcDbLine
 10
-261.2015088029539
 20
177.0665026040858
 30
0.0
 11
-266.6505094733039
 21
186.5044484462145
 31
0.0
  0
LINE
  5
D5
330
1F
100
AcDbEntity
  8
0
  6
CONTINUOUS
 62
     7
100
AcDbLine
 10
-287.2530212759685
 20
194.587055636953
 30
0.0
 11
-282.4898815765266
 21
197.3370556739712
 31
0.0
  0
LINE
  5
D6
330
1F
100
AcDbEntity
  8
0
  6
CONTINUOUS
 62
     7
100
AcDbLine
 10
-281.3510961691512
 20
178.3646217537207
 30
0.0
 11
-288.3510972170537
 21
190.4889790041125
 31
0.0
  0
LINE
  5
D7
330
1F
100
AcDbEntity
  8
0
  6
CONTINUOUS
 62
     7
100
AcDbLine
 10
-277.2530216181939
 20
177.2665484648886
 30
0.0
 11
-272.489881918752
 21
180.0165485019068
 31
0.0
  0
LINE
  5
D8
330
1F
100
AcDbEntity
  8
0
  6
DASHED
 62
     7
100
AcDbLine
 10
-287.8510972103231
 20
189.622953604214
 30
0.0
 11
-270.0975765124032
 21
199.872953742191
 31
0.0
  0
LINE
  5
D9
330
1F
100
AcDbEntity
  8
0
  6
CONTINUOUS
 62
     7
100
AcDbLine
 10
-287.2530366918375
 20
194.587055968635
 30
0.0
 11
-288.3511121216442
 21
190.4889827084015
 31
0.0
  0
LINE
  5
DA
330
1F
100
AcDbEntity
  8
0
  6
CONTINUOUS
 62
     7
100
AcDbLine
 10
-281.3511099909193
 20
178.3646233062252
 30
0.0
 11
-277.2530367306857
 21
177.2665478764185
 31
0.0
  0
LINE
  5
DB
330
1F
100
AcDbEntity
  8
0
  6
DASHED
 62
     7
100
AcDbLine
 10
-281.8510971295561
 20
179.2306488054317
 30
0.0
 11
-264.0975764316362
 21
189.4806489434087
 31
0.0
  0
LINE
  5
DC
330
1F
100
AcDbEntity
  8
0
  6
DASHED
 62
     7
100
AcDbLine
 10
-282.2885971354454
 20
179.9884210303429
 30
0.0
 11
-264.5350764375255
 21
190.2384211683199
 31
0.0
  0
LINE
  5
DD
330
1F
100
AcDbEntity
  8
0
  6
DASHED
 62
     7
100
AcDbLine
 10
-287.4135972044339
 20
188.8651813793029
 30
0.0
 11
-269.660076506514
 21
199.1151815172799
 31
0.0
  0
LINE
  5
DE
330
1F
100
AcDbEntity
  8
0
  6
CONTINUOUS
 62
     7
100
AcDbLine
 10
-178.4013027690167
 20
272.3431341355454
 30
0.0
 11
-155.4884234704091
 21
232.6568637549623
 31
0.0
  0
LINE
  5
DF
330
1F
100
AcDbEntity
  8
0
  6
CONTINUOUS
 62
     7
100
AcDbLine
 10
-151.0941536609993
 20
230.8192675916395
 30
0.0
 11
-177.7955728970796
 21
277.0674815126541
 31
0.0
  0
LINE
  5
E0
330
1F
100
AcDbEntity
  8
0
  6
CONTINUOUS
 62
     7
100
AcDbLine
 10
-114.5871200561523
 20
303.5
 30
0.0
 11
-120.0
 21
303.5
 31
0.0
  0
LINE
  5
E1
330
1F
100
AcDbEntity
  8
0
  6
CONTINUOUS
 62
     7
100
AcDbLine
 10
-164.2014179229736
 20
300.6132488250732
 30
0.0
 11
-155.0
 21
300.6132488250732
 31
0.0
  0
LINE
  5
E2
330
1F
100
AcDbEntity
  8
0
  6
CONTINUOUS
 62
     7
100
AcDbLine
 10
-218.9228566019607
 20
201.1285309230636
 30
0.0
 11
-157.6948634720342
 21
236.4785298730372
 31
0.0
  0
LINE
  5
E3
330
1F
100
AcDbEntity
  8
0
  6
CONTINUOUS
 62
     7
100
AcDbLine
 10
-237.4228568509924
 20
233.1714707193093
 30
0.0
 11
-176.1948637210659
 21
268.5214696692829
 31
0.0
  0
LINE
  5
E4
330
1F
100
AcDbEntity
  8
0
  6
CONTINUOUS
 62
     7
100
AcDbLine
 10
-224.6724406610657
 20
211.0880637607808
 30
0.0
 11
-167.5151871317273
 21
244.0878200643712
 31
0.0
  0
LINE
  5
E5
330
1F
100
AcDbEntity
  8
0
  6
CONTINUOUS
 62
     7
100
AcDbLine
 10
-231.6724407552939
 20
223.2124193593602
 30
0.0
 11
-174.5151872259555
 21
256.2121756629507
 31
0.0
  0
LINE
  5
E6
330
1F
100
AcDbEntity
  8
0
  6
CONTINUOUS
 62
     7
100
AcDbLine
 10
-156.0
 20
374.1999969482422
 30
0.0
 11
-156.0
 21
303.5
 31
0.0
  0
LINE
  5
E7
330
1F
100
AcDbEntity
  8
0
  6
CONTINUOUS
 62
     7
100
AcDbLine
 10
-119.0
 20
374.1999969482422
 30
0.0
 11
-119.0
 21
303.5
 31
0.0
  0
LINE
  5
E8
330
1F
100
AcDbEntity
  8
0
  6
DASHED
 62
     7
100
AcDbLine
 10
-233.5478567988304
 20
226.4597738700957
 30
0.0
 11
-186.5659854615844
 21
253.5847704205327
 31
0.0
  0
LINE
  5
E9
330
1F
100
AcDbEntity
  8
0
  6
DASHED
 62
     7
100
AcDbLine
 10
-222.7978566541228
 20
207.8402277722773
 30
0.0
 11
-175.8159853168768
 21
234.9652243227143
 31
0.0
  0
LINE
  5
EA
330
1F
100
AcDbEntity
  8
0
  6
PHANTOM
 62
     7
100
AcDbLine
 10
-356.1990051269531
 20
371.3732147216797
 30
0.0
 11
-356.1990051269531
 21
311.0267944335938
 31
0.0
  0
LINE
  5
EB
330
1F
100
AcDbEntity
  8
0
  6
CONTINUOUS
 62
     7
100
AcDbLine
 10
-356.1990072289237
 20
309.8731987777576
 30
0.0
 11
-355.49999988062
 21
310.2767708657096
 31
0.0
  0
LINE
  5
EC
330
1F
100
AcDbEntity
  8
0
  6
CONTINUOUS
 62
     7
100
AcDbLine
 10
-356.1990085795351
 20
309.5267916971209
 30
0.0
 11
-355.5000144457304
 21
309.1232272385634
 31
0.0
  0
LINE
  5
ED
330
1F
100
AcDbEntity
  8
0
  6
CONTINUOUS
 62
     7
100
AcDbLine
 10
-356.1990130254754
 20
308.3732088378713
 30
0.0
 11
-355.5000056771718
 21
308.7767809258235
 31
0.0
  0
LINE
  5
EE
330
1F
100
AcDbEntity
  8
0
  6
CONTINUOUS
 62
     7
100
AcDbLine
 10
-355.5
 20
309.123218536377
 30
0.0
 11
-355.5
 21
308.7767868041992
 31
0.0
  0
LINE
  5
EF
330
1F
100
AcDbEntity
  8
0
  6
CONTINUOUS
 62
     7
100
AcDbLine
 10
-356.1990051269531
 20
309.873218536377
 30
0.0
 11
-356.1990051269531
 21
309.5267868041992
 31
0.0
  0
LINE
  5
F0
330
1F
100
AcDbEntity
  8
0
  6
CONTINUOUS
 62
     7
100
AcDbLine
 10
-356.1990051269531
 20
308.373218536377
 30
0.0
 11
-356.1990051269531
 21
308.2000045776367
 31
0.0
  0
LINE
  5
F1
330
1F
100
AcDbEntity
  8
0
  6
CONTINUOUS
 62
     7
100
AcDbLine
 10
-356.1990067466922
 20
311.0267948515059
 30
0.0
 11
-355.5000126128874
 21
310.6232303929485
 31
0.0
  0
LINE
  5
F2
330
1F
100
AcDbEntity
  8
0
  6
CONTINUOUS
 62
     7
100
AcDbLine
 10
-355.5
 20
310.623218536377
 30
0.0
 11
-355.5
 21
310.2767868041992
 31
0.0
  0
LINE
  5
F3
330
1F
100
AcDbEntity
  8
0
  6
CONTINUOUS
 62
     7
100
AcDbLine
 10
-356.1990069404075
 20
372.5267936881194
 30
0.0
 11
-355.5000128066026
 21
372.123229229562
 31
0.0
  0
LINE
  5
F4
330
1F
100
AcDbEntity
  8
0
  6
CONTINUOUS
 62
     7
100
AcDbLine
 10
-356.1990051269531
 20
372.5267868041992
 30
0.0
 11
-356.1990051269531
 21
372.8732147216797
 31
0.0
  0
LINE
  5
F5
330
1F
100
AcDbEntity
  8
0
  6
CONTINUOUS
 62
     7
100
AcDbLine
 10
-356.1990137109289
 20
371.3732091770576
 30
0.0
 11
-355.5000063626252
 21
371.7767812650096
 31
0.0
  0
LINE
  5
F6
330
1F
100
AcDbEntity
  8
0
  6
CONTINUOUS
 62
     7
100
AcDbLine
 10
-355.5
 20
371.7767868041992
 30
0.0
 11
-355.5
 21
372.1232147216797
 31
0.0
  0
LINE
  5
F7
330
1F
100
AcDbEntity
  8
0
  6
CONTINUOUS
 62
     7
100
AcDbLine
 10
-363.5
 20
232.5
 30
0.0
 11
-363.5
 21
228.5
 31
0.0
  0
LINE
  5
F8
330
1F
100
AcDbEntity
  8
0
  6
CENTER
 62
     7
100
AcDbLine
 10
-362.5
 20
325.950008392334
 30
0.0
 11
-313.1990051269531
 21
325.950008392334
 31
0.0
  0
LINE
  5
F9
330
1F
100
AcDbEntity
  8
0
  6
CONTINUOUS
 62
     7
100
AcDbLine
 10
-352.5
 20
361.9500045776367
 30
0.0
 11
-352.5
 21
315.4500045776367
 31
0.0
  0
LINE
  5
FA
330
1F
100
AcDbEntity
  8
0
  6
CONTINUOUS
 62
     7
100
AcDbLine
 10
-355.5
 20
315.4500045776367
 30
0.0
 11
-352.5
 21
315.4500045776367
 31
0.0
  0
LINE
  5
FB
330
1F
100
AcDbEntity
  8
0
  6
CONTINUOUS
 62
     7
100
AcDbLine
 10
-355.5
 20
361.9500045776367
 30
0.0
 11
-352.5
 21
361.9500045776367
 31
0.0
  0
LINE
  5
FC
330
1F
100
AcDbEntity
  8
0
  6
CONTINUOUS
 62
     7
100
AcDbLine
 10
-174.2938712877223
 20
241.328845415473
 30
0.0
 11
-180.2938713684893
 21
251.7211502142554
 31
0.0
  0
LINE
  5
FD
330
1F
100
AcDbEntity
  8
0
  6
DASHED
 62
     7
100
AcDbLine
 10
-212.5640521176631
 20
214.6147430899535
 30
0.0
 11
-214.0640523762735
 21
217.2128197026022
 31
0.0
  0
LINE
  5
FE
330
1F
100
AcDbEntity
  8
0
  6
CENTER
 62
     7
100
AcDbLine
 10
-202.5377717583744
 20
219.2487161122791
 30
0.0
 11
-213.5377719064473
 21
238.3012749100468
 31
0.0
  0
LINE
  5
FF
330
1F
100
AcDbEntity
  8
0
  6
CENTER
 62
     7
100
AcDbLine
 10
-180.8871400645358
 20
231.7487143731951
 30
0.0
 11
-191.8871402126087
 21
250.8012731709628
 31
0.0
  0
LINE
  5
100
330
1F
100
AcDbEntity
  8
0
  6
DASHED
 62
     7
100
AcDbLine
 10
-212.5640521176631
 20
214.6147430899535
 30
0.0
 11
-175.7579726219755
 21
235.8647433760035
 31
0.0
  0
LINE
  5
101
330
1F
100
AcDbEntity
  8
0
  6
DASHED
 62
     7
100
AcDbLine
 10
-222.5640522522749
 20
231.9352510879241
 30
0.0
 11
-185.7579727565873
 21
253.1852513739741
 31
0.0
  0
LINE
  5
102
330
1F
100
AcDbEntity
  8
0
  6
CONTINUOUS
 62
     7
100
AcDbLine
 10
-180.2938696917847
 20
251.7211523993396
 30
0.0
 11
-181.659896568339
 21
252.0871782008193
 31
0.0
  0
LINE
  5
103
330
1F
100
AcDbEntity
  8
0
  6
CONTINUOUS
 62
     7
100
AcDbLine
 10
-174.2938686361344
 20
241.3288456751972
 30
0.0
 11
-174.6598944376141
 21
239.962818798643
 31
0.0
  0
LINE
  5
104
330
1F
100
AcDbEntity
  8
0
  6
DASHED
 62
     7
100
AcDbLine
 10
-221.0640519936645
 20
229.3371744752754
 30
0.0
 11
-222.5640517754377
 21
231.935250262018
 31
0.0
  0
LINE
  5
105
330
1F
100
AcDbEntity
  8
0
  6
CONTINUOUS
 62
     7
100
AcDbLine
 10
-214.0640523762735
 20
217.2128197026022
 30
0.0
 11
-221.0640519936645
 21
229.3371744752754
 31
0.0
  0
LINE
  5
106
330
1F
100
AcDbEntity
  8
0
  6
DASHED
 62
     7
100
AcDbLine
 10
-174.6598944376141
 20
239.962818798643
 30
0.0
 11
-175.7579698674208
 21
235.8647455384094
 31
0.0
  0
LINE
  5
107
330
1F
100
AcDbEntity
  8
0
  6
DASHED
 62
     7
100
AcDbLine
 10
-181.659896568339
 20
252.0871782008193
 30
0.0
 11
-185.7579698285726
 21
253.185253630626
 31
0.0
  0
LINE
  5
108
330
1F
100
AcDbEntity
  8
0
  6
CONTINUOUS
 62
     7
100
AcDbLine
 10
-155.0
 20
374.9500045776367
 30
0.0
 11
-120.0
 21
374.9500045776367
 31
0.0
  0
LINE
  5
109
330
1F
100
AcDbEntity
  8
0
  6
CONTINUOUS
 62
     7
100
AcDbLine
 10
-143.5
 20
279.9500036239624
 30
0.0
 11
-131.5
 21
279.9500036239624
 31
0.0
  0
LINE
  5
10A
330
1F
100
AcDbEntity
  8
0
  6
CONTINUOUS
 62
     7
100
AcDbLine
 10
-131.5000019727789
 20
279.9500027072379
 30
0.0
 11
-120.0000017145934
 21
286.5895310711499
 31
0.0
  0
LINE
  5
10B
330
1F
100
AcDbEntity
  8
0
  6
CONTINUOUS
 62
     7
100
AcDbLine
 10
-154.9999989835447
 20
286.5895336766366
 30
0.0
 11
-143.4999987253591
 21
279.9500053127246
 31
0.0
  0
LINE
  5
10C
330
1F
100
AcDbEntity
  8
0
  6
CONTINUOUS
 62
     7
100
AcDbLine
 10
-120.0
 20
374.9500045776367
 30
0.0
 11
-120.0
 21
286.5895328521729
 31
0.0
  0
LINE
  5
10D
330
1F
100
AcDbEntity
  8
0
  6
CONTINUOUS
 62
     7
100
AcDbLine
 10
-155.0
 20
374.9500045776367
 30
0.0
 11
-155.0
 21
286.5895328521729
 31
0.0
  0
LINE
  5
10E
330
1F
100
AcDbEntity
  8
0
  6
CONTINUOUS
 62
     7
100
AcDbLine
 10
-120.0
 20
300.6132488250732
 30
0.0
 11
-110.798583984375
 21
300.6132488250732
 31
0.0
  0
LINE
  5
10F
330
1F
100
AcDbEntity
  8
0
  6
CONTINUOUS
 62
     7
100
AcDbLine
 10
-155.0
 20
303.5
 30
0.0
 11
-160.412878036499
 21
303.5
 31
0.0
  0
LINE
  5
110
330
1F
100
AcDbEntity
  8
0
  6
CONTINUOUS
 62
     7
100
AcDbLine
 10
-355.5
 20
374.9500045776367
 30
0.0
 11
-318.1990051269531
 21
374.9500045776367
 31
0.0
  0
LINE
  5
111
330
1F
100
AcDbEntity
  8
0
  6
CONTINUOUS
 62
     7
100
AcDbLine
 10
-354.1990051269531
 20
279.9500036239624
 30
0.0
 11
-318.1990051269531
 21
279.9500036239624
 31
0.0
  0
LINE
  5
112
330
1F
100
AcDbEntity
  8
0
  6
CONTINUOUS
 62
     7
100
AcDbLine
 10
-318.1990051269531
 20
374.9500045776367
 30
0.0
 11
-318.1990051269531
 21
279.9500036239624
 31
0.0
  0
LINE
  5
113
330
1F
100
AcDbEntity
  8
0
  6
CONTINUOUS
 62
     7
100
AcDbLine
 10
-355.5000100283109
 20
374.7767875737799
 30
0.0
 11
-356.1990041621157
 21
374.3732231152225
 31
0.0
  0
LINE
  5
114
330
1F
100
AcDbEntity
  8
0
  6
CONTINUOUS
 62
     7
100
AcDbLine
 10
-355.5
 20
374.7767868041992
 30
0.0
 11
-355.5
 21
374.9500045776367
 31
0.0
  0
LINE
  5
115
330
1F
100
AcDbEntity
  8
0
  6
CONTINUOUS
 62
     7
100
AcDbLine
 10
-355.5000128066026
 20
372.123229229562
 30
0.0
 11
-356.1990069404075
 21
372.5267936881194
 31
0.0
  0
LINE
  5
116
330
1F
100
AcDbEntity
  8
0
  6
CONTINUOUS
 62
     7
100
AcDbLine
 10
-356.1990051269531
 20
372.5267868041992
 30
0.0
 11
-356.1990051269531
 21
372.8732147216797
 31
0.0
  0
LINE
  5
117
330
1F
100
AcDbEntity
  8
0
  6
PHANTOM
 62
     7
100
AcDbLine
 10
-356.1990051269531
 20
374.3732299804688
 30
0.0
 11
-356.1990051269531
 21
375.8218688964844
 31
0.0
  0
LINE
  5
118
330
1F
100
AcDbEntity
  8
0
  6
CONTINUOUS
 62
     7
100
AcDbLine
 10
-354.1990051269531
 20
299.9500045776367
 30
0.0
 11
-354.1990051269531
 21
279.9500036239624
 31
0.0
  0
LINE
  5
119
330
1F
100
AcDbEntity
  8
0
  6
CONTINUOUS
 62
     7
100
AcDbLine
 10
-355.5
 20
299.9500045776367
 30
0.0
 11
-354.1990051269531
 21
299.9500045776367
 31
0.0
  0
LINE
  5
11A
330
1F
100
AcDbEntity
  8
0
  6
CONTINUOUS
 62
     7
100
AcDbLine
 10
-356.1990114906558
 20
300.8732062804447
 30
0.0
 11
-355.5000041423521
 21
301.2767783683968
 31
0.0
  0
LINE
  5
11B
330
1F
100
AcDbEntity
  8
0
  6
CONTINUOUS
 62
     7
100
AcDbLine
 10
-356.1990081325004
 20
300.5267925925584
 30
0.0
 11
-355.5000139986955
 21
300.123228134001
 31
0.0
  0
LINE
  5
11C
330
1F
100
AcDbEntity
  8
0
  6
CONTINUOUS
 62
     7
100
AcDbLine
 10
-355.5
 20
300.123218536377
 30
0.0
 11
-355.5
 21
299.9500045776367
 31
0.0
  0
LINE
  5
11D
330
1F
100
AcDbEntity
  8
0
  6
CONTINUOUS
 62
     7
100
AcDbLine
 10
-356.1990051269531
 20
300.873218536377
 30
0.0
 11
-356.1990051269531
 21
300.5267868041992
 31
0.0
  0
LINE
  5
11E
330
1F
100
AcDbEntity
  8
0
  6
CONTINUOUS
 62
     7
100
AcDbLine
 10
-351.1990051269531
 20
374.9500045776367
 30
0.0
 11
-351.1990051269531
 21
356.9500045776367
 31
0.0
  0
LINE
  5
11F
330
1F
100
AcDbEntity
  8
0
  6
CONTINUOUS
 62
     7
100
AcDbLine
 10
-341.1990051269531
 20
335.9500045776367
 30
0.0
 11
-341.1990051269531
 21
315.9500045776367
 31
0.0
  0
LINE
  5
120
330
1F
100
AcDbEntity
  8
0
  6
CONTINUOUS
 62
     7
100
AcDbLine
 10
-341.1990051269531
 20
335.9500045776367
 30
0.0
 11
-318.1990051269531
 21
335.9500045776367
 31
0.0
  0
LINE
  5
121
330
1F
100
AcDbEntity
  8
0
  6
CONTINUOUS
 62
     7
100
AcDbLine
 10
-341.1990051269531
 20
315.9500045776367
 30
0.0
 11
-318.1990051269531
 21
315.9500045776367
 31
0.0
  0
LINE
  5
122
330
1F
100
AcDbEntity
  8
0
  6
CONTINUOUS
 62
     7
100
AcDbLine
 10
-351.1990051269531
 20
332.700008392334
 30
0.0
 11
-341.1990051269531
 21
332.700008392334
 31
0.0
  0
LINE
  5
123
330
1F
100
AcDbEntity
  8
0
  6
CONTINUOUS
 62
     7
100
AcDbLine
 10
-351.1990051269531
 20
319.2000045776367
 30
0.0
 11
-341.1990051269531
 21
319.2000045776367
 31
0.0
  0
LINE
  5
124
330
1F
100
AcDbEntity
  8
0
  6
CONTINUOUS
 62
     7
100
AcDbLine
 10
-329.1990051269531
 20
334.9500045776367
 30
0.0
 11
-329.1990051269531
 21
316.9500045776367
 31
0.0
  0
LINE
  5
125
330
1F
100
AcDbEntity
  8
0
  6
CONTINUOUS
 62
     7
100
AcDbLine
 10
-341.1990051269531
 20
334.9500045776367
 30
0.0
 11
-329.1990051269531
 21
334.9500045776367
 31
0.0
  0
LINE
  5
126
330
1F
100
AcDbEntity
  8
0
  6
CONTINUOUS
 62
     7
100
AcDbLine
 10
-341.1990051269531
 20
316.9500045776367
 30
0.0
 11
-329.1990051269531
 21
316.9500045776367
 31
0.0
  0
LINE
  5
127
330
1F
100
AcDbEntity
  8
0
  6
CONTINUOUS
 62
     7
100
AcDbLine
 10
-344.6990051269531
 20
331.950008392334
 30
0.0
 11
-344.6990051269531
 21
319.9500045776367
 31
0.0
  0
LINE
  5
128
330
1F
100
AcDbEntity
  8
0
  6
CONTINUOUS
 62
     7
100
AcDbLine
 10
-352.5
 20
331.950008392334
 30
0.0
 11
-341.1990051269531
 21
331.950008392334
 31
0.0
  0
LINE
  5
129
330
1F
100
AcDbEntity
  8
0
  6
CONTINUOUS
 62
     7
100
AcDbLine
 10
-352.5
 20
331.075008392334
 30
0.0
 11
-344.6990051269531
 21
331.075008392334
 31
0.0
  0
LINE
  5
12A
330
1F
100
AcDbEntity
  8
0
  6
CONTINUOUS
 62
     7
100
AcDbLine
 10
-352.5
 20
320.8250045776367
 30
0.0
 11
-344.6990051269531
 21
320.8250045776367
 31
0.0
  0
LINE
  5
12B
330
1F
100
AcDbEntity
  8
0
  6
CONTINUOUS
 62
     7
100
AcDbLine
 10
-352.5
 20
319.9500045776367
 30
0.0
 11
-341.1990051269531
 21
319.9500045776367
 31
0.0
  0
LINE
  5
12C
330
1F
100
AcDbEntity
  8
0
  6
CONTINUOUS
 62
     7
100
AcDbLine
 10
-351.1990051269531
 20
319.9500045776367
 30
0.0
 11
-351.1990051269531
 21
279.9500036239624
 31
0.0
  0
LINE
  5
12D
330
1F
100
AcDbEntity
  8
0
  6
CENTER
 62
     7
100
AcDbLine
 10
-362.5
 20
350.9500045776367
 30
0.0
 11
-313.1990051269531
 21
350.9500045776367
 31
0.0
  0
LINE
  5
12E
330
1F
100
AcDbEntity
  8
0
  6
CONTINUOUS
 62
     7
100
AcDbLine
 10
-341.1990051269531
 20
340.9500045776367
 30
0.0
 11
-318.1990051269531
 21
340.9500045776367
 31
0.0
  0
LINE
  5
12F
330
1F
100
AcDbEntity
  8
0
  6
CONTINUOUS
 62
     7
100
AcDbLine
 10
-351.1990051269531
 20
344.2000045776367
 30
0.0
 11
-341.1990051269531
 21
344.2000045776367
 31
0.0
  0
LINE
  5
130
330
1F
100
AcDbEntity
  8
0
  6
CONTINUOUS
 62
     7
100
AcDbLine
 10
-341.1990051269531
 20
360.9500045776367
 30
0.0
 11
-318.1990051269531
 21
360.9500045776367
 31
0.0
  0
LINE
  5
131
330
1F
100
AcDbEntity
  8
0
  6
CONTINUOUS
 62
     7
100
AcDbLine
 10
-341.1990051269531
 20
360.9500045776367
 30
0.0
 11
-341.1990051269531
 21
340.9500045776367
 31
0.0
  0
LINE
  5
132
330
1F
100
AcDbEntity
  8
0
  6
CONTINUOUS
 62
     7
100
AcDbLine
 10
-351.1990051269531
 20
357.7000045776367
 30
0.0
 11
-341.1990051269531
 21
357.7000045776367
 31
0.0
  0
LINE
  5
133
330
1F
100
AcDbEntity
  8
0
  6
CONTINUOUS
 62
     7
100
AcDbLine
 10
-352.5
 20
356.9500045776367
 30
0.0
 11
-341.1990051269531
 21
356.9500045776367
 31
0.0
  0
LINE
  5
134
330
1F
100
AcDbEntity
  8
0
  6
CONTINUOUS
 62
     7
100
AcDbLine
 10
-341.1990051269531
 20
341.9500045776367
 30
0.0
 11
-329.1990051269531
 21
341.9500045776367
 31
0.0
  0
LINE
  5
135
330
1F
100
AcDbEntity
  8
0
  6
CONTINUOUS
 62
     7
100
AcDbLine
 10
-341.1990051269531
 20
359.9500045776367
 30
0.0
 11
-329.1990051269531
 21
359.9500045776367
 31
0.0
  0
LINE
  5
136
330
1F
100
AcDbEntity
  8
0
  6
CONTINUOUS
 62
     7
100
AcDbLine
 10
-329.1990051269531
 20
359.9500045776367
 30
0.0
 11
-329.1990051269531
 21
341.9500045776367
 31
0.0
  0
LINE
  5
137
330
1F
100
AcDbEntity
  8
0
  6
CONTINUOUS
 62
     7
100
AcDbLine
 10
-352.5
 20
345.8250045776367
 30
0.0
 11
-344.6990051269531
 21
345.8250045776367
 31
0.0
  0
LINE
  5
138
330
1F
100
AcDbEntity
  8
0
  6
CONTINUOUS
 62
     7
100
AcDbLine
 10
-344.6990051269531
 20
356.9500045776367
 30
0.0
 11
-344.6990051269531
 21
344.9500045776367
 31
0.0
  0
LINE
  5
139
330
1F
100
AcDbEntity
  8
0
  6
CONTINUOUS
 62
     7
100
AcDbLine
 10
-352.5
 20
356.0750045776367
 30
0.0
 11
-344.6990051269531
 21
356.0750045776367
 31
0.0
  0
LINE
  5
13A
330
1F
100
AcDbEntity
  8
0
  6
CONTINUOUS
 62
     7
100
AcDbLine
 10
-352.5
 20
344.9500045776367
 30
0.0
 11
-341.1990051269531
 21
344.9500045776367
 31
0.0
  0
LINE
  5
13B
330
1F
100
AcDbEntity
  8
0
  6
CONTINUOUS
 62
     7
100
AcDbLine
 10
-351.1990051269531
 20
344.9500045776367
 30
0.0
 11
-351.1990051269531
 21
331.950008392334
 31
0.0
  0
LINE
  5
13C
330
1F
100
AcDbEntity
  8
0
  6
CONTINUOUS
 62
     7
100
AcDbLine
 10
-162.0
 20
360.4499969482422
 30
0.0
 11
-162.0
 21
358.5500030517578
 31
0.0
  0
LINE
  5
13D
330
1F
100
AcDbEntity
  8
0
  6
CONTINUOUS
 62
     7
100
AcDbLine
 10
-162.0
 20
358.5500030517578
 30
0.0
 11
-157.0
 21
358.5500030517578
 31
0.0
  0
LINE
  5
13E
330
1F
100
AcDbEntity
  8
0
  6
CONTINUOUS
 62
     7
100
AcDbLine
 10
-162.0
 20
360.4499969482422
 30
0.0
 11
-157.0
 21
360.4499969482422
 31
0.0
  0
LINE
  5
13F
330
1F
100
AcDbEntity
  8
0
  6
CONTINUOUS
 62
     7
100
AcDbLine
 10
-162.0
 20
357.6500015258789
 30
0.0
 11
-157.0
 21
357.6500015258789
 31
0.0
  0
LINE
  5
140
330
1F
100
AcDbEntity
  8
0
  6
CONTINUOUS
 62
     7
100
AcDbLine
 10
-162.0
 20
361.3499984741211
 30
0.0
 11
-157.0
 21
361.3499984741211
 31
0.0
  0
LINE
  5
141
330
1F
100
AcDbEntity
  8
0
  6
CENTER
 62
     7
100
AcDbLine
 10
-156.6900157928467
 20
361.3499984741211
 30
0.0
 11
-153.8491592407227
 21
361.3499984741211
 31
0.0
  0
LINE
  5
142
330
1F
100
AcDbEntity
  8
0
  6
DASHED
 62
     7
100
AcDbLine
 10
-154.9999976194389
 20
361.8500033505154
 30
0.0
 11
-154.7113242146741
 21
361.350006355643
 31
0.0
  0
LINE
  5
143
330
1F
100
AcDbEntity
  8
0
  6
DASHED
 62
     7
100
AcDbLine
 10
-154.9999957548976
 20
360.8500057984812
 30
0.0
 11
-154.7113223501328
 21
361.3500027933537
 31
0.0
  0
LINE
  5
144
330
1F
100
AcDbEntity
  8
0
  6
CENTER
 62
     7
100
AcDbLine
 10
-357.95849609375
 20
361.3499984741211
 30
0.0
 11
-355.948974609375
 21
361.3499984741211
 31
0.0
  0
LINE
  5
145
330
1F
100
AcDbEntity
  8
0
  6
CENTER
 62
     7
100
AcDbLine
 10
-357.0
 20
362.2609252929688
 30
0.0
 11
-357.0
 21
360.3427505493164
 31
0.0
  0
LINE
  5
146
330
1F
100
AcDbEntity
  8
0
  6
CENTER
 62
     7
100
AcDbLine
 10
-42.23720615923433
 20
214.4999990031657
 30
0.0
 11
-232.7627941369115
 21
324.5000004838948
 31
0.0
  0
LINE
  5
147
330
1F
100
AcDbEntity
  8
0
  6
CENTER
 62
     7
100
AcDbLine
 10
-247.5
 20
269.5
 30
0.0
 11
-27.5
 21
269.5
 31
0.0
  0
LINE
  5
148
330
1F
100
AcDbEntity
  8
0
  6
CENTER
 62
     7
100
AcDbLine
 10
-137.5
 20
379.5
 30
0.0
 11
-137.5
 21
159.5
 31
0.0
  0
LINE
  5
149
330
1F
100
AcDbEntity
  8
0
  6
CONTINUOUS
 62
     7
100
AcDbLine
 10
-443.5
 20
354.5
 30
0.0
 11
-443.5
 21
208.7999992370605
 31
0.0
  0
LINE
  5
14A
330
1F
100
AcDbEntity
  8
0
  6
CENTER
 62
     7
100
AcDbLine
 10
-453.5
 20
269.5
 30
0.0
 11
-352.5
 21
269.5
 31
0.0
  0
LINE
  5
14B
330
1F
100
AcDbEntity
  8
0
  6
CENTER
 62
     7
100
AcDbLine
 10
-124.1190551591008
 20
219.56163404703
 30
0.0
 11
-116.3544827579898
 21
190.583855589913
 31
0.0
  0
LINE
  5
14C
330
1F
100
AcDbEntity
  8
0
  6
CONTINUOUS
 62
     7
100
AcDbLine
 10
-119.5115765295908
 20
232.6568637549623
 30
0.0
 11
-116.8051365212352
 21
237.3445552729357
 31
0.0
  0
LINE
  5
14D
330
1F
100
AcDbEntity
  8
0
  6
CONTINUOUS
 62
     7
100
AcDbLine
 10
-97.20442640478234
 20
277.0674789071674
 30
0.0
 11
-101.8051344745258
 21
269.098818922603
 31
0.0
  0
LINE
  5
14E
330
1F
100
AcDbEntity
  8
0
  6
CONTINUOUS
 62
     7
100
AcDbLine
 10
-119.3051347100963
 20
238.7879299261543
 30
0.0
 11
-123.9058427798397
 21
230.8192699415899
 31
0.0
  0
LINE
  5
14F
330
1F
100
AcDbEntity
  8
0
  6
CONTINUOUS
 62
     7
100
AcDbLine
 10
-99.30513628566462
 20
267.6554442693844
 30
0.0
 11
-96.5986981846576
 21
272.343132483733
 31
0.0
  0
LINE
  5
150
330
1F
100
AcDbEntity
  8
0
  6
PHANTOM
 62
     7
100
AcDbLine
 10
-393.5
 20
375.8218688964844
 30
0.0
 11
-393.5
 21
374.5
 31
0.0
  0
LINE
  5
151
330
1F
100
AcDbEntity
  8
0
  6
CONTINUOUS
 62
     7
100
AcDbLine
 10
-448.5
 20
196.8000030517578
 30
0.0
 11
-448.5
 21
166.5
 31
0.0
  0
LINE
  5
152
330
1F
100
AcDbEntity
  8
0
  6
CONTINUOUS
 62
     7
100
AcDbLine
 10
-356.1990051269531
 20
374.0267868041992
 30
0.0
 11
-356.1990051269531
 21
374.3732299804688
 31
0.0
  0
LINE
  5
153
330
1F
100
AcDbEntity
  8
0
  6
CONTINUOUS
 62
     7
100
AcDbLine
 10
-355.5000128811084
 20
373.6232290803223
 30
0.0
 11
-356.1990070149132
 21
374.0267935388798
 31
0.0
  0
LINE
  5
154
330
1F
100
AcDbEntity
  8
0
  6
CONTINUOUS
 62
     7
100
AcDbLine
 10
-355.5
 20
373.2767868041992
 30
0.0
 11
-355.5
 21
373.6232147216797
 31
0.0
  0
LINE
  5
155
330
1F
100
AcDbEntity
  8
0
  6
CONTINUOUS
 62
     7
100
AcDbLine
 10
-356.1990155437717
 20
372.8732123314426
 30
0.0
 11
-355.500008195468
 21
373.2767844193947
 31
0.0
  0
LINE
  5
156
330
1F
100
AcDbEntity
  8
0
  6
PHANTOM
 62
     7
100
AcDbLine
 10
-356.1990051269531
 20
308.2000045776367
 30
0.0
 11
-356.1990051269531
 21
302.3732147216797
 31
0.0
  0
LINE
  5
157
330
1F
100
AcDbEntity
  8
0
  6
PHANTOM
 62
     7
100
AcDbLine
 10
-355.5
 20
308.7767906188965
 30
0.0
 11
-355.5
 21
302.7767868041992
 31
0.0
  0
LINE
  5
158
330
1F
100
AcDbEntity
  8
0
  6
CENTER
 62
     7
100
AcDbLine
 10
-395.0
 20
225.0
 30
0.0
 11
-431.0
 21
225.0
 31
0.0
  0
LINE
  5
159
330
1F
100
AcDbEntity
  8
0
  6
CONTINUOUS
 62
     7
100
AcDbLine
 10
-419.0
 20
232.0
 30
0.0
 11
-419.0
 21
218.0
 31
0.0
  0
LINE
  5
15A
330
1F
100
AcDbEntity
  8
0
  6
CONTINUOUS
 62
     7
100
AcDbLine
 10
-399.0
 20
228.3499984741211
 30
0.0
 11
-416.5
 21
228.3499984741211
 31
0.0
  0
LINE
  5
15B
330
1F
100
AcDbEntity
  8
0
  6
CONTINUOUS
 62
     7
100
AcDbLine
 10
-399.0
 20
221.6500015258789
 30
0.0
 11
-416.5
 21
221.6500015258789
 31
0.0
  0
LINE
  5
15C
330
1F
100
AcDbEntity
  8
0
  6
CONTINUOUS
 62
     7
100
AcDbLine
 10
-399.0
 20
229.0
 30
0.0
 11
-419.0
 21
229.0
 31
0.0
  0
LINE
  5
15D
330
1F
100
AcDbEntity
  8
0
  6
CONTINUOUS
 62
     7
100
AcDbLine
 10
-399.0
 20
221.0
 30
0.0
 11
-419.0
 21
221.0
 31
0.0
  0
LINE
  5
15E
330
1F
100
AcDbEntity
  8
0
  6
CONTINUOUS
 62
     7
100
AcDbLine
 10
-416.5
 20
229.0
 30
0.0
 11
-416.5
 21
221.0
 31
0.0
  0
LINE
  5
15F
330
1F
100
AcDbEntity
  8
0
  6
CONTINUOUS
 62
     7
100
AcDbLine
 10
-399.0
 20
229.0
 30
0.0
 11
-399.0
 21
221.0
 31
0.0
  0
LINE
  5
160
330
1F
100
AcDbEntity
  8
0
  6
CONTINUOUS
 62
     7
100
AcDbLine
 10
-427.0
 20
231.5
 30
0.0
 11
-427.0
 21
218.5
 31
0.0
  0
LINE
  5
161
330
1F
100
AcDbEntity
  8
0
  6
CONTINUOUS
 62
     7
100
AcDbLine
 10
-419.0
 20
231.5
 30
0.0
 11
-427.0
 21
231.5
 31
0.0
  0
LINE
  5
162
330
1F
100
AcDbEntity
  8
0
  6
CONTINUOUS
 62
     7
100
AcDbLine
 10
-419.0
 20
218.5
 30
0.0
 11
-427.0
 21
218.5
 31
0.0
  0
LINE
  5
163
330
1F
100
AcDbEntity
  8
0
  6
CONTINUOUS
 62
     7
100
AcDbLine
 10
-427.5
 20
217.0
 30
0.0
 11
-412.5
 21
217.0
 31
0.0
  0
LINE
  5
164
330
1F
100
AcDbEntity
  8
0
  6
CONTINUOUS
 62
     7
100
AcDbLine
 10
-427.5
 20
322.0
 30
0.0
 11
-420.5
 21
322.0
 31
0.0
  0
LINE
  5
165
330
1F
100
AcDbEntity
  8
0
  6
CONTINUOUS
 62
     7
100
AcDbLine
 10
-411.0
 20
302.0
 30
0.0
 11
-411.0
 21
300.0
 31
0.0
  0
LINE
  5
166
330
1F
100
AcDbEntity
  8
0
  6
CONTINUOUS
 62
     7
100
AcDbLine
 10
-361.5
 20
239.75
 30
0.0
 11
-361.5
 21
229.25
 31
0.0
  0
LINE
  5
167
330
1F
100
AcDbEntity
  8
0
  6
CENTER
 62
     7
100
AcDbLine
 10
-374.5
 20
234.5
 30
0.0
 11
-355.1000061035156
 21
234.5
 31
0.0
  0
LINE
  5
168
330
1F
100
AcDbEntity
  8
0
  6
CONTINUOUS
 62
     7
100
AcDbLine
 10
-358.1000061035156
 20
236.5
 30
0.0
 11
-358.1000061035156
 21
232.5
 31
0.0
  0
LINE
  5
169
330
1F
100
AcDbEntity
  8
0
  6
CONTINUOUS
 62
     7
100
AcDbLine
 10
-361.5
 20
239.25
 30
0.0
 11
-361.0
 21
239.25
 31
0.0
  0
LINE
  5
16A
330
1F
100
AcDbEntity
  8
0
  6
CONTINUOUS
 62
     7
100
AcDbLine
 10
-371.5
 20
237.0
 30
0.0
 11
-361.5
 21
237.0
 31
0.0
  0
LINE
  5
16B
330
1F
100
AcDbEntity
  8
0
  6
CONTINUOUS
 62
     7
100
AcDbLine
 10
-371.5
 20
237.0
 30
0.0
 11
-371.5
 21
232.0
 31
0.0
  0
LINE
  5
16C
330
1F
100
AcDbEntity
  8
0
  6
CONTINUOUS
 62
     7
100
AcDbLine
 10
-363.1000061035156
 20
237.0
 30
0.0
 11
-363.1000061035156
 21
232.0
 31
0.0
  0
LINE
  5
16D
330
1F
100
AcDbEntity
  8
0
  6
CONTINUOUS
 62
     7
100
AcDbLine
 10
-361.5
 20
229.75
 30
0.0
 11
-361.0
 21
229.75
 31
0.0
  0
LINE
  5
16E
330
1F
100
AcDbEntity
  8
0
  6
CONTINUOUS
 62
     7
100
AcDbLine
 10
-371.5
 20
232.0
 30
0.0
 11
-361.5
 21
232.0
 31
0.0
  0
LINE
  5
16F
330
1F
100
AcDbEntity
  8
0
  6
CONTINUOUS
 62
     7
100
AcDbLine
 10
-361.5
 20
239.75
 30
0.0
 11
-357.5
 21
239.75
 31
0.0
  0
LINE
  5
170
330
1F
100
AcDbEntity
  8
0
  6
CONTINUOUS
 62
     7
100
AcDbLine
 10
-361.5
 20
229.25
 30
0.0
 11
-357.5
 21
229.25
 31
0.0
  0
LINE
  5
171
330
1F
100
AcDbEntity
  8
0
  6
CONTINUOUS
 62
     7
100
AcDbLine
 10
-356.1990133234987
 20
302.3732094348297
 30
0.0
 11
-355.500005975195
 21
302.7767815227818
 31
0.0
  0
LINE
  5
172
330
1F
100
AcDbEntity
  8
0
  6
CONTINUOUS
 62
     7
100
AcDbLine
 10
-356.1990101143548
 20
302.0267891396941
 30
0.0
 11
-355.50001598055
 21
301.6232246811367
 31
0.0
  0
LINE
  5
173
330
1F
100
AcDbEntity
  8
0
  6
CONTINUOUS
 62
     7
100
AcDbLine
 10
-355.5
 20
301.623218536377
 30
0.0
 11
-355.5
 21
301.2767868041992
 31
0.0
  0
LINE
  5
174
330
1F
100
AcDbEntity
  8
0
  6
CONTINUOUS
 62
     7
100
AcDbLine
 10
-356.1990051269531
 20
302.373218536377
 30
0.0
 11
-356.1990051269531
 21
302.0267868041992
 31
0.0
  0
LINE
  5
175
330
1F
100
AcDbEntity
  8
0
  6
CONTINUOUS
 62
     7
100
AcDbLine
 10
-156.0
 20
374.1999969482422
 30
0.0
 11
-155.0
 21
374.1999969482422
 31
0.0
  0
LINE
  5
176
330
1F
100
AcDbEntity
  8
0
  6
CONTINUOUS
 62
     7
100
AcDbLine
 10
-156.0
 20
308.2000045776367
 30
0.0
 11
-155.0
 21
308.2000045776367
 31
0.0
  0
LINE
  5
177
330
1F
100
AcDbEntity
  8
0
  6
CONTINUOUS
 62
     7
100
AcDbLine
 10
-166.0000006107242
 20
370.56029553353
 30
0.0
 11
-156.0000004012542
 21
374.1999980827646
 31
0.0
  0
LINE
  5
178
330
1F
100
AcDbEntity
  8
0
  6
CONTINUOUS
 62
     7
100
AcDbLine
 10
-166.0
 20
370.5602951049805
 30
0.0
 11
-166.0
 21
370.5581512451172
 31
0.0
  0
LINE
  5
179
330
1F
100
AcDbEntity
  8
0
  6
CONTINUOUS
 62
     7
100
AcDbLine
 10
-109.0
 20
370.5602951049805
 30
0.0
 11
-109.0
 21
370.5581512451172
 31
0.0
  0
LINE
  5
17A
330
1F
100
AcDbEntity
  8
0
  6
CONTINUOUS
 62
     7
100
AcDbLine
 10
-108.9999993892758
 20
370.5602955335301
 30
0.0
 11
-118.9999995987458
 21
374.1999980827646
 31
0.0
  0
LINE
  5
17B
330
1F
100
AcDbEntity
  8
0
  6
CONTINUOUS
 62
     7
100
AcDbLine
 10
-119.0
 20
374.1999969482422
 30
0.0
 11
-120.0
 21
374.1999969482422
 31
0.0
  0
LINE
  5
17C
330
1F
100
AcDbEntity
  8
0
  6
CONTINUOUS
 62
     7
100
AcDbLine
 10
-119.0
 20
308.2000045776367
 30
0.0
 11
-120.0
 21
308.2000045776367
 31
0.0
  0
LINE
  5
17D
330
1F
100
AcDbEntity
  8
0
  6
CENTER
 62
     7
100
AcDbLine
 10
-122.5
 20
350.9500045776367
 30
0.0
 11
-152.5
 21
350.9500045776367
 31
0.0
  0
LINE
  5
17E
330
1F
100
AcDbEntity
  8
0
  6
CENTER
 62
     7
100
AcDbLine
 10
-122.5
 20
325.950008392334
 30
0.0
 11
-152.5
 21
325.950008392334
 31
0.0
  0
LINE
  5
17F
330
1F
100
AcDbEntity
  8
0
  6
CONTINUOUS
 62
     7
100
AcDbLine
 10
-37.57714314900757
 20
233.1714707193093
 30
0.0
 11
-98.80513627893403
 21
268.5214696692829
 31
0.0
  0
LINE
  5
180
330
1F
100
AcDbEntity
  8
0
  6
CONTINUOUS
 62
     7
100
AcDbLine
 10
-56.07714339803925
 20
201.1285309230636
 30
0.0
 11
-117.3051365279657
 21
236.4785298730372
 31
0.0
  0
LINE
  5
181
330
1F
100
AcDbEntity
  8
0
  6
CONTINUOUS
 62
     7
100
AcDbLine
 10
-35.72921732602384
 20
243.6515756644228
 30
0.0
 11
-35.73107396311926
 21
243.6526475943689
 31
0.0
  0
LINE
  5
182
330
1F
100
AcDbEntity
  8
0
  6
CONTINUOUS
 62
     7
100
AcDbLine
 10
-35.72921687383676
 20
243.6515750958948
 30
0.0
 11
-37.57714228111026
 21
233.1714696324246
 31
0.0
  0
LINE
  5
183
330
1F
100
AcDbEntity
  8
0
  6
CONTINUOUS
 62
     7
100
AcDbLine
 10
-37.42761749856481
 20
231.9304414996656
 30
0.0
 11
-54.92761773413535
 21
201.6195525032169
 31
0.0
  0
LINE
  5
184
330
1F
100
AcDbEntity
  8
0
  6
CONTINUOUS
 62
     7
100
AcDbLine
 10
-125.4500313922331
 20
269.4711505170757
 30
0.0
 11
-131.4500314730002
 21
259.0788457182932
 31
0.0
  0
LINE
  5
185
330
1F
100
AcDbEntity
  8
0
  6
CONTINUOUS
 62
     7
100
AcDbLine
 10
-131.4500312805176
 20
259.0788488388062
 30
0.0
 11
-131.4500312805176
 21
245.7997913360596
 31
0.0
  0
LINE
  5
186
330
1F
100
AcDbEntity
  8
0
  6
CONTINUOUS
 62
     7
100
AcDbLine
 10
-113.9500303081846
 20
276.1106772136851
 30
0.0
 11
-125.4500305663701
 21
269.4711488497731
 31
0.0
  0
LINE
  5
187
330
1F
100
AcDbEntity
  8
0
  6
CONTINUOUS
 62
     7
100
AcDbLine
 10
-54.92761773413535
 20
201.6195525032169
 30
0.0
 11
-131.4500305954032
 21
245.7997889606667
 31
0.0
  0
LINE
  5
188
330
1F
100
AcDbEntity
  8
0
  6
CONTINUOUS
 62
     7
100
AcDbLine
 10
-37.42761749856481
 20
231.9304414996656
 30
0.0
 11
-113.9500303598326
 21
276.1106779571153
 31
0.0
  0
LINE
  5
189
330
1F
100
AcDbEntity
  8
0
  6
CONTINUOUS
 62
     7
100
AcDbLine
 10
-64.22921446349982
 20
194.2881302253434
 30
0.0
 11
-56.0771397249983
 21
201.1285334513375
 31
0.0
  0
LINE
  5
18A
330
1F
100
AcDbEntity
  8
0
  6
CONTINUOUS
 62
     7
100
AcDbLine
 10
-64.22921770966731
 20
194.2881278702065
 30
0.0
 11
-64.23107434676272
 21
194.2891998001526
 31
0.0
  0
LINE
  5
18B
330
1F
100
AcDbEntity
  8
0
  6
CONTINUOUS
 62
     7
100
AcDbLine
 10
-56.07714339803928
 20
201.1285309230636
 30
0.0
 11
-55.5771433913087
 21
201.9945563229622
 31
0.0
  0
LINE
  5
18C
330
1F
100
AcDbEntity
  8
0
  6
CONTINUOUS
 62
     7
100
AcDbLine
 10
-113.234813184093
 20
234.1285275525851
 30
0.0
 11
-112.7348131773624
 21
234.9945529524836
 31
0.0
  0
LINE
  5
18D
330
1F
100
AcDbEntity
  8
0
  6
CONTINUOUS
 62
     7
100
AcDbLine
 10
-37.57714314900757
 20
233.1714707193093
 30
0.0
 11
-38.07714315573816
 21
232.3054453194108
 31
0.0
  0
LINE
  5
18E
330
1F
100
AcDbEntity
  8
0
  6
CONTINUOUS
 62
     7
100
AcDbLine
 10
-94.73481293506127
 20
266.1714673488307
 30
0.0
 11
-95.23481294179186
 21
265.3054419489322
 31
0.0
  0
LINE
  5
18F
330
1F
100
AcDbEntity
  8
0
  6
CENTER
 62
     7
100
AcDbLine
 10
-74.46222731487369
 20
215.7846161644973
 30
0.0
 11
-59.46222711295607
 21
241.7653781614533
 31
0.0
  0
LINE
  5
190
330
1F
100
AcDbEntity
  8
0
  6
CENTER
 62
     7
100
AcDbLine
 10
-96.11285900871228
 20
228.2846144254133
 30
0.0
 11
-81.11285880679466
 21
254.2653764223693
 31
0.0
  0
LINE
  5
191
330
1F
100
AcDbEntity
  8
0
  6
CONTINUOUS
 62
     7
100
AcDbLine
 10
-210.7707822903327
 20
194.2881278702065
 30
0.0
 11
-210.7689256532373
 21
194.2891998001526
 31
0.0
  0
LINE
  5
192
330
1F
100
AcDbEntity
  8
0
  6
CONTINUOUS
 62
     7
100
AcDbLine
 10
-210.7707855365003
 20
194.2881302253433
 30
0.0
 11
-218.9228602750018
 21
201.1285334513375
 31
0.0
  0
LINE
  5
193
330
1F
100
AcDbEntity
  8
0
  6
CONTINUOUS
 62
     7
100
AcDbLine
 10
-218.9228566019607
 20
201.1285309230636
 30
0.0
 11
-237.4228568509924
 21
233.1714707193093
 31
0.0
  0
LINE
  5
194
330
1F
100
AcDbEntity
  8
0
  6
CONTINUOUS
 62
     7
100
AcDbLine
 10
-161.765186815907
 20
234.1285275525851
 30
0.0
 11
-167.5151868933088
 21
244.0878196514182
 31
0.0
  0
LINE
  5
195
330
1F
100
AcDbEntity
  8
0
  6
CONTINUOUS
 62
     7
100
AcDbLine
 10
-180.2651870649387
 20
266.1714673488308
 30
0.0
 11
-174.5151872259556
 21
256.2121756629508
 31
0.0
  0
LINE
  5
196
330
1F
100
AcDbEntity
  8
0
  6
CONTINUOUS
 62
     7
100
AcDbLine
 10
-239.2707828296453
 20
243.651574072024
 30
0.0
 11
-237.4228571857766
 21
233.1714681660787
 31
0.0
  0
LINE
  5
197
330
1F
100
AcDbEntity
  8
0
  6
CONTINUOUS
 62
     7
100
AcDbLine
 10
-239.2707826739761
 20
243.6515756644228
 30
0.0
 11
-239.2689260368807
 21
243.6526475943689
 31
0.0
  0
LINE
  5
198
330
1F
100
AcDbEntity
  8
0
  6
PHANTOM
 62
     7
100
AcDbLine
 10
-393.5
 20
375.8218688964844
 30
0.0
 11
-356.1990051269531
 21
375.8218688964844
 31
0.0
  0
LINE
  5
199
330
1F
100
AcDbEntity
  8
0
  6
CONTINUOUS
 62
     7
100
AcDbLine
 10
-175.6647060441914
 20
256.7032006448482
 30
0.0
 11
-180.414706108132
 21
264.9304419438843
 31
0.0
  0
LINE
  5
19A
330
1F
100
AcDbEntity
  8
0
  6
CONTINUOUS
 62
     7
100
AcDbLine
 10
-176.9637441440393
 20
255.9532006347523
 30
0.0
 11
-181.7137442079798
 21
264.1804419337884
 31
0.0
  0
LINE
  5
19B
330
1F
100
AcDbEntity
  8
0
  6
CONTINUOUS
 62
     7
100
AcDbLine
 10
-177.1132634256512
 20
254.712175642759
 30
0.0
 11
-182.8632632646343
 21
264.671467328639
 31
0.0
  0
LINE
  5
19C
330
1F
100
AcDbEntity
  8
0
  6
CONTINUOUS
 62
     7
100
AcDbLine
 10
-175.8142253258034
 20
255.4621756528549
 30
0.0
 11
-181.5642251647865
 21
265.4214673387349
 31
0.0
  0
LINE
  5
19D
330
1F
100
AcDbEntity
  8
0
  6
CONTINUOUS
 62
     7
100
AcDbLine
 10
-231.5233386840717
 20
224.453205677235
 30
0.0
 11
-236.2733387480122
 21
232.6804469762711
 31
0.0
  0
LINE
  5
19E
330
1F
100
AcDbEntity
  8
0
  6
CONTINUOUS
 62
     7
100
AcDbLine
 10
-230.2243005842239
 20
225.2032056873309
 30
0.0
 11
-234.9743006481644
 21
233.430446986367
 31
0.0
  0
LINE
  5
19F
330
1F
100
AcDbEntity
  8
0
  6
CONTINUOUS
 62
     7
100
AcDbLine
 10
-229.0747812891508
 20
224.7121798795272
 30
0.0
 11
-234.8247816049711
 21
234.6714723913134
 31
0.0
  0
LINE
  5
1A0
330
1F
100
AcDbEntity
  8
0
  6
CONTINUOUS
 62
     7
100
AcDbLine
 10
-230.3738193889986
 20
223.9621798694313
 30
0.0
 11
-236.1238197048189
 21
233.9214723812176
 31
0.0
  0
LINE
  5
1A1
330
1F
100
AcDbEntity
  8
0
  6
CONTINUOUS
 62
     7
100
AcDbLine
 10
-167.664705936502
 20
242.8467942464717
 30
0.0
 11
-162.9147058725615
 21
234.6195529474356
 31
0.0
  0
LINE
  5
1A2
330
1F
100
AcDbEntity
  8
0
  6
CONTINUOUS
 62
     7
100
AcDbLine
 10
-168.9637440363499
 20
242.0967942363758
 30
0.0
 11
-164.2137439724093
 21
233.8695529373397
 31
0.0
  0
LINE
  5
1A3
330
1F
100
AcDbEntity
  8
0
  6
CONTINUOUS
 62
     7
100
AcDbLine
 10
-170.1132630930044
 20
242.5878196312264
 30
0.0
 11
-164.3632630156026
 21
232.6285275323933
 31
0.0
  0
LINE
  5
1A4
330
1F
100
AcDbEntity
  8
0
  6
CONTINUOUS
 62
     7
100
AcDbLine
 10
-168.8142249931566
 20
243.3378196413223
 30
0.0
 11
-163.0642249157548
 21
233.3785275424892
 31
0.0
  0
LINE
  5
1A5
330
1F
100
AcDbEntity
  8
0
  6
CONTINUOUS
 62
     7
100
AcDbLine
 10
-222.0747800028297
 20
212.5878222161823
 30
0.0
 11
-216.3247804022651
 21
202.6285309432554
 31
0.0
  0
LINE
  5
1A6
330
1F
100
AcDbEntity
  8
0
  6
CONTINUOUS
 62
     7
100
AcDbLine
 10
-222.224299046023
 20
211.3467968112358
 30
0.0
 11
-217.4742994589196
 21
203.119556338106
 31
0.0
  0
LINE
  5
1A7
330
1F
100
AcDbEntity
  8
0
  6
CONTINUOUS
 62
     7
100
AcDbLine
 10
-223.5233371458708
 20
210.5967968011399
 30
0.0
 11
-218.7733375587674
 21
202.36955632801
 31
0.0
  0
LINE
  5
1A8
330
1F
100
AcDbEntity
  8
0
  6
CONTINUOUS
 62
     7
100
AcDbLine
 10
-223.3738181026775
 20
211.8378222060865
 30
0.0
 11
-217.6238185021129
 21
201.8785309331595
 31
0.0
  0
LINE
  5
1A9
330
1F
100
AcDbEntity
  8
0
  6
CENTER
 62
     7
100
AcDbLine
 10
-87.56163404703
 20
282.8809448408992
 30
0.0
 11
-58.58385558991299
 21
290.6455172420103
 31
0.0
  0
LINE
  5
1AA
330
1F
100
AcDbEntity
  8
0
  6
CENTER
 62
     7
100
AcDbLine
 10
-100.9425788050924
 20
306.0574210587407
 30
0.0
 11
-79.72937267209761
 21
327.2706271917355
 31
0.0
  0
LINE
  5
1AB
330
1F
100
AcDbEntity
  8
0
  6
CENTER
 62
     7
100
AcDbLine
 10
-174.0574210587407
 20
306.0574211949076
 30
0.0
 11
-195.2706271917355
 21
327.2706273279024
 31
0.0
  0
LINE
  5
1AC
330
1F
100
AcDbEntity
  8
0
  6
CENTER
 62
     7
100
AcDbLine
 10
-187.4383659031295
 20
282.8809450269067
 30
0.0
 11
-216.4161443602465
 21
290.6455174280178
 31
0.0
  0
LINE
  5
1AD
330
1F
100
AcDbEntity
  8
0
  6
DASHED
 62
     7
100
AcDbLine
 10
-393.5
 20
374.1999969482422
 30
0.0
 11
-359.1999969482422
 21
374.1999969482422
 31
0.0
  0
LINE
  5
1AE
330
1F
100
AcDbEntity
  8
0
  6
DASHED
 62
     7
100
AcDbLine
 10
-390.75
 20
374.1995162963867
 30
0.0
 11
-390.75
 21
363.1995162963867
 31
0.0
  0
LINE
  5
1AF
330
1F
100
AcDbEntity
  8
0
  6
DASHED
 62
     7
100
AcDbLine
 10
-375.25
 20
374.1995162963867
 30
0.0
 11
-375.25
 21
363.1995162963867
 31
0.0
  0
LINE
  5
1B0
330
1F
100
AcDbEntity
  8
0
  6
CENTER
 62
     7
100
AcDbLine
 10
-383.0
 20
377.4795837402344
 30
0.0
 11
-383.0
 21
344.3310394287109
 31
0.0
  0
LINE
  5
1B1
330
1F
100
AcDbEntity
  8
0
  6
DASHED
 62
     7
100
AcDbLine
 10
-380.0
 20
363.1995162963867
 30
0.0
 11
-380.0
 21
356.1995162963867
 31
0.0
  0
LINE
  5
1B2
330
1F
100
AcDbEntity
  8
0
  6
DASHED
 62
     7
100
AcDbLine
 10
-386.0
 20
363.1995162963867
 30
0.0
 11
-386.0
 21
356.1995162963867
 31
0.0
  0
LINE
  5
1B3
330
1F
100
AcDbEntity
  8
0
  6
DASHED
 62
     7
100
AcDbLine
 10
-380.5
 20
363.1995162963867
 30
0.0
 11
-380.5
 21
350.1995162963867
 31
0.0
  0
LINE
  5
1B4
330
1F
100
AcDbEntity
  8
0
  6
DASHED
 62
     7
100
AcDbLine
 10
-385.5
 20
363.1995162963867
 30
0.0
 11
-385.5
 21
350.1995162963867
 31
0.0
  0
LINE
  5
1B5
330
1F
100
AcDbEntity
  8
0
  6
DASHED
 62
     7
100
AcDbLine
 10
-390.75
 20
363.1995162963867
 30
0.0
 11
-375.25
 21
363.1995162963867
 31
0.0
  0
LINE
  5
1B6
330
1F
100
AcDbEntity
  8
0
  6
DASHED
 62
     7
100
AcDbLine
 10
-386.0
 20
356.1995162963867
 30
0.0
 11
-380.0
 21
356.1995162963867
 31
0.0
  0
LINE
  5
1B7
330
1F
100
AcDbEntity
  8
0
  6
DASHED
 62
     7
100
AcDbLine
 10
-385.3093872070312
 20
365.1995162963867
 30
0.0
 11
-385.3093872070312
 21
363.1995162963867
 31
0.0
  0
LINE
  5
1B8
330
1F
100
AcDbEntity
  8
0
  6
DASHED
 62
     7
100
AcDbLine
 10
-387.6188049316406
 20
365.1995162963867
 30
0.0
 11
-387.6188049316406
 21
363.1995162963867
 31
0.0
  0
LINE
  5
1B9
330
1F
100
AcDbEntity
  8
0
  6
DASHED
 62
     7
100
AcDbLine
 10
-380.6906127929688
 20
365.1995162963867
 30
0.0
 11
-380.6906127929688
 21
363.1995162963867
 31
0.0
  0
LINE
  5
1BA
330
1F
100
AcDbEntity
  8
0
  6
DASHED
 62
     7
100
AcDbLine
 10
-378.3811950683594
 20
365.1995162963867
 30
0.0
 11
-378.3811950683594
 21
363.1995162963867
 31
0.0
  0
LINE
  5
1BB
330
1F
100
AcDbEntity
  8
0
  6
DASHED
 62
     7
100
AcDbLine
 10
-385.3999938964844
 20
371.6995162963867
 30
0.0
 11
-380.6000061035156
 21
371.6995162963867
 31
0.0
  0
LINE
  5
1BC
330
1F
100
AcDbEntity
  8
0
  6
DASHED
 62
     7
100
AcDbLine
 10
-387.6188049316406
 20
365.1995162963867
 30
0.0
 11
-378.3811950683594
 21
365.1995162963867
 31
0.0
  0
LINE
  5
1BD
330
1F
100
AcDbEntity
  8
0
  6
DASHED
 62
     7
100
AcDbLine
 10
-386.3000034120348
 20
368.999517316702
 30
0.0
 11
-385.4000036225922
 21
371.6995167698487
 31
0.0
  0
LINE
  5
1BE
330
1F
100
AcDbEntity
  8
0
  6
DASHED
 62
     7
100
AcDbLine
 10
-379.7000108356517
 20
368.999522848779
 30
0.0
 11
-380.6000121329857
 21
371.6995268256002
 31
0.0
  0
LINE
  5
1BF
330
1F
100
AcDbEntity
  8
0
  6
DASHED
 62
     7
100
AcDbLine
 10
-386.2999877929688
 20
368.9995193481445
 30
0.0
 11
-379.7000122070312
 21
368.9995193481445
 31
0.0
  0
LINE
  5
1C0
330
1F
100
AcDbEntity
  8
0
  6
DASHED
 62
     7
100
AcDbLine
 10
-385.7999877929688
 20
367.1334915161133
 30
0.0
 11
-380.2000122070312
 21
367.1334915161133
 31
0.0
  0
LINE
  5
1C1
330
1F
100
AcDbEntity
  8
0
  6
DASHED
 62
     7
100
AcDbLine
 10
-379.6999805466218
 20
368.9995114985105
 30
0.0
 11
-380.1999807286304
 21
367.1334854311007
 31
0.0
  0
LINE
  5
1C2
330
1F
100
AcDbEntity
  8
0
  6
DASHED
 62
     7
100
AcDbLine
 10
-378.3811822806552
 20
365.1995200007651
 30
0.0
 11
-380.1999936276184
 21
367.1335043916188
 31
0.0
  0
LINE
  5
1C3
330
1F
100
AcDbEntity
  8
0
  6
DASHED
 62
     7
100
AcDbLine
 10
-386.3000147698988
 20
368.9995072151759
 30
0.0
 11
-385.800014094232
 21
367.1334793054089
 31
0.0
  0
LINE
  5
1C4
330
1F
100
AcDbEntity
  8
0
  6
DASHED
 62
     7
100
AcDbLine
 10
-387.6188207312221
 20
365.1995282977491
 30
0.0
 11
-385.8000093842589
 21
367.1335126886028
 31
0.0
  0
LINE
  5
1C5
330
1F
100
AcDbEntity
  8
0
  6
DASHED
 62
     7
100
AcDbLine
 10
-393.5
 20
374.1995162963867
 30
0.0
 11
-393.5
 21
368.8003387451172
 31
0.0
  0
LINE
  5
1C6
330
1F
100
AcDbEntity
  8
0
  6
DASHED
 62
     7
100
AcDbLine
 10
-392.5
 20
182.5
 30
0.0
 11
-392.5
 21
164.5
 31
0.0
  0
LINE
  5
1C7
330
1F
100
AcDbEntity
  8
0
  6
DASHED
 62
     7
100
AcDbLine
 10
-402.5
 20
182.5
 30
0.0
 11
-402.5
 21
164.5
 31
0.0
  0
LINE
  5
1C8
330
1F
100
AcDbEntity
  8
0
  6
DASHED
 62
     7
100
AcDbLine
 10
-393.25
 20
191.5
 30
0.0
 11
-393.25
 21
164.5
 31
0.0
  0
LINE
  5
1C9
330
1F
100
AcDbEntity
  8
0
  6
CENTER
 62
     7
100
AcDbLine
 10
-397.5
 20
197.1279296875
 30
0.0
 11
-397.5
 21
159.9774551391602
 31
0.0
  0
LINE
  5
1CA
330
1F
100
AcDbEntity
  8
0
  6
DASHED
 62
     7
100
AcDbLine
 10
-401.75
 20
191.5
 30
0.0
 11
-401.75
 21
164.5
 31
0.0
  0
LINE
  5
1CB
330
1F
100
AcDbEntity
  8
0
  6
DASHED
 62
     7
100
AcDbLine
 10
-402.5
 20
182.5
 30
0.0
 11
-392.5
 21
182.5
 31
0.0
  0
LINE
  5
1CC
330
1F
100
AcDbEntity
  8
0
  6
DASHED
 62
     7
100
AcDbLine
 10
-401.75
 20
191.5
 30
0.0
 11
-393.25
 21
191.5
 31
0.0
  0
LINE
  5
1CD
330
1F
100
AcDbEntity
  8
0
  6
DASHED
 62
     7
100
AcDbLine
 10
-397.5000072759644
 20
193.9537372544739
 30
0.0
 11
-393.2500129978002
 21
191.5000018698812
 31
0.0
  0
LINE
  5
1CE
330
1F
100
AcDbEntity
  8
0
  6
DASHED
 62
     7
100
AcDbLine
 10
-401.7500139626624
 20
191.4999910725742
 30
0.0
 11
-397.4999932555004
 21
193.9537417159561
 31
0.0
  0
LINE
  5
1CF
330
1F
100
AcDbEntity
  8
0
  6
DASHED
 62
     7
100
AcDbLine
 10
-50.5
 20
274.4999928474426
 30
0.0
 11
-32.61911010742188
 21
274.4999928474426
 31
0.0
  0
LINE
  5
1D0
330
1F
100
AcDbEntity
  8
0
  6
DASHED
 62
     7
100
AcDbLine
 10
-50.5
 20
264.4999933242798
 30
0.0
 11
-50.5
 21
274.4999933242798
 31
0.0
  0
LINE
  5
1D1
330
1F
100
AcDbEntity
  8
0
  6
DASHED
 62
     7
100
AcDbLine
 10
-50.5
 20
264.4999928474426
 30
0.0
 11
-32.61911010742188
 21
264.4999928474426
 31
0.0
  0
LINE
  5
1D2
330
1F
100
AcDbEntity
  8
0
  6
DASHED
 62
     7
100
AcDbLine
 10
-59.5
 20
265.2499928474426
 30
0.0
 11
-32.58604431152344
 21
265.2499928474426
 31
0.0
  0
LINE
  5
1D3
330
1F
100
AcDbEntity
  8
0
  6
DASHED
 62
     7
100
AcDbLine
 10
-59.5
 20
273.7499928474426
 30
0.0
 11
-32.58604431152344
 21
273.7499928474426
 31
0.0
  0
LINE
  5
1D4
330
1F
100
AcDbEntity
  8
0
  6
DASHED
 62
     7
100
AcDbLine
 10
-59.5
 20
265.2499933242798
 30
0.0
 11
-59.5
 21
273.7499933242798
 31
0.0
  0
LINE
  5
1D5
330
1F
100
AcDbEntity
  8
0
  6
DASHED
 62
     7
100
AcDbLine
 10
-61.95373897414235
 20
269.5000015043661
 30
0.0
 11
-59.50000358954971
 21
273.7499957825303
 31
0.0
  0
LINE
  5
1D6
330
1F
100
AcDbEntity
  8
0
  6
DASHED
 62
     7
100
AcDbLine
 10
-59.49999977485237
 20
265.2499976102202
 30
0.0
 11
-61.95373897414234
 21
269.4999984956339
 31
0.0
  0
LINE
  5
1D7
330
1F
100
AcDbEntity
  8
0
  6
CONTINUOUS
 62
     7
100
AcDbLine
 10
-363.5
 20
237.25
 30
0.0
 11
-361.5
 21
237.25
 31
0.0
  0
LINE
  5
1D8
330
1F
100
AcDbEntity
  8
0
  6
CONTINUOUS
 62
     7
100
AcDbLine
 10
-363.5
 20
231.75
 30
0.0
 11
-361.5
 21
231.75
 31
0.0
  0
LINE
  5
1D9
330
1F
100
AcDbEntity
  8
0
  6
CONTINUOUS
 62
     7
100
AcDbLine
 10
-371.5
 20
236.5
 30
0.0
 11
-363.1000061035156
 21
236.5
 31
0.0
  0
LINE
  5
1DA
330
1F
100
AcDbEntity
  8
0
  6
CONTINUOUS
 62
     7
100
AcDbLine
 10
-371.5
 20
232.5
 30
0.0
 11
-363.1000061035156
 21
232.5
 31
0.0
  0
LINE
  5
1DB
330
1F
100
AcDbEntity
  8
0
  6
CONTINUOUS
 62
     7
100
AcDbLine
 10
-412.5
 20
229.5
 30
0.0
 11
-419.0
 21
229.5
 31
0.0
  0
LINE
  5
1DC
330
1F
100
AcDbEntity
  8
0
  6
CONTINUOUS
 62
     7
100
AcDbLine
 10
-412.5
 20
220.5
 30
0.0
 11
-419.0
 21
220.5
 31
0.0
  0
LINE
  5
1DD
330
1F
100
AcDbEntity
  8
0
  6
CONTINUOUS
 62
     7
100
AcDbLine
 10
-419.0
 20
232.0
 30
0.0
 11
-427.5
 21
232.0
 31
0.0
  0
LINE
  5
1DE
330
1F
100
AcDbEntity
  8
0
  6
CONTINUOUS
 62
     7
100
AcDbLine
 10
-419.0
 20
218.0
 30
0.0
 11
-427.5
 21
218.0
 31
0.0
  0
LINE
  5
1DF
330
1F
100
AcDbEntity
  8
0
  6
CONTINUOUS
 62
     7
100
AcDbLine
 10
-403.2009619176388
 20
243.0000000000001
 30
0.0
 11
-359.5000301474893
 21
243.0000000000001
 31
0.0
  0
LINE
  5
1E0
330
1F
100
AcDbEntity
  8
0
  6
CONTINUOUS
 62
     7
100
AcDbLine
 10
-408.5
 20
243.0
 30
0.0
 11
-405.5
 21
243.0
 31
0.0
  0
LINE
  5
1E1
330
1F
100
AcDbEntity
  8
0
  6
CONTINUOUS
 62
     7
100
AcDbLine
 10
-408.5
 20
296.0
 30
0.0
 11
-405.5
 21
296.0
 31
0.0
  0
LINE
  5
1E2
330
1F
100
AcDbEntity
  8
0
  6
CONTINUOUS
 62
     7
100
AcDbLine
 10
-422.5
 20
208.7999992370605
 30
0.0
 11
-422.5
 21
196.8000030517578
 31
0.0
  0
LINE
  5
1E3
330
1F
100
AcDbEntity
  8
0
  6
CONTINUOUS
 62
     7
100
AcDbLine
 10
-458.5
 20
208.7999992370605
 30
0.0
 11
-458.5
 21
196.8000030517578
 31
0.0
  0
LINE
  5
1E4
330
1F
100
AcDbEntity
  8
0
  6
CENTER
 62
     7
100
AcDbLine
 10
-463.5
 20
202.8000030517578
 30
0.0
 11
-352.5
 21
202.8000030517578
 31
0.0
  0
LINE
  5
1E5
330
1F
100
AcDbEntity
  8
0
  6
CONTINUOUS
 62
     7
100
AcDbLine
 10
-427.5
 20
346.5
 30
0.0
 11
-418.4471740722656
 21
346.5
 31
0.0
  0
LINE
  5
1E6
330
1F
100
AcDbEntity
  8
0
  6
CONTINUOUS
 62
     7
100
AcDbLine
 10
-404.5
 20
242.25
 30
0.0
 11
-403.2009619176388
 21
243.0
 31
0.0
  0
LINE
  5
1E7
330
1F
100
AcDbEntity
  8
0
  6
CONTINUOUS
 62
     7
100
AcDbLine
 10
-403.2009619176388
 20
286.0
 30
0.0
 11
-403.2009619176388
 21
296.0
 31
0.0
  0
LINE
  5
1E8
330
1F
100
AcDbEntity
  8
0
  6
CONTINUOUS
 62
     7
100
AcDbLine
 10
-404.4999999999999
 20
296.75
 30
0.0
 11
-403.2009619176387
 21
296.0
 31
0.0
  0
LINE
  5
1E9
330
1F
100
AcDbEntity
  8
0
  6
CONTINUOUS
 62
     7
100
AcDbLine
 10
-429.0
 20
254.5
 30
0.0
 11
-412.5
 21
254.5
 31
0.0
  0
LINE
  5
1EA
330
1F
100
AcDbEntity
  8
0
  6
CONTINUOUS
 62
     7
100
AcDbLine
 10
-429.0
 20
284.5
 30
0.0
 11
-412.5
 21
284.5
 31
0.0
  0
LINE
  5
1EB
330
1F
100
AcDbEntity
  8
0
  6
CENTER
 62
     7
100
AcDbLine
 10
-158.6455171696555
 20
190.5838555705255
 30
0.0
 11
-144.2292951726656
 21
244.3859285164842
 31
0.0
  0
LINE
  5
1EC
330
1F
100
AcDbEntity
  8
0
  6
CENTER
 62
     7
100
AcDbLine
 10
-98.86296694843725
 20
279.8527618041009
 30
0.0
 11
-112.3859285164842
 21
276.2292951726656
 31
0.0
  0
LINE
  5
1ED
330
1F
100
AcDbEntity
  8
0
  6
CENTER
 62
     7
100
AcDbLine
 10
-165.7842712474619
 20
297.7842712474619
 30
0.0
 11
-155.8847763108502
 21
287.8847763108502
 31
0.0
  0
LINE
  5
1EE
330
1F
100
AcDbEntity
  8
0
  6
CENTER
 62
     7
100
AcDbLine
 10
-90.69872981077805
 20
288.4378221735089
 30
0.0
 11
-97.69872981077805
 21
300.5621778264911
 31
0.0
  0
LINE
  5
1EF
330
1F
100
AcDbEntity
  8
0
  6
CENTER
 62
     7
100
AcDbLine
 10
-203.2820323027551
 20
315.5621778264912
 30
0.0
 11
-210.2820323027551
 21
303.4378221735091
 31
0.0
  0
LINE
  5
1F0
330
1F
100
AcDbEntity
  8
0
  6
CENTER
 62
     7
100
AcDbLine
 10
-144.5
 20
219.5
 30
0.0
 11
-130.5
 21
219.5
 31
0.0
  0
LINE
  5
1F1
330
1F
100
AcDbEntity
  8
0
  6
CENTER
 62
     7
100
AcDbLine
 10
-177.3012701892219
 20
300.5621778264911
 30
0.0
 11
-184.3012701892219
 21
288.4378221735089
 31
0.0
  0
LINE
  5
1F2
330
1F
100
AcDbEntity
  8
0
  6
CENTER
 62
     7
100
AcDbLine
 10
-64.71796769724487
 20
303.4378221735089
 30
0.0
 11
-71.71796769724487
 21
315.5621778264911
 31
0.0
  0
LINE
  5
1F3
330
1F
100
AcDbEntity
  8
0
  6
CENTER
 62
     7
100
AcDbLine
 10
-144.5
 20
189.5
 30
0.0
 11
-130.5
 21
189.5
 31
0.0
  0
LINE
  5
1F4
330
1F
100
AcDbEntity
  8
0
  6
DASHED
 62
     7
100
AcDbLine
 10
-224.5
 20
274.4999928474426
 30
0.0
 11
-242.3808898925781
 21
274.4999928474426
 31
0.0
  0
LINE
  5
1F5
330
1F
100
AcDbEntity
  8
0
  6
DASHED
 62
     7
100
AcDbLine
 10
-224.5
 20
264.4999933242798
 30
0.0
 11
-224.5
 21
274.4999933242798
 31
0.0
  0
LINE
  5
1F6
330
1F
100
AcDbEntity
  8
0
  6
DASHED
 62
     7
100
AcDbLine
 10
-224.5
 20
264.4999928474426
 30
0.0
 11
-242.3808898925781
 21
264.4999928474426
 31
0.0
  0
LINE
  5
1F7
330
1F
100
AcDbEntity
  8
0
  6
DASHED
 62
     7
100
AcDbLine
 10
-215.5
 20
265.2499928474426
 30
0.0
 11
-242.4139556884766
 21
265.2499928474426
 31
0.0
  0
LINE
  5
1F8
330
1F
100
AcDbEntity
  8
0
  6
DASHED
 62
     7
100
AcDbLine
 10
-215.5
 20
273.7499928474426
 30
0.0
 11
-242.4139556884766
 21
273.7499928474426
 31
0.0
  0
LINE
  5
1F9
330
1F
100
AcDbEntity
  8
0
  6
DASHED
 62
     7
100
AcDbLine
 10
-215.5
 20
265.2499933242798
 30
0.0
 11
-215.5
 21
273.7499933242798
 31
0.0
  0
LINE
  5
1FA
330
1F
100
AcDbEntity
  8
0
  6
DASHED
 62
     7
100
AcDbLine
 10
-213.0462610258576
 20
269.5000015043661
 30
0.0
 11
-215.4999964104503
 21
273.7499957825302
 31
0.0
  0
LINE
  5
1FB
330
1F
100
AcDbEntity
  8
0
  6
DASHED
 62
     7
100
AcDbLine
 10
-215.5000002251476
 20
265.2499976102202
 30
0.0
 11
-213.0462610258576
 21
269.4999984956339
 31
0.0
  0
LINE
  5
1FC
330
1F
100
AcDbEntity
  8
0
  6
PHANTOM
 62
     7
100
AcDbLine
 10
-429.0
 20
299.5
 30
0.0
 11
-412.5
 21
299.5
 31
0.0
  0
LINE
  5
1FD
330
1F
100
AcDbEntity
  8
0
  6
PHANTOM
 62
     7
100
AcDbLine
 10
-429.0
 20
298.5
 30
0.0
 11
-412.5
 21
298.5
 31
0.0
  0
LINE
  5
1FE
330
1F
100
AcDbEntity
  8
0
  6
PHANTOM
 62
     7
100
AcDbLine
 10
-429.0
 20
240.5
 30
0.0
 11
-412.5
 21
240.5
 31
0.0
  0
LINE
  5
1FF
330
1F
100
AcDbEntity
  8
0
  6
PHANTOM
 62
     7
100
AcDbLine
 10
-429.0
 20
239.5
 30
0.0
 11
-412.5
 21
239.5
 31
0.0
  0
LINE
  5
200
330
1F
100
AcDbEntity
  8
0
  6
CONTINUOUS
 62
     7
100
AcDbLine
 10
-403.2009619176388
 20
253.0
 30
0.0
 11
-403.2009619176388
 21
243.0
 31
0.0
  0
LINE
  5
201
330
1F
100
AcDbEntity
  8
0
  6
CONTINUOUS
 62
     7
100
AcDbLine
 10
-359.5000301474894
 20
296.0000000000001
 30
0.0
 11
-357.5000107333764
 21
298.0000194141131
 31
0.0
  0
LINE
  5
202
330
1F
100
AcDbEntity
  8
0
  6
CONTINUOUS
 62
     7
100
AcDbLine
 10
-359.5000301474893
 20
296.0
 30
0.0
 11
-359.5000301474893
 21
286.0
 31
0.0
  0
LINE
  5
203
330
1F
100
AcDbEntity
  8
0
  6
CONTINUOUS
 62
     7
100
AcDbLine
 10
-359.5000301474894
 20
243.0
 30
0.0
 11
-357.5000107333764
 21
240.999980585887
 31
0.0
  0
LINE
  5
204
330
1F
100
AcDbEntity
  8
0
  6
CONTINUOUS
 62
     7
100
AcDbLine
 10
-359.5000301474893
 20
243.0000000000001
 30
0.0
 11
-359.5000301474893
 21
253.0000000000001
 31
0.0
  0
LINE
  5
205
330
1F
100
AcDbEntity
  8
0
  6
DASHED
 62
     7
100
AcDbLine
 10
-129.75
 20
374.1999969482422
 30
0.0
 11
-129.75
 21
363.1999969482422
 31
0.0
  0
LINE
  5
206
330
1F
100
AcDbEntity
  8
0
  6
DASHED
 62
     7
100
AcDbLine
 10
-145.25
 20
374.1999969482422
 30
0.0
 11
-145.25
 21
363.1999969482422
 31
0.0
  0
LINE
  5
207
330
1F
100
AcDbEntity
  8
0
  6
DASHED
 62
     7
100
AcDbLine
 10
-134.5
 20
363.1999969482422
 30
0.0
 11
-134.5
 21
356.1999969482422
 31
0.0
  0
LINE
  5
208
330
1F
100
AcDbEntity
  8
0
  6
DASHED
 62
     7
100
AcDbLine
 10
-140.5
 20
363.1999969482422
 30
0.0
 11
-140.5
 21
356.1999969482422
 31
0.0
  0
LINE
  5
209
330
1F
100
AcDbEntity
  8
0
  6
DASHED
 62
     7
100
AcDbLine
 10
-135.0
 20
363.1999969482422
 30
0.0
 11
-135.0
 21
350.1999969482422
 31
0.0
  0
LINE
  5
20A
330
1F
100
AcDbEntity
  8
0
  6
DASHED
 62
     7
100
AcDbLine
 10
-140.0
 20
363.1999969482422
 30
0.0
 11
-140.0
 21
350.1999969482422
 31
0.0
  0
LINE
  5
20B
330
1F
100
AcDbEntity
  8
0
  6
DASHED
 62
     7
100
AcDbLine
 10
-145.25
 20
363.1999969482422
 30
0.0
 11
-129.75
 21
363.1999969482422
 31
0.0
  0
LINE
  5
20C
330
1F
100
AcDbEntity
  8
0
  6
DASHED
 62
     7
100
AcDbLine
 10
-140.5
 20
356.1999969482422
 30
0.0
 11
-134.5
 21
356.1999969482422
 31
0.0
  0
LINE
  5
20D
330
1F
100
AcDbEntity
  8
0
  6
DASHED
 62
     7
100
AcDbLine
 10
-139.8093872070312
 20
365.1999969482422
 30
0.0
 11
-139.8093872070312
 21
363.1999969482422
 31
0.0
  0
LINE
  5
20E
330
1F
100
AcDbEntity
  8
0
  6
DASHED
 62
     7
100
AcDbLine
 10
-142.1188049316406
 20
365.1999969482422
 30
0.0
 11
-142.1188049316406
 21
363.1999969482422
 31
0.0
  0
LINE
  5
20F
330
1F
100
AcDbEntity
  8
0
  6
DASHED
 62
     7
100
AcDbLine
 10
-135.1906127929688
 20
365.1999969482422
 30
0.0
 11
-135.1906127929688
 21
363.1999969482422
 31
0.0
  0
LINE
  5
210
330
1F
100
AcDbEntity
  8
0
  6
DASHED
 62
     7
100
AcDbLine
 10
-132.8811950683594
 20
365.1999969482422
 30
0.0
 11
-132.8811950683594
 21
363.1999969482422
 31
0.0
  0
LINE
  5
211
330
1F
100
AcDbEntity
  8
0
  6
DASHED
 62
     7
100
AcDbLine
 10
-139.8999938964844
 20
371.6999969482422
 30
0.0
 11
-135.1000061035156
 21
371.6999969482422
 31
0.0
  0
LINE
  5
212
330
1F
100
AcDbEntity
  8
0
  6
DASHED
 62
     7
100
AcDbLine
 10
-142.1188049316406
 20
365.1999969482422
 30
0.0
 11
-132.8811950683594
 21
365.1999969482422
 31
0.0
  0
LINE
  5
213
330
1F
100
AcDbEntity
  8
0
  6
DASHED
 62
     7
100
AcDbLine
 10
-140.8000167889234
 20
369.00000271978
 30
0.0
 11
-139.9000169240862
 21
371.7000023991105
 31
0.0
  0
LINE
  5
214
330
1F
100
AcDbEntity
  8
0
  6
DASHED
 62
     7
100
AcDbLine
 10
-134.2000065833948
 20
368.9999944263771
 30
0.0
 11
-135.1000078807288
 21
371.6999984031983
 31
0.0
  0
LINE
  5
215
330
1F
100
AcDbEntity
  8
0
  6
DASHED
 62
     7
100
AcDbLine
 10
-140.7999877929688
 20
369.0
 30
0.0
 11
-134.2000122070312
 21
369.0
 31
0.0
  0
LINE
  5
216
330
1F
100
AcDbEntity
  8
0
  6
DASHED
 62
     7
100
AcDbLine
 10
-140.2999877929688
 20
367.1339721679688
 30
0.0
 11
-134.7000122070312
 21
367.1339721679688
 31
0.0
  0
LINE
  5
217
330
1F
100
AcDbEntity
  8
0
  6
DASHED
 62
     7
100
AcDbLine
 10
-134.1999883291673
 20
368.999994082884
 30
0.0
 11
-134.6999882643468
 21
367.1339689366529
 31
0.0
  0
LINE
  5
218
330
1F
100
AcDbEntity
  8
0
  6
DASHED
 62
     7
100
AcDbLine
 10
-132.8811884057917
 20
365.2000016449962
 30
0.0
 11
-134.6999997527549
 21
367.1339860358499
 31
0.0
  0
LINE
  5
219
330
1F
100
AcDbEntity
  8
0
  6
DASHED
 62
     7
100
AcDbLine
 10
-140.800009121057
 20
368.999993778778
 30
0.0
 11
-140.3000084453903
 21
367.133965869011
 31
0.0
  0
LINE
  5
21A
330
1F
100
AcDbEntity
  8
0
  6
DASHED
 62
     7
100
AcDbLine
 10
-142.1188104611956
 20
365.2000031977693
 30
0.0
 11
-140.2999991142324
 21
367.133987588623
 31
0.0
  0
LINE
  5
21B
330
1F
100
AcDbEntity
  8
0
  6
DASHED
 62
     7
100
AcDbLine
 10
-232.0478592440566
 20
223.8616983750925
 30
0.0
 11
-222.5215798451727
 21
229.361698449129
 31
0.0
  0
LINE
  5
21C
330
1F
100
AcDbEntity
  8
0
  6
DASHED
 62
     7
100
AcDbLine
 10
-224.2978591397325
 20
210.4383046766652
 30
0.0
 11
-214.7715797408486
 21
215.9383047507017
 31
0.0
  0
LINE
  5
21D
330
1F
100
AcDbEntity
  8
0
  6
DASHED
 62
     7
100
AcDbLine
 10
-220.1465798132024
 20
225.2480777996109
 30
0.0
 11
-214.0844020139127
 21
228.748077846725
 31
0.0
  0
LINE
  5
21E
330
1F
100
AcDbEntity
  8
0
  6
DASHED
 62
     7
100
AcDbLine
 10
-217.1465797728189
 20
220.0519254002197
 30
0.0
 11
-211.0844019735292
 21
223.5519254473338
 31
0.0
  0
LINE
  5
21F
330
1F
100
AcDbEntity
  8
0
  6
DASHED
 62
     7
100
AcDbLine
 10
-219.8965798098371
 20
224.8150650996617
 30
0.0
 11
-208.6382496111562
 21
231.3150651871593
 31
0.0
  0
LINE
  5
220
330
1F
100
AcDbEntity
  8
0
  6
DASHED
 62
     7
100
AcDbLine
 10
-217.3965797761842
 20
220.484938100169
 30
0.0
 11
-206.1382495775032
 21
226.9849381876666
 31
0.0
  0
LINE
  5
221
330
1F
100
AcDbEntity
  8
0
  6
DASHED
 62
     7
100
AcDbLine
 10
-214.7715797408486
 20
215.9383047507017
 30
0.0
 11
-222.5215798451727
 21
229.361698449129
 31
0.0
  0
LINE
  5
222
330
1F
100
AcDbEntity
  8
0
  6
DASHED
 62
     7
100
AcDbLine
 10
-211.0844019735291
 20
223.5519254473338
 30
0.0
 11
-214.0844020139127
 21
228.748077846725
 31
0.0
  0
LINE
  5
223
330
1F
100
AcDbEntity
  8
0
  6
DASHED
 62
     7
100
AcDbLine
 10
-219.2239369737486
 20
219.6500136069644
 30
0.0
 11
-217.4918861739515
 21
220.6500136204256
 31
0.0
  0
LINE
  5
224
330
1F
100
AcDbEntity
  8
0
  6
DASHED
 62
     7
100
AcDbLine
 10
-218.0692280959002
 20
217.6499991984768
 30
0.0
 11
-216.3371772961031
 21
218.649999211938
 31
0.0
  0
LINE
  5
225
330
1F
100
AcDbEntity
  8
0
  6
DASHED
 62
     7
100
AcDbLine
 10
-221.5333242118669
 20
223.6499895659439
 30
0.0
 11
-219.8012734120698
 21
224.6499895794051
 31
0.0
  0
LINE
  5
226
330
1F
100
AcDbEntity
  8
0
  6
DASHED
 62
     7
100
AcDbLine
 10
-222.6880330897153
 20
225.6500039744316
 30
0.0
 11
-220.9559822899183
 21
226.6500039878927
 31
0.0
  0
LINE
  5
227
330
1F
100
AcDbEntity
  8
0
  6
DASHED
 62
     7
100
AcDbLine
 10
-224.8077987277526
 20
216.3215458687484
 30
0.0
 11
-227.2077926565437
 21
220.4784572166623
 31
0.0
  0
LINE
  5
228
330
1F
100
AcDbEntity
  8
0
  6
DASHED
 62
     7
100
AcDbLine
 10
-218.0692280959001
 20
217.6499991984768
 30
0.0
 11
-222.6880330897153
 21
225.6500039744316
 31
0.0
  0
LINE
  5
229
330
1F
100
AcDbEntity
  8
0
  6
DASHED
 62
     7
100
AcDbLine
 10
-222.0195236940478
 20
216.8921003158097
 30
0.0
 11
-224.807791934542
 21
216.3215232008262
 31
0.0
  0
LINE
  5
22A
330
1F
100
AcDbEntity
  8
0
  6
DASHED
 62
     7
100
AcDbLine
 10
-225.3195216589365
 20
222.6078809400886
 30
0.0
 11
-227.2077930279661
 21
220.4784549500725
 31
0.0
  0
LINE
  5
22B
330
1F
100
AcDbEntity
  8
0
  6
DASHED
 62
     7
100
AcDbLine
 10
-222.0195358366267
 20
216.892126786933
 30
0.0
 11
-225.3195236740172
 21
222.6078732830651
 31
0.0
  0
LINE
  5
22C
330
1F
100
AcDbEntity
  8
0
  6
DASHED
 62
     7
100
AcDbLine
 10
-220.6535083405353
 20
218.2581534154574
 30
0.0
 11
-223.4534961711952
 21
223.1078745116909
 31
0.0
  0
LINE
  5
22D
330
1F
100
AcDbEntity
  8
0
  6
DASHED
 62
     7
100
AcDbLine
 10
-225.3195304885766
 20
222.6078969204598
 30
0.0
 11
-223.453505344136
 21
223.1078968623217
 31
0.0
  0
LINE
  5
22E
330
1F
100
AcDbEntity
  8
0
  6
DASHED
 62
     7
100
AcDbLine
 10
-222.6880404885075
 20
225.6500073960074
 30
0.0
 11
-223.4535144082708
 21
223.10787836347
 31
0.0
  0
LINE
  5
22F
330
1F
100
AcDbEntity
  8
0
  6
DASHED
 62
     7
100
AcDbLine
 10
-222.0195197848462
 20
216.8921114268778
 30
0.0
 11
-220.6534925592671
 21
218.2581386794147
 31
0.0
  0
LINE
  5
230
330
1F
100
AcDbEntity
  8
0
  6
DASHED
 62
     7
100
AcDbLine
 10
-218.0692307433718
 20
217.6499912849783
 30
0.0
 11
-220.6535160345816
 21
218.2581359006284
 31
0.0
  0
LINE
  5
231
330
1F
100
AcDbEntity
  8
0
  6
DASHED
 62
     7
100
AcDbLine
 10
-50.70214086026752
 20
210.4383046766653
 30
0.0
 11
-60.22842025915136
 21
215.9383047507017
 31
0.0
  0
LINE
  5
232
330
1F
100
AcDbEntity
  8
0
  6
DASHED
 62
     7
100
AcDbLine
 10
-42.95214075594342
 20
223.8616983750925
 30
0.0
 11
-52.47842015482726
 21
229.361698449129
 31
0.0
  0
LINE
  5
233
330
1F
100
AcDbEntity
  8
0
  6
DASHED
 62
     7
100
AcDbLine
 10
-57.85342022718109
 20
220.0519254002198
 30
0.0
 11
-63.9155980264708
 21
223.5519254473339
 31
0.0
  0
LINE
  5
234
330
1F
100
AcDbEntity
  8
0
  6
DASHED
 62
     7
100
AcDbLine
 10
-54.85342018679756
 20
225.2480777996109
 30
0.0
 11
-60.91559798608728
 21
228.748077846725
 31
0.0
  0
LINE
  5
235
330
1F
100
AcDbEntity
  8
0
  6
DASHED
 62
     7
100
AcDbLine
 10
-57.60342022381579
 20
220.484938100169
 30
0.0
 11
-68.8617504224967
 21
226.9849381876666
 31
0.0
  0
LINE
  5
236
330
1F
100
AcDbEntity
  8
0
  6
DASHED
 62
     7
100
AcDbLine
 10
-55.10342019016285
 20
224.8150650996617
 30
0.0
 11
-66.36175038884376
 21
231.3150651871593
 31
0.0
  0
LINE
  5
237
330
1F
100
AcDbEntity
  8
0
  6
DASHED
 62
     7
100
AcDbLine
 10
-52.47842015482728
 20
229.361698449129
 30
0.0
 11
-60.22842025915136
 21
215.9383047507017
 31
0.0
  0
LINE
  5
238
330
1F
100
AcDbEntity
  8
0
  6
DASHED
 62
     7
100
AcDbLine
 10
-60.91559798608728
 20
228.748077846725
 30
0.0
 11
-63.91559802647079
 21
223.5519254473338
 31
0.0
  0
LINE
  5
239
330
1F
100
AcDbEntity
  8
0
  6
DASHED
 62
     7
100
AcDbLine
 10
-53.4666757881331
 20
223.6499895659439
 30
0.0
 11
-55.19872658793017
 21
224.6499895794051
 31
0.0
  0
LINE
  5
23A
330
1F
100
AcDbEntity
  8
0
  6
DASHED
 62
     7
100
AcDbLine
 10
-52.31196691028467
 20
225.6500039744316
 30
0.0
 11
-54.04401771008173
 21
226.6500039878927
 31
0.0
  0
LINE
  5
23B
330
1F
100
AcDbEntity
  8
0
  6
DASHED
 62
     7
100
AcDbLine
 10
-55.77606302625141
 20
219.6500136069644
 30
0.0
 11
-57.50811382604847
 21
220.6500136204255
 31
0.0
  0
LINE
  5
23C
330
1F
100
AcDbEntity
  8
0
  6
DASHED
 62
     7
100
AcDbLine
 10
-56.93077190409983
 20
217.6499991984768
 30
0.0
 11
-58.66282270389689
 21
218.649999211938
 31
0.0
  0
LINE
  5
23D
330
1F
100
AcDbEntity
  8
0
  6
DASHED
 62
     7
100
AcDbLine
 10
-47.79220734345621
 20
220.4784572166623
 30
0.0
 11
-50.19220127224733
 21
216.3215458687484
 31
0.0
  0
LINE
  5
23E
330
1F
100
AcDbEntity
  8
0
  6
DASHED
 62
     7
100
AcDbLine
 10
-52.31196691028468
 20
225.6500039744315
 30
0.0
 11
-56.93077190409984
 21
217.6499991984768
 31
0.0
  0
LINE
  5
23F
330
1F
100
AcDbEntity
  8
0
  6
DASHED
 62
     7
100
AcDbLine
 10
-49.68045947260671
 20
222.6078970344083
 30
0.0
 11
-47.79219110906479
 21
220.4784744337163
 31
0.0
  0
LINE
  5
240
330
1F
100
AcDbEntity
  8
0
  6
DASHED
 62
     7
100
AcDbLine
 10
-52.98047180209059
 20
216.8921247035325
 30
0.0
 11
-50.19219912361181
 21
216.3215466803822
 31
0.0
  0
LINE
  5
241
330
1F
100
AcDbEntity
  8
0
  6
DASHED
 62
     7
100
AcDbLine
 10
-49.68047632598282
 20
222.6078732830651
 30
0.0
 11
-52.98046416337328
 21
216.892126786933
 31
0.0
  0
LINE
  5
242
330
1F
100
AcDbEntity
  8
0
  6
DASHED
 62
     7
100
AcDbLine
 10
-51.54650382880475
 20
223.1078745116909
 30
0.0
 11
-54.34649165946462
 21
218.2581534154573
 31
0.0
  0
LINE
  5
243
330
1F
100
AcDbEntity
  8
0
  6
DASHED
 62
     7
100
AcDbLine
 10
-52.98048122667819
 20
216.8921090666543
 30
0.0
 11
-54.34650642920863
 21
218.2581342961424
 31
0.0
  0
LINE
  5
244
330
1F
100
AcDbEntity
  8
0
  6
DASHED
 62
     7
100
AcDbLine
 10
-56.93077116787552
 20
217.6499910801469
 30
0.0
 11
-54.34648587666568
 21
218.258135695797
 31
0.0
  0
LINE
  5
245
330
1F
100
AcDbEntity
  8
0
  6
DASHED
 62
     7
100
AcDbLine
 10
-49.68047104967476
 20
222.6078948643423
 30
0.0
 11
-51.54649895765127
 21
223.1078955466914
 31
0.0
  0
LINE
  5
246
330
1F
100
AcDbEntity
  8
0
  6
DASHED
 62
     7
100
AcDbLine
 10
-52.31195873325808
 20
225.650005638403
 30
0.0
 11
-51.54648481349476
 21
223.1078766058655
 31
0.0
  0
CIRCLE
  5
247
330
1F
100
AcDbEntity
  8
0
  6
CONTINUOUS
 62
     7
100
AcDbCircle
 10
-22.0
 20
77.0
 30
0.0
 40
5.0
  0
ARC
  5
248
330
1F
100
AcDbEntity
  8
0
  6
CONTINUOUS
 62
     7
100
AcDbCircle
 10
-137.5
 20
269.5
 30
0.0
 40
105.0
100
AcDbArc
 50
100.1479424034463
 51
199.8520591146251
  0
CIRCLE
  5
249
330
1F
100
AcDbEntity
  8
0
  6
CONTINUOUS
 62
     7
100
AcDbCircle
 10
-107.1891098022461
 20
287.0
 30
0.0
 40
5.25
  0
ARC
  5
24A
330
1F
100
AcDbEntity
  8
0
  6
CONTINUOUS
 62
     7
100
AcDbCircle
 10
-137.5
 20
269.5
 30
0.0
 40
41.0
100
AcDbArc
 50
116.8219572996323
 51
183.1780510486282
  0
CIRCLE
  5
24B
330
1F
100
AcDbEntity
  8
0
  6
CONTINUOUS
 62
     7
100
AcDbCircle
 10
-167.8108882904053
 20
287.0
 30
0.0
 40
5.25
  0
CIRCLE
  5
24C
330
1F
100
AcDbEntity
  8
0
  6
CONTINUOUS
 62
     7
100
AcDbCircle
 10
-137.5
 20
234.5
 30
0.0
 40
5.25
  0
ARC
  5
24D
330
1F
100
AcDbEntity
  8
0
  6
CENTER
 62
     7
100
AcDbCircle
 10
-137.5
 20
269.5
 30
0.0
 40
35.0
100
AcDbArc
 50
256.463102145501
 51
283.5368996757319
  0
ARC
  5
24E
330
1F
100
AcDbEntity
  8
0
  6
CONTINUOUS
 62
     7
100
AcDbCircle
 10
-137.5
 20
269.5
 30
0.0
 40
41.0
100
AcDbArc
 50
236.8219506210239
 51
303.1780477851144
  0
ARC
  5
24F
330
1F
100
AcDbEntity
  8
0
  6
CONTINUOUS
 62
     7
100
AcDbCircle
 10
-137.5
 20
269.5
 30
0.0
 40
41.0
100
AcDbArc
 50
356.8219535334413
 51
63.17804770932403
  0
ARC
  5
250
330
1F
100
AcDbEntity
  8
0
  6
CONTINUOUS
 62
     7
100
AcDbCircle
 10
-137.5
 20
269.5
 30
0.0
 40
105.0
100
AcDbArc
 50
220.147942555027
 51
319.8520558511113
  0
ARC
  5
251
330
1F
100
AcDbEntity
  8
0
  6
CONTINUOUS
 62
     7
100
AcDbCircle
 10
-175.3453140258789
 20
247.6499977111816
 30
0.0
 40
7.5
100
AcDbArc
 50
321.0394637477505
 51
98.96052767661789
  0
ARC
  5
252
330
1F
100
AcDbEntity
  8
0
  6
DASHED
 62
     7
100
AcDbCircle
 10
-181.1909866333008
 20
244.2749977111816
 30
0.0
 40
10.75
100
AcDbArc
 50
299.9999983303479
 51
349.3706649532348
  0
ARC
  5
253
330
1F
100
AcDbEntity
  8
0
  6
CONTINUOUS
 62
     7
100
AcDbCircle
 10
-181.1909866333008
 20
244.2749977111816
 30
0.0
 40
10.75
100
AcDbArc
 50
349.3706649532348
 51
70.62933330132272
  0
ARC
  5
254
330
1F
100
AcDbEntity
  8
0
  6
DASHED
 62
     7
100
AcDbCircle
 10
-181.1909866333008
 20
244.2749977111816
 30
0.0
 40
10.75
100
AcDbArc
 50
70.62933330132272
 51
120.0000033393042
  0
CIRCLE
  5
255
330
1F
100
AcDbEntity
  8
0
  6
CONTINUOUS
 62
     7
100
AcDbCircle
 10
-208.0377731323242
 20
228.7749977111816
 30
0.0
 40
6.0
  0
CIRCLE
  5
256
330
1F
100
AcDbEntity
  8
0
  6
CONTINUOUS
 62
     7
100
AcDbCircle
 10
-186.387134552002
 20
241.274995803833
 30
0.0
 40
6.0
  0
CIRCLE
  5
257
330
1F
100
AcDbEntity
  8
0
  6
CONTINUOUS
 62
     7
100
AcDbCircle
 10
-208.0377731323242
 20
228.7749977111816
 30
0.0
 40
5.125
  0
CIRCLE
  5
258
330
1F
100
AcDbEntity
  8
0
  6
CONTINUOUS
 62
     7
100
AcDbCircle
 10
-186.387134552002
 20
241.274995803833
 30
0.0
 40
5.125
  0
CIRCLE
  5
259
330
1F
100
AcDbEntity
  8
0
  6
CONTINUOUS
 62
     7
100
AcDbCircle
 10
-137.5
 20
350.9500045776367
 30
0.0
 40
10.0
  0
CIRCLE
  5
25A
330
1F
100
AcDbEntity
  8
0
  6
CONTINUOUS
 62
     7
100
AcDbCircle
 10
-137.5
 20
325.950008392334
 30
0.0
 40
10.0
  0
CIRCLE
  5
25B
330
1F
100
AcDbEntity
  8
0
  6
CONTINUOUS
 62
     7
100
AcDbCircle
 10
-357.0
 20
361.3499984741211
 30
0.0
 40
0.5
  0
ARC
  5
25C
330
1F
100
AcDbEntity
  8
0
  6
CENTER
 62
     7
100
AcDbCircle
 10
-137.5
 20
269.5
 30
0.0
 40
66.69999694824219
100
AcDbArc
 50
242.0875893389968
 51
267.9124184775991
  0
CIRCLE
  5
25D
330
1F
100
AcDbEntity
  8
0
  6
CONTINUOUS
 62
     7
100
AcDbCircle
 10
-154.7632293701172
 20
205.0727462768555
 30
0.0
 40
10.0
  0
CIRCLE
  5
25E
330
1F
100
AcDbEntity
  8
0
  6
CONTINUOUS
 62
     7
100
AcDbCircle
 10
-90.33598327636719
 20
316.6640205383301
 30
0.0
 40
10.0
  0
CIRCLE
  5
25F
330
1F
100
AcDbEntity
  8
0
  6
CONTINUOUS
 62
     7
100
AcDbCircle
 10
-201.9272537231445
 20
286.7632293701172
 30
0.0
 40
10.0
  0
CIRCLE
  5
260
330
1F
100
AcDbEntity
  8
0
  6
CONTINUOUS
 62
     7
100
AcDbCircle
 10
-184.6640205383301
 20
316.6640205383301
 30
0.0
 40
10.0
  0
CIRCLE
  5
261
330
1F
100
AcDbEntity
  8
0
  6
CONTINUOUS
 62
     7
100
AcDbCircle
 10
-73.07275390625
 20
286.7632274627686
 30
0.0
 40
10.0
  0
ARC
  5
262
330
1F
100
AcDbEntity
  8
0
  6
CENTER
 62
     7
100
AcDbCircle
 10
-137.5
 20
269.5
 30
0.0
 40
66.69999694824219
100
AcDbArc
 50
272.0875833436337
 51
297.912412482236
  0
CIRCLE
  5
263
330
1F
100
AcDbEntity
  8
0
  6
CONTINUOUS
 62
     7
100
AcDbCircle
 10
-120.2367706298828
 20
205.0727462768555
 30
0.0
 40
10.0
  0
ARC
  5
264
330
1F
100
AcDbEntity
  8
0
  6
CONTINUOUS
 62
     7
100
AcDbCircle
 10
-137.5
 20
269.5
 30
0.0
 40
105.0
100
AcDbArc
 50
340.1479441867839
 51
79.85205577532089
  0
ARC
  5
265
330
1F
100
AcDbEntity
  8
0
  6
CONTINUOUS
 62
     7
100
AcDbCircle
 10
-425.5
 20
326.0
 30
0.0
 40
2.0
100
AcDbArc
 50
90.00000250447816
 51
180.0000050089563
  0
ARC
  5
266
330
1F
100
AcDbEntity
  8
0
  6
CONTINUOUS
 62
     7
100
AcDbCircle
 10
-425.5
 20
213.0
 30
0.0
 40
2.0
100
AcDbArc
 50
179.999991348578
 51
270.0000006832453
  0
ARC
  5
267
330
1F
100
AcDbEntity
  8
0
  6
CONTINUOUS
 62
     7
100
AcDbCircle
 10
-362.8533325195312
 20
234.391487121582
 30
0.0
 40
5.199999809265137
100
AcDbArc
 50
23.92142787919631
 51
69.12010738156002
  0
ARC
  5
268
330
1F
100
AcDbEntity
  8
0
  6
CONTINUOUS
 62
     7
100
AcDbCircle
 10
-362.8533325195312
 20
234.608512878418
 30
0.0
 40
5.199999809265137
100
AcDbArc
 50
290.87989261844
 51
336.0785721208037
  0
CIRCLE
  5
269
330
1F
100
AcDbEntity
  8
0
  6
CONTINUOUS
 62
     7
100
AcDbCircle
 10
-66.96222686767578
 20
228.7749977111816
 30
0.0
 40
10.0
  0
CIRCLE
  5
26A
330
1F
100
AcDbEntity
  8
0
  6
CONTINUOUS
 62
     7
100
AcDbCircle
 10
-88.61285781860352
 20
241.274995803833
 30
0.0
 40
10.0
  0
ARC
  5
26B
330
1F
100
AcDbEntity
  8
0
  6
CONTINUOUS
 62
     7
100
AcDbCircle
 10
-137.5
 20
269.5
 30
0.0
 40
105.0
100
AcDbArc
 50
205.6678185711949
 51
214.3321867409229
  0
ARC
  5
26C
330
1F
100
AcDbEntity
  8
0
  6
CONTINUOUS
 62
     7
100
AcDbCircle
 10
-137.5
 20
269.5
 30
0.0
 40
106.3218688964844
100
AcDbArc
 50
220.0204639043579
 51
238.7103656849056
  0
ARC
  5
26D
330
1F
100
AcDbEntity
  8
0
  6
CENTER
 62
     7
100
AcDbCircle
 10
-137.5
 20
269.5
 30
0.0
 40
35.0
100
AcDbArc
 50
16.46310377725792
 51
43.5368961848469
  0
ARC
  5
26E
330
1F
100
AcDbEntity
  8
0
  6
CENTER
 62
     7
100
AcDbCircle
 10
-137.5
 20
269.5
 30
0.0
 40
66.69999694824219
100
AcDbArc
 50
2.087584994338221
 51
27.91241669426148
  0
ARC
  5
26F
330
1F
100
AcDbEntity
  8
0
  6
CENTER
 62
     7
100
AcDbCircle
 10
-137.5
 20
269.5
 30
0.0
 40
66.69999694824219
100
AcDbArc
 50
32.08758326784334
 51
57.91241582154025
  0
ARC
  5
270
330
1F
100
AcDbEntity
  8
0
  6
CENTER
 62
     7
100
AcDbCircle
 10
-137.5
 20
269.5
 30
0.0
 40
66.69999694824219
100
AcDbArc
 50
152.0875763618638
 51
177.9124123306553
  0
ARC
  5
271
330
1F
100
AcDbEntity
  8
0
  6
CENTER
 62
     7
100
AcDbCircle
 10
-137.5
 20
269.5
 30
0.0
 40
35.0
100
AcDbArc
 50
136.4631088241094
 51
163.5368995241511
  0
ARC
  5
272
330
1F
100
AcDbEntity
  8
0
  6
CENTER
 62
     7
100
AcDbCircle
 10
-137.5
 20
269.5
 30
0.0
 40
66.69999694824219
100
AcDbArc
 50
122.0875823572269
 51
147.9124183260184
  0
ARC
  5
273
330
1F
100
AcDbEntity
  8
0
  6
DASHED
 62
     7
100
AcDbCircle
 10
-383.0
 20
370.9495162963867
 30
0.0
 40
1.25
100
AcDbArc
 50
36.86989730957868
 51
143.1300974540939
  0
ARC
  5
274
330
1F
100
AcDbEntity
  8
0
  6
CONTINUOUS
 62
     7
100
AcDbCircle
 10
-137.5
 20
269.5
 30
0.0
 40
26.5
100
AcDbArc
 50
131.3286586463434
 51
288.6713409083645
  0
ARC
  5
275
330
1F
100
AcDbEntity
  8
0
  6
CONTINUOUS
 62
     7
100
AcDbCircle
 10
-137.5
 20
269.5
 30
0.0
 40
26.5
100
AcDbArc
 50
11.32865820105138
 51
48.67134135365657
  0
ARC
  5
276
330
1F
100
AcDbEntity
  8
0
  6
CENTER
 62
     7
100
AcDbCircle
 10
-137.5
 20
269.5
 30
0.0
 40
33.0
100
AcDbArc
 50
225.9601899100758
 51
267.176552088234
  0
CIRCLE
  5
277
330
1F
100
AcDbEntity
  8
0
  6
CONTINUOUS
 62
     7
100
AcDbCircle
 10
-105.6244477324607
 20
278.0410284883832
 30
0.0
 40
2.0
  0
CIRCLE
  5
278
330
1F
100
AcDbEntity
  8
0
  6
CONTINUOUS
 62
     7
100
AcDbCircle
 10
-105.6244477324607
 20
278.0410284883832
 30
0.0
 40
1.65
  0
CIRCLE
  5
279
330
1F
100
AcDbEntity
  8
0
  6
CONTINUOUS
 62
     7
100
AcDbCircle
 10
-146.0410284883832
 20
237.6244477324607
 30
0.0
 40
2.0
  0
CIRCLE
  5
27A
330
1F
100
AcDbEntity
  8
0
  6
CONTINUOUS
 62
     7
100
AcDbCircle
 10
-146.0410284883832
 20
237.6244477324607
 30
0.0
 40
1.65
  0
ARC
  5
27B
330
1F
100
AcDbEntity
  8
0
  6
CENTER
 62
     7
100
AcDbCircle
 10
-137.5
 20
269.5
 30
0.0
 40
33.0
100
AcDbArc
 50
2.823447911766068
 51
51.6655456802478
  0
CIRCLE
  5
27C
330
1F
100
AcDbEntity
  8
0
  6
CONTINUOUS
 62
     7
100
AcDbCircle
 10
-160.8345237791561
 20
292.834523779156
 30
0.0
 40
2.0
  0
CIRCLE
  5
27D
330
1F
100
AcDbEntity
  8
0
  6
CONTINUOUS
 62
     7
100
AcDbCircle
 10
-160.8345237791561
 20
292.834523779156
 30
0.0
 40
1.65
  0
ARC
  5
27E
330
1F
100
AcDbEntity
  8
0
  6
CENTER
 62
     7
100
AcDbCircle
 10
-137.5
 20
269.5
 30
0.0
 40
33.0
100
AcDbArc
 50
126.3104959147547
 51
143.6895040852453
  0
CIRCLE
  5
27F
330
1F
100
AcDbEntity
  8
0
  6
CONTINUOUS
 62
     7
100
AcDbCircle
 10
-137.5
 20
189.5
 30
0.0
 40
4.0
  0
CIRCLE
  5
280
330
1F
100
AcDbEntity
  8
0
  6
CONTINUOUS
 62
     7
100
AcDbCircle
 10
-137.5
 20
219.5
 30
0.0
 40
4.0
  0
CIRCLE
  5
281
330
1F
100
AcDbEntity
  8
0
  6
CONTINUOUS
 62
     7
100
AcDbCircle
 10
-137.5
 20
219.5
 30
0.0
 40
3.4
  0
CIRCLE
  5
282
330
1F
100
AcDbEntity
  8
0
  6
CONTINUOUS
 62
     7
100
AcDbCircle
 10
-94.19872981077806
 20
294.5
 30
0.0
 40
4.0
  0
CIRCLE
  5
283
330
1F
100
AcDbEntity
  8
0
  6
CONTINUOUS
 62
     7
100
AcDbCircle
 10
-206.7820323027551
 20
309.5
 30
0.0
 40
3.4
  0
CIRCLE
  5
284
330
1F
100
AcDbEntity
  8
0
  6
CONTINUOUS
 62
     7
100
AcDbCircle
 10
-137.5
 20
189.5
 30
0.0
 40
3.4
  0
CIRCLE
  5
285
330
1F
100
AcDbEntity
  8
0
  6
CONTINUOUS
 62
     7
100
AcDbCircle
 10
-94.19872981077806
 20
294.5
 30
0.0
 40
3.4
  0
CIRCLE
  5
286
330
1F
100
AcDbEntity
  8
0
  6
CONTINUOUS
 62
     7
100
AcDbCircle
 10
-68.2179676972449
 20
309.5
 30
0.0
 40
3.4
  0
CIRCLE
  5
287
330
1F
100
AcDbEntity
  8
0
  6
CONTINUOUS
 62
     7
100
AcDbCircle
 10
-180.8012701892219
 20
294.5
 30
0.0
 40
3.4
  0
CIRCLE
  5
288
330
1F
100
AcDbEntity
  8
0
  6
CONTINUOUS
 62
     7
100
AcDbCircle
 10
-180.8012701892219
 20
294.5
 30
0.0
 40
4.0
  0
CIRCLE
  5
289
330
1F
100
AcDbEntity
  8
0
  6
CONTINUOUS
 62
     7
100
AcDbCircle
 10
-68.2179676972449
 20
309.5
 30
0.0
 40
4.0
  0
CIRCLE
  5
28A
330
1F
100
AcDbEntity
  8
0
  6
CONTINUOUS
 62
     7
100
AcDbCircle
 10
-206.7820323027551
 20
309.5
 30
0.0
 40
4.0
  0
ARC
  5
28B
330
1F
100
AcDbEntity
  8
0
  6
CONTINUOUS
 62
     7
100
AcDbCircle
 10
-137.5
 20
269.5
 30
0.0
 40
28.5
100
AcDbArc
 50
127.8818414581009
 51
292.118158096607
  0
ARC
  5
28C
330
1F
100
AcDbEntity
  8
0
  6
CONTINUOUS
 62
     7
100
AcDbCircle
 10
-137.5
 20
269.5
 30
0.0
 40
28.5
100
AcDbArc
 50
7.88184101280893
 51
52.11815854189904
  0
ARC
  5
28D
330
1F
100
AcDbEntity
  8
0
  6
DASHED
 62
     7
100
AcDbCircle
 10
-137.5
 20
370.9499969482422
 30
0.0
 40
1.25
100
AcDbArc
 50
36.86989730957868
 51
143.1300974540939
  0
ARC
  5
28E
330
1F
100
AcDbEntity
  8
0
  6
DASHED
 62
     7
100
AcDbCircle
 10
-225.3582766422243
 20
218.7750015477533
 30
0.0
 40
1.25
100
AcDbArc
 50
156.8698977548707
 51
263.130097899386
  0
ARC
  5
28F
330
1F
100
AcDbEntity
  8
0
  6
DASHED
 62
     7
100
AcDbCircle
 10
-49.6417233577757
 20
218.7750015477533
 30
0.0
 40
1.25
100
AcDbArc
 50
276.8698968642866
 51
23.13009700880183
  0
SPLINE
  5
290
330
1F
100
AcDbEntity
  8
0
  6
CONTINUOUS
 62
     7
100
AcDbSpline
210
0.0
220
0.0
230
1.0
 70
  1064
 71
     3
 72
    12
 73
     8
 74
     6
 42
0.0000000001
 43
0.0000000001
 44
0.0000000001
 12
0.9998633907499583
 22
-0.01652875790844561
 32
0.0
 13
0.8588027576760413
 23
-0.5123063765053357
 33
0.0
 40
0.0
 40
0.0
 40
0.0
 40
0.0
 40
16.02642828736042
 40
32.25598146249894
 40
48.89309645066305
 40
66.12562440019073
 40
84.10450037261155
 40
84.10450037261155
 40
84.10450037261155
 40
84.10450037261155
 10
-220.0
 20
116.9000015258789
 30
0.0
 10
-214.6585870236629
 20
116.811702541446
 30
0.0
 10
-203.8966934347229
 20
116.3078066502376
 30
0.0
 10
-187.8021873154006
 20
113.511715858268
 30
0.0
 10
-171.7085740428711
 20
108.9273864717518
 30
0.0
 10
-155.6884632630104
 20
102.3946939622693
 30
0.0
 10
-145.1467694216769
 20
97.17023131582631
 30
0.0
 10
-140.0
 20
94.10000038146973
 30
0.0
 11
-220.0
 21
116.9000015258789
 31
0.0
 11
-204.0
 21
115.9799995422363
 31
0.0
 11
-188.0
 21
113.2600002288818
 31
0.0
 11
-172.0
 21
108.7000007629395
 31
0.0
 11
-156.0
 21
102.2999992370605
 31
0.0
 11
-140.0
 21
94.10000038146973
 31
0.0
  0
MTEXT
  5
291
330
1F
100
AcDbEntity
  8
0
 62
     7
100
AcDbMText
 10
-22.20000000298023
 20
77.60000002384186
 30
0.0
 40
7.0
 41
0.0
 71
     5
 72
     1
  1
{\W1;S}
  0
MTEXT
  5
292
330
1F
100
AcDbEntity
  8
0
 62
     7
100
AcDbMText
 10
-22.40000000596046
 20
77.60000002384186
 30
0.0
 40
7.0
 41
0.0
 71
     5
 72
     1
  1
{\W1;S}
  0
MTEXT
  5
293
330
1F
100
AcDbEntity
  8
0
 62
     7
100
AcDbMText
 10
-22.30000001192093
 20
77.69999998807907
 30
0.0
 40
7.0
 41
0.0
 71
     5
 72
     1
  1
{\W1;S}
  0
MTEXT
  5
294
330
1F
100
AcDbEntity
  8
0
 62
     7
100
AcDbMText
 10
-22.30000001192093
 20
77.5
 30
0.0
 40
7.0
 41
0.0
 71
     5
 72
     1
  1
{\W1;S}
  0
MTEXT
  5
295
330
1F
100
AcDbEntity
  8
0
 62
     7
100
AcDbMText
 10
-204.0
 20
79.5
 30
0.0
 40
3.0
 41
0.0
 71
     5
 72
     1
  1
{\W1;1000}
  0
MTEXT
  5
296
330
1F
100
AcDbEntity
  8
0
 62
     7
100
AcDbMText
 10
-188.0
 20
79.5
 30
0.0
 40
3.0
 41
0.0
 71
     5
 72
     1
  1
{\W1;2000}
  0
MTEXT
  5
297
330
1F
100
AcDbEntity
  8
0
 62
     7
100
AcDbMText
 10
-227.2857142388821
 20
89.0
 30
0.0
 40
3.0
 41
0.0
 71
     7
 72
     1
  1
{\W1;20}
  0
MTEXT
  5
298
330
1F
100
AcDbEntity
  8
0
 62
     7
100
AcDbMText
 10
-227.2857142388821
 20
105.0
 30
0.0
 40
3.0
 41
0.0
 71
     7
 72
     1
  1
{\W1;60}
  0
MTEXT
  5
299
330
1F
100
AcDbEntity
  8
0
 62
     7
100
AcDbMText
 10
-223.0
 20
79.5
 30
0.0
 40
3.0
 41
0.0
 71
     5
 72
     1
  1
{\W1;0}
  0
MTEXT
  5
29A
330
1F
100
AcDbEntity
  8
0
 62
     7
100
AcDbMText
 10
-180.0
 20
73.5
 30
0.0
 40
3.5
 41
0.0
 71
     5
 72
     1
  1
{\W0.833333;回転数（ｒ／ｍｉｎ）}
  0
MTEXT
  5
29B
330
1F
100
AcDbEntity
  8
0
 62
     7
100
AcDbMText
 10
-234.0
 20
102.5
 30
0.0
 40
3.5
 41
0.0
 71
     5
 72
     1
  1
{\W0.833333;把握力（ｋＮ）}
 11
6.123233995736766E-17
 21
1.0
 31
0.0
  0
MTEXT
  5
29C
330
1F
100
AcDbEntity
  8
0
 62
     7
100
AcDbMText
 10
-227.2857142388821
 20
97.0
 30
0.0
 40
3.0
 41
0.0
 71
     7
 72
     1
  1
{\W1;40}
  0
MTEXT
  5
29D
330
1F
100
AcDbEntity
  8
0
 62
     7
100
AcDbMText
 10
-172.0
 20
79.5
 30
0.0
 40
3.0
 41
0.0
 71
     5
 72
     1
  1
{\W1;3000}
  0
MTEXT
  5
29E
330
1F
100
AcDbEntity
  8
0
 62
     7
100
AcDbMText
 10
-140.0
 20
79.5
 30
0.0
 40
3.0
 41
0.0
 71
     5
 72
     1
  1
{\W1;5000}
  0
MTEXT
  5
29F
330
1F
100
AcDbEntity
  8
0
 62
     7
100
AcDbMText
 10
-156.0
 20
79.5
 30
0.0
 40
3.0
 41
0.0
 71
     5
 72
     1
  1
{\W1;4000}
  0
MTEXT
  5
2A0
330
1F
100
AcDbEntity
  8
0
 62
     7
100
AcDbMText
 10
-180.0
 20
127.5
 30
0.0
 40
3.5
 41
0.0
 71
     5
 72
     1
  1
{\W0.833333;把握力特性図（標準生爪使用時）}
  0
MTEXT
  5
2A1
330
1F
100
AcDbEntity
  8
0
 62
     7
100
AcDbMText
 10
-227.2857142388821
 20
113.0
 30
0.0
 40
3.0
 41
0.0
 71
     7
 72
     1
  1
{\W1;80}
  0
MTEXT
  5
2A2
330
1F
100
AcDbEntity
  8
0
 62
     7
100
AcDbMText
 10
-230.2857142090797
 20
121.0
 30
0.0
 40
3.0
 41
0.0
 71
     7
 72
     1
  1
{\W1;100}
  0
DIMENSION
  5
2A3
330
1F
100
AcDbEntity
  8
0
 62
     7
100
AcDbDimension
  2
*D2
 10
-257.0306981095524
 20
153.2404571814105
 30
0.0
 11
-251.833358215332
 21
156.2411428222656
 31
0.0
 70
   160
  1
12
  3
ISO-25
100
AcDbAlignedDimension
 13
-263.5975764249057
 23
188.6146235435102
 33
0.0
 14
-272.114881913704
 24
179.3670294519829
 34
0.0
 50
30.00000044529215
100
AcDbRotatedDimension
1001
ACAD
1000
DSTYLE
1002
{
1070
   287
1070
     3
1070
     7
1000
OPEN30
1070
     6
1000
OPEN30
1070
   278
1070
    46
1070
   147
1040
0.875
1070
    77
1070
     1
1070
    74
1070
     0
1070
    73
1070
     0
1070
    42
1040
2.54
1070
    44
1040
1.270000457763598
1070
    76
1070
     0
1070
    75
1070
     0
1070
   279
1070
     0
1070
   271
1070
     0
1070
   173
1070
     1
1070
    41
1040
3.0
1070
   140
1040
3.5
1002
}
  0
DIMENSION
  5
2B7
330
1F
100
AcDbEntity
  8
0
 62
     7
100
AcDbDimension
  2
*D3
 10
-248.1997467782135
 20
197.504566996939
 30
0.0
 11
-251.6997451782227
 21
203.5667419433594
 31
0.0
 70
   160
  1
14h8
  3
ISO-25
100
AcDbAlignedDimension
 13
-270.5975774728082
 23
200.7389807939019
 33
0.0
 14
-263.5975773785799
 24
188.6146251953224
 34
0.0
 50
120.000000445292
100
AcDbRotatedDimension
1001
ACAD
1000
DSTYLE
1002
{
1070
   287
1070
     3
1070
     7
1000
OPEN30
1070
     6
1000
OPEN30
1070
   278
1070
    46
1070
   147
1040
0.875
1070
    77
1070
     1
1070
    74
1070
     0
1070
    73
1070
     0
1070
    42
1040
2.54
1070
    44
1040
1.269989013671857
1070
    76
1070
     0
1070
    75
1070
     0
1070
   279
1070
     0
1070
   271
1070
     0
1070
   173
1070
     1
1070
    41
1040
3.0
1070
   140
1040
3.5
1002
}
  0
DIMENSION
  5
2C5
330
1F
100
AcDbEntity
  8
0
 62
     7
100
AcDbDimension
  2
*D5
 10
-286.7283734842076
 20
222.6783386314803
 30
0.0
 11
-295.4509813119856
 21
217.6423385636899
 31
0.0
 70
   160
  1
2
  3
ISO-25
100
AcDbAlignedDimension
 13
-286.1611419232444
 23
217.6958648197138
 33
0.0
 14
-278.9456535114869
 24
209.1982724595902
 34
0.0
 50
210.0000004452916
100
AcDbRotatedDimension
1001
ACAD
1000
DSTYLE
1002
{
1070
   287
1070
     3
1070
     7
1000
NONE
1070
     6
1000
OPEN30
1070
   278
1070
    46
1070
   147
1040
0.875
1070
    77
1070
     1
1070
    74
1070
     0
1070
    73
1070
     0
1070
    42
1040
2.54
1070
    44
1040
1.269996643066412
1070
    76
1070
     1
1070
    75
1070
     1
1070
   279
1070
     0
1070
   271
1070
     0
1070
   173
1070
     1
1070
    41
1040
3.0
1070
   140
1040
3.5
1002
}
  0
DIMENSION
  5
2D8
330
1F
100
AcDbEntity
  8
0
 62
     7
100
AcDbDimension
  2
*D7
 10
-286.7281206878013
 20
222.677900775268
 30
0.0
 11
-277.1470651823739
 21
228.2095258497302
 31
0.0
 70
   160
  1
3
  3
ISO-25
100
AcDbAlignedDimension
 13
-270.5975765191339
 23
200.7389791420896
 33
0.0
 14
-278.445649690059
 24
208.3322404524422
 34
0.0
 50
30.00000044529245
100
AcDbRotatedDimension
1001
ACAD
1000
DSTYLE
1002
{
1070
   287
1070
     3
1070
     7
1000
ORIGIN
1070
     6
1000
OPEN30
1070
   278
1070
    46
1070
   147
1040
0.875
1070
    77
1070
     1
1070
    74
1070
     0
1070
    73
1070
     0
1070
    42
1040
2.54
1070
    44
1040
1.270000457763704
1070
    76
1070
     0
1070
    75
1070
     0
1070
   279
1070
     0
1070
   271
1070
     0
1070
   173
1070
     1
1070
    41
1040
3.0
1070
   140
1040
3.5
1002
}
  0
DIMENSION
  5
2F4
330
1F
100
AcDbEntity
  8
0
 62
     7
100
AcDbDimension
  2
*D8
 10
-264.3921656564218
 20
148.9908929908496
 30
0.0
 11
-270.9864247253328
 21
145.1836956739753
 31
0.0
 70
   160
  1
8.5
  3
ISO-25
100
AcDbAlignedDimension
 13
-272.4898800114033
 23
180.0165451982821
 33
0.0
 14
-281.3510952154769
 24
178.3646201019084
 34
0.0
 50
30.000000445292
100
AcDbRotatedDimension
1001
ACAD
1000
DSTYLE
1002
{
1070
   287
1070
     3
1070
     7
1000
OPEN30
1070
     6
1000
OPEN30
1070
   278
1070
    46
1070
   147
1040
0.875
1070
    77
1070
     1
1070
    74
1070
     0
1070
    73
1070
     0
1070
    42
1040
2.54
1070
    44
1040
1.270000457763676
1070
    76
1070
     0
1070
    75
1070
     1
1070
   279
1070
     0
1070
    78
1070
     0
1070
   271
1070
     1
1070
   173
1070
     1
1070
    41
1040
3.0
1070
   140
1040
3.5
1002
}
  0
DIMENSION
  5
301
330
1F
100
AcDbEntity
  8
0
 62
     7
100
AcDbDimension
  2
*D9
 10
-309.233494616029
 20
158.802613439382
 30
0.0
 11
-314.2336801757813
 21
167.4631887207031
 31
0.0
 70
   160
  1
20
  3
ISO-25
100
AcDbAlignedDimension
 13
-287.2530349673045
 23
194.5870488334645
 33
0.0
 14
-277.2530348326928
 24
177.2665408354939
 34
0.0
 50
120.000000445292
100
AcDbRotatedDimension
1001
ACAD
1000
DSTYLE
1002
{
1070
   287
1070
     3
1070
     7
1000
OPEN30
1070
     6
1000
OPEN30
1070
   278
1070
    46
1070
   147
1040
0.875
1070
    77
1070
     1
1070
    74
1070
     0
1070
    73
1070
     0
1070
    42
1040
2.54
1070
    44
1040
1.270004272460968
1070
    76
1070
     0
1070
    75
1070
     0
1070
   279
1070
     0
1070
   271
1070
     0
1070
   173
1070
     1
1070
    41
1040
3.0
1070
   140
1040
3.5
1002
}
  0
DIMENSION
  5
30E
330
1F
100
AcDbEntity
  8
0
 62
     7
100
AcDbDimension
  2
*D10
 10
-483.998
 20
236.5
 30
0.0
 11
-483.998
 21
269.501
 31
0.0
 70
   160
  1
\U+220566
  3
ISO-25
100
AcDbAlignedDimension
 13
-428.0
 23
302.5
 33
0.0
 14
-428.0
 24
236.5
 34
0.0
 50
90.00000000000001
100
AcDbRotatedDimension
1001
ACAD
1000
DSTYLE
1002
{
1070
   287
1070
     3
1070
     7
1000
OPEN30
1070
     6
1000
OPEN30
1070
   278
1070
    46
1070
   147
1040
0.875
1070
    77
1070
     1
1070
    74
1070
     0
1070
    73
1070
     0
1070
    42
1040
2.54
1070
    44
1040
1.269989013671875
1070
    76
1070
     0
1070
    75
1070
     0
1070
   279
1070
     0
1070
   271
1070
     0
1070
   173
1070
     1
1070
    41
1040
3.0
1070
   140
1040
3.5
1002
}
  0
DIMENSION
  5
31B
330
1F
100
AcDbEntity
  8
0
 62
     7
100
AcDbDimension
  2
*D11
 10
-324.5
 20
304.5
 30
0.0
 11
-324.5
 21
269.501
 31
0.0
 70
   160
  1
\U+220570
  3
ISO-25
100
AcDbAlignedDimension
 13
-355.1000061035156
 23
234.5
 33
0.0
 14
-354.2089538574219
 24
304.5
 34
0.0
 50
270.0
100
AcDbRotatedDimension
1001
ACAD
1000
DSTYLE
1002
{
1070
   287
1070
     3
1070
     7
1000
NONE
1070
     6
1000
OPEN30
1070
   278
1070
    46
1070
   147
1040
0.875
1070
    77
1070
     1
1070
    74
1070
     0
1070
    73
1070
     0
1070
    42
1040
2.54
1070
    44
1040
1.270004272460938
1070
    76
1070
     1
1070
    75
1070
     0
1070
   279
1070
     0
1070
   271
1070
     0
1070
   173
1070
     1
1070
    41
1040
3.0
1070
   140
1040
3.5
1002
}
  0
DIMENSION
  5
32B
330
1F
100
AcDbEntity
  8
0
 62
     7
100
AcDbDimension
  2
*D12
 10
-313.5
 20
310.5
 30
0.0
 11
-313.5
 21
269.501
 31
0.0
 70
   160
  1
\U+220582
  3
ISO-25
100
AcDbAlignedDimension
 13
-357.5
 23
228.5
 33
0.0
 14
-357.5
 24
310.5
 34
0.0
 50
270.0
100
AcDbRotatedDimension
1001
ACAD
1000
DSTYLE
1002
{
1070
   287
1070
     3
1070
     7
1000
NONE
1070
     6
1000
OPEN30
1070
   278
1070
    46
1070
   147
1040
0.875
1070
    77
1070
     1
1070
    74
1070
     0
1070
    73
1070
     0
1070
    42
1040
2.54
1070
    44
1040
1.270004272460938
1070
    76
1070
     1
1070
    75
1070
     0
1070
   279
1070
     0
1070
   271
1070
     0
1070
   173
1070
     1
1070
    41
1040
3.0
1070
   140
1040
3.5
1002
}
  0
DIMENSION
  5
33B
330
1F
100
AcDbEntity
  8
0
 62
     7
100
AcDbDimension
  2
*D13
 10
-357.5
 20
145.501
 30
0.0
 11
-400.499
 21
145.501
 31
0.0
 70
   160
  1
86
  3
ISO-25
100
AcDbAlignedDimension
 13
-443.5
 23
184.5
 33
0.0
 14
-357.5
 24
150.1647186279297
 34
0.0
 50
180.0
100
AcDbRotatedDimension
1001
ACAD
1000
DSTYLE
1002
{
1070
   287
1070
     3
1070
     7
1000
OPEN30
1070
     6
1000
OPEN30
1070
   278
1070
    46
1070
   147
1040
0.875
1070
    77
1070
     1
1070
    74
1070
     0
1070
    73
1070
     0
1070
    42
1040
2.54
1070
    44
1040
1.270004272460938
1070
    76
1070
     1
1070
    75
1070
     0
1070
   279
1070
     0
1070
   271
1070
     0
1070
   173
1070
     1
1070
    41
1040
3.0
1070
   140
1040
3.5
1002
}
  0
DIMENSION
  5
347
330
1F
100
AcDbEntity
  8
0
 62
     7
100
AcDbDimension
  2
*D14
 10
-291.499
 20
279.9500036239624
 30
0.0
 11
-291.499
 21
327.451008392334
 31
0.0
 70
   160
  1
95
  3
ISO-25
100
AcDbAlignedDimension
 13
-318.1990051269531
 23
374.9500045776367
 33
0.0
 14
-318.1990051269531
 24
279.9500036239624
 34
0.0
 50
90.00000000000001
100
AcDbRotatedDimension
1001
ACAD
1000
DSTYLE
1002
{
1070
   287
1070
     3
1070
     7
1000
OPEN30
1070
     6
1000
OPEN30
1070
   278
1070
    46
1070
   147
1040
0.875
1070
    77
1070
     1
1070
    74
1070
     0
1070
    73
1070
     0
1070
    42
1040
2.54
1070
    44
1040
1.270004272460938
1070
    76
1070
     0
1070
    75
1070
     0
1070
   279
1070
     0
1070
   271
1070
     0
1070
   173
1070
     1
1070
    41
1040
3.0
1070
   140
1040
3.5
1002
}
  0
DIMENSION
  5
354
330
1F
100
AcDbEntity
  8
0
 62
     7
100
AcDbDimension
  2
*D15
 10
-302.499
 20
374.9500045776367
 30
0.0
 11
-302.499
 21
362.9510045776367
 31
0.0
 70
   160
  1
24
  3
ISO-25
100
AcDbAlignedDimension
 13
-313.1990051269531
 23
350.9500045776367
 33
0.0
 14
-247.2299957275391
 24
374.9500045776367
 34
0.0
 50
270.0
100
AcDbRotatedDimension
1001
ACAD
1000
DSTYLE
1002
{
1070
   287
1070
     3
1070
     7
1000
OPEN30
1070
     6
1000
OPEN30
1070
   278
1070
    46
1070
   147
1040
0.875
1070
    77
1070
     1
1070
    74
1070
     0
1070
    73
1070
     0
1070
    42
1040
2.54
1070
    44
1040
1.270004272460938
1070
    76
1070
     1
1070
    75
1070
     0
1070
   279
1070
     0
1070
   271
1070
     0
1070
   173
1070
     1
1070
    41
1040
3.0
1070
   140
1040
3.5
1002
}
  0
DIMENSION
  5
360
330
1F
100
AcDbEntity
  8
0
 62
     7
100
AcDbDimension
  2
*D16
 10
-302.498
 20
325.950008392334
 30
0.0
 11
-302.498
 21
338.4510045776367
 31
0.0
 70
   160
  1
25
  3
ISO-25
100
AcDbAlignedDimension
 13
-269.2299957275391
 23
350.9500045776367
 33
0.0
 14
-313.1990051269531
 24
325.950008392334
 34
0.0
 50
90.00000000000001
100
AcDbRotatedDimension
1001
ACAD
1000
DSTYLE
1002
{
1070
   287
1070
     3
1070
     7
1000
OPEN30
1070
     6
1000
OPEN30
1070
   278
1070
    46
1070
   147
1040
0.875
1070
    77
1070
     1
1070
    74
1070
     0
1070
    73
1070
     0
1070
    42
1040
2.54
1070
    44
1040
1.270004272460938
1070
    76
1070
     0
1070
    75
1070
     1
1070
   279
1070
     0
1070
   271
1070
     0
1070
   173
1070
     1
1070
    41
1040
3.0
1070
   140
1040
3.5
1002
}
  0
DIMENSION
  5
36C
330
1F
100
AcDbEntity
  8
0
 62
     7
100
AcDbDimension
  2
*D17
 10
-318.1990051269531
 20
401.5
 30
0.0
 11
-337.8485025634766
 21
401.5
 31
0.0
 70
   160
  1
39
  3
ISO-25
100
AcDbAlignedDimension
 13
-357.5
 23
372.5
 33
0.0
 14
-318.1990051269531
 24
374.9500045776367
 34
0.0
 50
180.0
100
AcDbRotatedDimension
1001
ACAD
1000
DSTYLE
1002
{
1070
   287
1070
     3
1070
     7
1000
OPEN30
1070
     6
1000
OPEN30
1070
   278
1070
    46
1070
   147
1040
0.875
1070
    77
1070
     1
1070
    74
1070
     0
1070
    73
1070
     0
1070
    42
1040
2.54
1070
    44
1040
1.270004272460938
1070
    76
1070
     0
1070
    75
1070
     0
1070
   279
1070
     0
1070
   271
1070
     0
1070
   173
1070
     1
1070
    41
1040
3.0
1070
   140
1040
3.5
1002
}
  0
DIMENSION
  5
379
330
1F
100
AcDbEntity
  8
0
 62
     7
100
AcDbDimension
  2
*D18
 10
-363.5
 20
156.501
 30
0.0
 11
-360.498
 21
156.501
 31
0.0
 70
   160
  1
6
  3
ISO-25
100
AcDbAlignedDimension
 13
-357.5
 23
166.5
 33
0.0
 14
-363.5
 24
228.5
 34
0.0
100
AcDbRotatedDimension
1001
ACAD
1000
DSTYLE
1002
{
1070
   287
1070
     3
1070
     7
1000
OPEN30
1070
     6
1000
OPEN30
1070
   278
1070
    46
1070
   147
1040
0.875
1070
    77
1070
     1
1070
    74
1070
     0
1070
    73
1070
     0
1070
    42
1040
2.54
1070
    44
1040
1.269996643066406
1070
    76
1070
     0
1070
    75
1070
     1
1070
   279
1070
     0
1070
   271
1070
     0
1070
   173
1070
     1
1070
    41
1040
3.0
1070
   140
1040
3.5
1002
}
  0
DIMENSION
  5
38D
330
1F
100
AcDbEntity
  8
0
 62
     7
100
AcDbDimension
  2
*D19
 10
-427.5
 20
346.501
 30
0.0
 11
-430.1384958496094
 21
346.501
 31
0.0
 70
   160
  1
\A1;MAX{\H0.5x;\S ;}16\PMIN{\H0.5x;\S ;} 0
  3
ISO-25
100
AcDbAlignedDimension
 13
-443.5
 23
354.5
 33
0.0
 14
-427.5
 24
326.0
 34
0.0
 50
180.0
100
AcDbRotatedDimension
1001
ACAD
1000
DSTYLE
1002
{
1070
   287
1070
     3
1070
     7
1000
OPEN30
1070
     6
1000
OPEN30
1070
   278
1070
    46
1070
   147
1040
0.875
1070
    77
1070
     1
1070
    74
1070
     0
1070
    73
1070
     0
1070
    42
1040
2.54
1070
    44
1040
1.269996643066406
1070
    76
1070
     0
1070
    75
1070
     1
1070
   279
1070
     0
1070
   271
1070
     0
1070
   173
1070
     1
1070
    41
1040
3.0
1070
   140
1040
3.5
1002
}
  0
DIMENSION
  5
399
330
1F
100
AcDbEntity
  8
0
 62
     7
100
AcDbDimension
  2
*D20
 10
-429.0
 20
313.5
 30
0.0
 11
-417.1425
 21
313.5
 31
0.0
 70
   160
  1
\A1;1.5
  3
ISO-25
100
AcDbAlignedDimension
 13
-427.5
 23
302.5
 33
0.0
 14
-429.0
 24
301.5
 34
0.0
100
AcDbRotatedDimension
1001
ACAD
1000
DSTYLE
1002
{
1070
   287
1070
     3
1070
     7
1000
NONE
1070
     6
1000
OPEN30
1070
   278
1070
    46
1070
   147
1040
0.875
1070
    77
1070
     1
1070
    74
1070
     0
1070
    73
1070
     0
1070
    42
1040
2.54
1070
    44
1040
1.270000457763672
1070
    76
1070
     1
1070
    75
1070
     1
1070
   279
1070
     0
1070
    78
1070
     0
1070
   271
1070
     1
1070
   173
1070
     1
1070
    41
1040
3.0
1070
   140
1040
3.5
1002
}
  0
INSERT
  5
3AF
330
1F
100
AcDbEntity
  8
0
 62
     7
100
AcDbBlockReference
  2
SYM0001
 10
-367.836084710392
 20
231.9999800413657
 30
0.0
  0
INSERT
  5
3B8
330
1F
100
AcDbEntity
  8
0
 62
     7
100
AcDbBlockReference
  2
SYM0002
 10
-272.0891629738483
 20
198.7231107327497
 30
0.0
  0
INSERT
  5
3C1
330
1F
100
AcDbEntity
  8
0
 62
     7
100
AcDbBlockReference
  2
SYM0003
 10
-355.4999959351466
 20
373.6232428842141
 30
0.0
  0
DIMENSION
  5
3C4
330
1F
100
AcDbEntity
  8
0
 62
     7
100
AcDbDimension
  2
*D24
 10
-302.499
 20
279.9500036239624
 30
0.0
 11
-302.499
 21
302.951008392334
 31
0.0
 70
   160
  1
46
  3
ISO-25
100
AcDbAlignedDimension
 13
-310.8848266601562
 23
325.950008392334
 33
0.0
 14
-318.1990051269531
 24
279.9500036239624
 34
0.0
 50
90.00000000000001
100
AcDbRotatedDimension
1001
ACAD
1000
DSTYLE
1002
{
1070
   287
1070
     3
1070
     7
1000
OPEN30
1070
     6
1000
OPEN30
1070
   278
1070
    46
1070
   147
1040
0.875
1070
    77
1070
     1
1070
    74
1070
     0
1070
    73
1070
     0
1070
    42
1040
2.54
1070
    44
1040
1.270004272460938
1070
    76
1070
     1
1070
    75
1070
     1
1070
   279
1070
     0
1070
   271
1070
     0
1070
   173
1070
     1
1070
    41
1040
3.0
1070
   140
1040
3.5
1002
}
  0
DIMENSION
  5
3CF
330
1F
100
AcDbEntity
  8
0
 62
     7
100
AcDbDimension
  2
*D25
 10
-384.998
 20
269.5
 30
0.0
 11
-384.998
 21
326.8407507629395
 31
0.0
 70
   160
  1
MAX 39.45\PMIN 35.76
  3
ISO-25
100
AcDbAlignedDimension
 13
-355.5
 23
308.9500007629395
 33
0.0
 14
-352.5
 24
269.5
 34
0.0
 50
90.00000000000001
100
AcDbRotatedDimension
1001
ACAD
1000
DSTYLE
1002
{
1070
   287
1070
     3
1070
     7
1000
OPEN30
1070
     6
1000
OPEN30
1070
   278
1070
    46
1070
   147
1040
0.875
1070
    77
1070
     1
1070
    74
1070
     0
1070
    73
1070
     0
1070
    42
1040
2.54
1070
    44
1040
1.269989013671875
1070
    76
1070
     1
1070
    75
1070
     0
1070
   279
1070
     0
1070
    78
1070
     0
1070
   271
1070
     2
1070
   173
1070
     1
1070
    41
1040
3.0
1070
   140
1040
3.5
1002
}
  0
DIMENSION
  5
3DC
330
1F
100
AcDbEntity
  8
0
 62
     7
100
AcDbDimension
  2
*D26
 10
-369.498
 20
308.9500007629395
 30
0.0
 11
-369.498
 21
322.4802060852051
 31
0.0
 70
   160
  1
MAX 29\PMIN 14
  3
ISO-25
100
AcDbAlignedDimension
 13
-362.5
 23
325.950008392334
 33
0.0
 14
-355.5
 24
308.9500007629395
 34
0.0
 50
90.00000000000001
100
AcDbRotatedDimension
1001
ACAD
1000
DSTYLE
1002
{
1070
   287
1070
     3
1070
     7
1000
OPEN30
1070
     6
1000
OPEN30
1070
    71
1070
     0
1070
    72
1070
     1
1070
    48
1040
0.0
1070
    47
1040
0.0
1070
   278
1070
    46
1070
   147
1040
0.875
1070
    77
1070
     1
1070
    74
1070
     0
1070
    73
1070
     0
1070
    42
1040
2.54
1070
    44
1040
1.270004272460938
1070
    76
1070
     1
1070
    75
1070
     0
1070
   279
1070
     0
1070
   271
1070
     0
1070
   173
1070
     1
1070
    41
1040
3.0
1070
   140
1040
3.5
1002
}
  0
DIMENSION
  5
3E8
330
1F
100
AcDbEntity
  8
0
 62
     7
100
AcDbDimension
  2
*D27
 10
-193.464411563557
 20
179.0990904692546
 30
0.0
 11
-199.3591776969718
 21
169.5771066755619
 31
0.0
 70
   163
  1
\U+2205212.7
  3
ISO-25
100
AcDbDiametricDimension
 15
-132.9048231281937
 25
276.9227202084345
 35
0.0
 40
0.0
1001
ACAD
1000
DSTYLE
1002
{
1070
   287
1070
     3
1070
     7
1000
OPEN30
1070
     6
1000
NONE
1070
   147
1040
0.875
1070
    77
1070
     1
1070
    74
1070
     0
1070
    73
1070
     0
1070
   279
1070
     0
1070
   271
1070
     0
1070
   278
1070
    46
1070
   173
1070
     1
1070
    41
1040
3.0
1070
   140
1040
3.5
1002
}
  0
DIMENSION
  5
3F7
330
1F
100
AcDbEntity
  8
0
 62
     7
100
AcDbDimension
  2
*D28
 10
-120.0
 20
390.5
 30
0.0
 11
-137.499
 21
390.5
 31
0.0
 70
   160
  1
35
  3
ISO-25
100
AcDbAlignedDimension
 13
-155.0
 23
374.9500045776367
 33
0.0
 14
-120.0
 24
374.9500045776367
 34
0.0
 50
180.0
100
AcDbRotatedDimension
1001
ACAD
1000
DSTYLE
1002
{
1070
   287
1070
     3
1070
     7
1000
OPEN30
1070
     6
1000
OPEN30
1070
   278
1070
    46
1070
   147
1040
0.875
1070
    77
1070
     1
1070
    74
1070
     0
1070
    73
1070
     0
1070
    42
1040
2.54
1070
    44
1040
1.269996643066406
1070
    76
1070
     0
1070
    75
1070
     0
1070
   279
1070
     0
1070
   271
1070
     0
1070
   173
1070
     1
1070
    41
1040
3.0
1070
   140
1040
3.5
1002
}
  0
DIMENSION
  5
404
330
1F
100
AcDbEntity
  8
0
 62
     7
100
AcDbDimension
  2
*D29
 10
-443.5
 20
156.501
 30
0.0
 11
-445.999
 21
156.501
 31
0.0
 70
   160
  1
5
  3
ISO-25
100
AcDbAlignedDimension
 13
-448.5
 23
166.5
 33
0.0
 14
-443.5
 24
184.5
 34
0.0
 50
180.0
100
AcDbRotatedDimension
1001
ACAD
1000
DSTYLE
1002
{
1070
   287
1070
     3
1070
     7
1000
OPEN30
1070
     6
1000
OPEN30
1070
   278
1070
    46
1070
   147
1040
0.875
1070
    77
1070
     1
1070
    74
1070
     0
1070
    73
1070
     0
1070
    42
1040
2.54
1070
    44
1040
1.269996643066406
1070
    76
1070
     1
1070
    75
1070
     1
1070
   279
1070
     0
1070
   271
1070
     0
1070
   173
1070
     1
1070
    41
1040
3.0
1070
   140
1040
3.5
1002
}
  0
DIMENSION
  5
416
330
1F
100
AcDbEntity
  8
0
 62
     7
100
AcDbDimension
  2
*D30
 10
-357.5
 20
401.5
 30
0.0
 11
-375.499
 21
401.5
 31
0.0
 70
   160
  1
36
  3
ISO-25
100
AcDbAlignedDimension
 13
-393.5
 23
375.8218688964844
 33
0.0
 14
-357.5
 24
372.5
 34
0.0
 50
180.0
100
AcDbRotatedDimension
1001
ACAD
1000
DSTYLE
1002
{
1070
   287
1070
     3
1070
     7
1000
OPEN30
1070
     6
1000
OPEN30
1070
   278
1070
    46
1070
   147
1040
0.875
1070
    77
1070
     1
1070
    74
1070
     0
1070
    73
1070
     0
1070
    42
1040
2.54
1070
    44
1040
1.269989013671875
1070
    76
1070
     1
1070
    75
1070
     0
1070
   279
1070
     0
1070
   271
1070
     0
1070
   173
1070
     1
1070
    41
1040
3.0
1070
   140
1040
3.5
1002
}
  0
DIMENSION
  5
422
330
1F
100
AcDbEntity
  8
0
 62
     7
100
AcDbDimension
  2
*D31
 10
-357.5
 20
390.5
 30
0.0
 11
-370.249
 21
390.5
 31
0.0
 70
   160
  1
25.5
  3
ISO-25
100
AcDbAlignedDimension
 13
-383.0
 23
385.1093826293945
 33
0.0
 14
-357.5
 24
372.5
 34
0.0
 50
180.0
100
AcDbRotatedDimension
1001
ACAD
1000
DSTYLE
1002
{
1070
   287
1070
     3
1070
     7
1000
OPEN30
1070
     6
1000
OPEN30
1070
   278
1070
    46
1070
   147
1040
0.875
1070
    77
1070
     1
1070
    74
1070
     0
1070
    73
1070
     0
1070
    42
1040
2.54
1070
    44
1040
1.269996643066406
1070
    76
1070
     1
1070
    75
1070
     0
1070
   279
1070
     0
1070
    78
1070
     0
1070
   271
1070
     1
1070
   173
1070
     1
1070
    41
1040
3.0
1070
   140
1040
3.5
1002
}
  0
DIMENSION
  5
42E
330
1F
100
AcDbEntity
  8
0
 62
     7
100
AcDbDimension
  2
*D32
 10
-375.25
 20
379.5
 30
0.0
 11
-382.999
 21
379.5
 31
0.0
 70
   160
  1
\U+220515.5
  3
ISO-25
100
AcDbAlignedDimension
 13
-390.75
 23
374.1995162963867
 33
0.0
 14
-375.25
 24
374.1995162963867
 34
0.0
 50
180.0
100
AcDbRotatedDimension
1001
ACAD
1000
DSTYLE
1002
{
1070
   287
1070
     3
1070
     7
1000
OPEN30
1070
     6
1000
OPEN30
1070
   278
1070
    46
1070
   147
1040
0.875
1070
    77
1070
     1
1070
    74
1070
     0
1070
    73
1070
     0
1070
    42
1040
2.54
1070
    44
1040
1.269996643066406
1070
    76
1070
     0
1070
    75
1070
     0
1070
   279
1070
     0
1070
    78
1070
     0
1070
   271
1070
     1
1070
   173
1070
     1
1070
    41
1040
3.0
1070
   140
1040
3.5
1002
}
  0
DIMENSION
  5
43B
330
1F
100
AcDbEntity
  8
0
 62
     7
100
AcDbDimension
  2
*D33
 10
-398.140822265625
 20
363.1995162963867
 30
0.0
 11
-398.140822265625
 21
368.7007528076172
 31
0.0
 70
   160
  1
11
  3
ISO-25
100
AcDbAlignedDimension
 13
-393.5
 23
374.1999969482422
 33
0.0
 14
-390.75
 24
363.1995162963867
 34
0.0
 50
90.00000000000001
100
AcDbRotatedDimension
1001
ACAD
1000
DSTYLE
1002
{
1070
   287
1070
     3
1070
     7
1000
OPEN30
1070
     6
1000
OPEN30
1070
   278
1070
    46
1070
   147
1040
0.875
1070
    77
1070
     1
1070
    74
1070
     0
1070
    73
1070
     0
1070
    42
1040
2.54
1070
    44
1040
1.269989013671875
1070
    76
1070
     0
1070
    75
1070
     0
1070
   279
1070
     0
1070
   271
1070
     0
1070
   173
1070
     1
1070
    41
1040
3.0
1070
   140
1040
3.5
1002
}
  0
DIMENSION
  5
448
330
1F
100
AcDbEntity
  8
0
 62
     7
100
AcDbDimension
  2
*D34
 10
-398.140822265625
 20
356.1995162963867
 30
0.0
 11
-398.140822265625
 21
359.7005162963867
 31
0.0
 70
   160
  1
7
  3
ISO-25
100
AcDbAlignedDimension
 13
-390.75
 23
363.1995162963867
 33
0.0
 14
-386.0
 24
356.1995162963867
 34
0.0
 50
90.00000000000001
100
AcDbRotatedDimension
1001
ACAD
1000
DSTYLE
1002
{
1070
   287
1070
     3
1070
     7
1000
OPEN30
1070
     6
1000
OPEN30
1070
   278
1070
    46
1070
   147
1040
0.875
1070
    77
1070
     1
1070
    74
1070
     0
1070
    73
1070
     0
1070
    42
1040
2.54
1070
    44
1040
1.269989013671875
1070
    76
1070
     0
1070
    75
1070
     1
1070
   279
1070
     0
1070
   271
1070
     0
1070
   173
1070
     1
1070
    41
1040
3.0
1070
   140
1040
3.5
1002
}
  0
INSERT
  5
45C
330
1F
100
AcDbEntity
  8
0
 62
     7
100
AcDbBlockReference
  2
SYM0004
 10
-386.000006094411
 20
358.8213110255176
 30
0.0
  0
INSERT
  5
464
330
1F
100
AcDbEntity
  8
0
 62
     7
100
AcDbBlockReference
  2
SYM0005
 10
-383.86340467735
 20
370.2448350229436
 30
0.0
  0
INSERT
  5
46C
330
1F
100
AcDbEntity
  8
0
 62
     7
100
AcDbBlockReference
  2
SYM0006
 10
-136.1195567554838
 20
370.2222758136649
 30
0.0
  0
INSERT
  5
475
330
1F
100
AcDbEntity
  8
0
 62
     7
100
AcDbBlockReference
  2
SYM0007
 10
-402.5000067618113
 20
172.7558583214324
 30
0.0
  0
DIMENSION
  5
478
330
1F
100
AcDbEntity
  8
0
 62
     7
100
AcDbDimension
  2
*D39
 10
-335.5
 20
296.0
 30
0.0
 11
-335.5
 21
269.501
 31
0.0
 70
   160
  1
\U+220553
  3
ISO-25
100
AcDbAlignedDimension
 13
-359.5000301474893
 23
243.0000000000001
 33
0.0
 14
-359.0000301474892
 24
296.0
 34
0.0
 50
270.0
100
AcDbRotatedDimension
1001
ACAD
1000
DSTYLE
1002
{
1070
   287
1070
     3
1070
     7
1000
NONE
1070
     6
1000
OPEN30
1070
   278
1070
    46
1070
   147
1040
0.875
1070
    77
1070
     1
1070
    74
1070
     0
1070
    73
1070
     0
1070
    42
1040
2.54
1070
    44
1040
1.269999999999982
1070
    76
1070
     1
1070
    75
1070
     0
1070
   279
1070
     0
1070
   271
1070
     0
1070
   173
1070
     1
1070
    41
1040
3.0
1070
   140
1040
3.5
1002
}
  0
DIMENSION
  5
487
330
1F
100
AcDbEntity
  8
0
 62
     7
100
AcDbDimension
  2
*D40
 10
-505.999
 20
354.5
 30
0.0
 11
-505.999
 21
269.501
 31
0.0
 70
   160
  1
\U+2205170H6
  3
ISO-25
100
AcDbAlignedDimension
 13
-448.5
 23
184.5
 33
0.0
 14
-448.5
 24
354.5
 34
0.0
 50
270.0
100
AcDbRotatedDimension
1001
ACAD
1000
DSTYLE
1002
{
1070
   287
1070
     3
1070
     7
1000
OPEN30
1070
     6
1000
OPEN30
1070
   278
1070
    46
1070
   147
1040
0.875
1070
    77
1070
     1
1070
    74
1070
     0
1070
    73
1070
     0
1070
    42
1040
2.54
1070
    44
1040
1.269989013671875
1070
    76
1070
     0
1070
    75
1070
     0
1070
   279
1070
     0
1070
   271
1070
     0
1070
   173
1070
     1
1070
    41
1040
3.0
1070
   140
1040
3.5
1002
}
  0
DIMENSION
  5
494
330
1F
100
AcDbEntity
  8
0
 62
     7
100
AcDbDimension
  2
*D41
 10
-516.9979999999999
 20
164.5
 30
0.0
 11
-516.998
 21
269.501
 31
0.0
 70
   160
  1
\U+2205210
  3
ISO-25
100
AcDbAlignedDimension
 13
-446.5
 23
374.5
 33
0.0
 14
-446.5
 24
164.5
 34
0.0
 50
90.00000000000001
100
AcDbRotatedDimension
1001
ACAD
1000
DSTYLE
1002
{
1070
   287
1070
     3
1070
     7
1000
OPEN30
1070
     6
1000
OPEN30
1070
   278
1070
    46
1070
   147
1040
0.875
1070
    77
1070
     1
1070
    74
1070
     0
1070
    73
1070
     0
1070
    42
1040
2.54
1070
    44
1040
1.269989013671875
1070
    76
1070
     0
1070
    75
1070
     0
1070
   279
1070
     0
1070
   271
1070
     0
1070
   173
1070
     1
1070
    41
1040
3.0
1070
   140
1040
3.5
1002
}
  0
INSERT
  5
4A7
330
1F
100
AcDbEntity
  8
0
 62
     7
100
AcDbBlockReference
  2
SYM0008
 10
-454.6481205549626
 20
196.8000120610214
 30
0.0
  0
DIMENSION
  5
4AA
330
1F
100
AcDbEntity
  8
0
 62
     7
100
AcDbDimension
  2
*D43
 10
-443.5
 20
313.5
 30
0.0
 11
-464.5544809570313
 21
313.5
 31
0.0
 70
   160
  1
MAX 14.5\PMIN -1.5
  3
ISO-25
100
AcDbAlignedDimension
 13
-429.0
 23
301.5
 33
0.0
 14
-443.5
 24
299.6981983184814
 34
0.0
100
AcDbRotatedDimension
1001
ACAD
1000
DSTYLE
1002
{
1070
   287
1070
     3
1070
     7
1000
OPEN30
1070
     6
1000
OPEN30
1070
   278
1070
    46
1070
   147
1040
0.875
1070
    77
1070
     1
1070
    74
1070
     0
1070
    73
1070
     0
1070
    42
1040
2.54
1070
    44
1040
1.270000457763672
1070
    76
1070
     1
1070
    75
1070
     0
1070
   279
1070
     0
1070
    78
1070
     0
1070
   271
1070
     1
1070
   173
1070
     1
1070
    41
1040
3.0
1070
   140
1040
3.5
1002
}
  0
DIMENSION
  5
4B7
330
1F
100
AcDbEntity
  8
0
 62
     7
100
AcDbDimension
  2
*D44
 10
-458.5
 20
145.501
 30
0.0
 11
-452.2837666015625
 21
145.501
 31
0.0
 70
   160
  1
15
  3
ISO-25
100
AcDbAlignedDimension
 13
-443.5
 23
125.2299957275391
 33
0.0
 14
-458.5
 24
196.8000030517578
 34
0.0
100
AcDbRotatedDimension
1001
ACAD
1000
DSTYLE
1002
{
1070
   287
1070
     3
1070
     7
1000
OPEN30
1070
     6
1000
OPEN30
1070
   278
1070
    46
1070
   147
1040
0.875
1070
    77
1070
     1
1070
    74
1070
     0
1070
    73
1070
     0
1070
    42
1040
2.54
1070
    44
1040
1.270004272460938
1070
    76
1070
     0
1070
    75
1070
     1
1070
   279
1070
     0
1070
   271
1070
     0
1070
   173
1070
     1
1070
    41
1040
3.0
1070
   140
1040
3.5
1002
}
  0
DIMENSION
  5
4C3
330
1F
100
AcDbEntity
  8
0
 62
     7
100
AcDbDimension
  2
*D45
 10
-357.5
 20
134.501
 30
0.0
 11
-402.999
 21
134.501
 31
0.0
 70
   160
  1
91
  3
ISO-25
100
AcDbAlignedDimension
 13
-448.5
 23
166.5
 33
0.0
 14
-357.5
 24
166.5
 34
0.0
 50
180.0
100
AcDbRotatedDimension
1001
ACAD
1000
DSTYLE
1002
{
1070
   287
1070
     3
1070
     7
1000
OPEN30
1070
     6
1000
OPEN30
1070
   278
1070
    46
1070
   147
1040
0.875
1070
    77
1070
     1
1070
    74
1070
     0
1070
    73
1070
     0
1070
    42
1040
2.54
1070
    44
1040
1.270004272460938
1070
    76
1070
     0
1070
    75
1070
     0
1070
   279
1070
     0
1070
   271
1070
     0
1070
   173
1070
     1
1070
    41
1040
3.0
1070
   140
1040
3.5
1002
}
  0
DIMENSION
  5
4D0
330
1F
100
AcDbEntity
  8
0
 62
     7
100
AcDbDimension
  2
*D46
 10
-494.998
 20
202.8000030517578
 30
0.0
 11
-494.998
 21
269.501
 31
0.0
 70
   160
  1
\U+2205１３３．４
  3
ISO-25
100
AcDbAlignedDimension
 13
-463.5
 23
336.1999969482422
 33
0.0
 14
-463.5
 24
202.8000030517578
 34
0.0
 50
90.00000000000001
100
AcDbRotatedDimension
1001
ACAD
1000
DSTYLE
1002
{
1070
   287
1070
     3
1070
     7
1000
OPEN30
1070
     6
1000
NONE
1070
   278
1070
    46
1070
   147
1040
0.875
1070
    77
1070
     1
1070
    74
1070
     0
1070
    73
1070
     0
1070
    42
1040
2.54
1070
    44
1040
1.269999999999982
1070
    76
1070
     0
1070
    75
1070
     1
1070
   279
1070
     0
1070
    78
1070
     0
1070
   271
1070
     1
1070
   173
1070
     1
1070
    41
1040
3.0
1070
   140
1040
3.5
1002
}
  0
DIMENSION
  5
4DB
330
1F
100
AcDbEntity
  8
0
 62
     7
100
AcDbDimension
  2
*D47
 10
-408.5
 20
247.501
 30
0.0
 11
-419.6558298339844
 21
247.501
 31
0.0
 70
   160
  1
20.5
  3
ISO-25
100
AcDbAlignedDimension
 13
-429.0
 23
302.5
 33
0.0
 14
-408.5
 24
300.0
 34
0.0
 50
180.0
100
AcDbRotatedDimension
1001
ACAD
1000
DSTYLE
1002
{
1070
   287
1070
     3
1070
     7
1000
OPEN30
1070
     6
1000
OPEN30
1070
   278
1070
    46
1070
   147
1040
0.875
1070
    77
1070
     1
1070
    74
1070
     0
1070
    73
1070
     0
1070
    42
1040
2.54
1070
    44
1040
1.270000457763672
1070
    76
1070
     1
1070
    75
1070
     1
1070
   279
1070
     0
1070
    78
1070
     0
1070
   271
1070
     1
1070
   173
1070
     1
1070
    41
1040
3.0
1070
   140
1040
3.5
1002
}
  0
DIMENSION
  5
4E6
330
1F
100
AcDbEntity
  8
0
 62
     7
100
AcDbDimension
  2
*D48
 10
-158.5112123039732
 20
150.3394954345783
 30
0.0
 11
-153.2916695585546
 21
149.5361718100451
 31
0.0
 70
   165
  1
15°
  3
ISO-25
100
AcDb3PointAngularDimension
 13
-158.6455174280179
 23
190.5838556397536
 33
0.0
 14
-137.5
 24
159.5
 34
0.0
 15
-137.4999974646024
 25
269.500009834248
 35
0.0
1001
ACAD
1000
DSTYLE
1002
{
1070
   287
1070
     3
1070
     7
1000
OPEN30
1070
     6
1000
OPEN30
1070
   278
1070
    46
1070
   275
1070
     1
1070
   147
1040
0.875
1070
    77
1070
     1
1070
    74
1070
     0
1070
    73
1070
     0
1070
    42
1040
2.54
1070
    44
1040
1.269999999999954
1070
    76
1070
     0
1070
    75
1070
     0
1070
   279
1070
     0
1070
   179
1070
     0
1070
   173
1070
     1
1070
    41
1040
3.0
1070
   140
1040
3.5
1002
}
  0
DIMENSION
  5
4F5
330
1F
100
AcDbEntity
  8
0
 62
     7
100
AcDbDimension
  2
*D49
 10
-126.9542188152984
 20
148.9611691340071
 30
0.0
 11
-121.7043307899315
 21
149.5361717705863
 31
0.0
 70
   165
  1
15°
  3
ISO-25
100
AcDb3PointAngularDimension
 13
-137.5
 23
159.5
 33
0.0
 14
-116.3544827579897
 24
190.583855589913
 34
0.0
 15
-137.4999999999997
 25
269.5000016644609
 35
0.0
1001
ACAD
1000
DSTYLE
1002
{
1070
   287
1070
     3
1070
     7
1000
OPEN30
1070
     6
1000
OPEN30
1070
   278
1070
    46
1070
   275
1070
     1
1070
   147
1040
0.875
1070
    77
1070
     1
1070
    74
1070
     0
1070
    73
1070
     0
1070
    42
1040
2.54
1070
    44
1040
1.269999999999994
1070
    76
1070
     0
1070
    75
1070
     1
1070
   279
1070
     0
1070
   179
1070
     0
1070
   173
1070
     1
1070
    41
1040
3.0
1070
   140
1040
3.5
1002
}
  0
DIMENSION
  5
503
330
1F
100
AcDbEntity
  8
0
 62
     7
100
AcDbDimension
  2
*D50
 10
-461.998
 20
254.5
 30
0.0
 11
-461.998
 21
269.501
 31
0.0
 70
   160
  1
\U+2205３０
  3
ISO-25
100
AcDbAlignedDimension
 13
-429.0
 23
284.5
 33
0.0
 14
-429.0
 24
254.5
 34
0.0
 50
90.00000000000001
100
AcDbRotatedDimension
1001
ACAD
1000
DSTYLE
1002
{
1070
   287
1070
     3
1070
     7
1000
OPEN30
1070
     6
1000
OPEN30
1070
   278
1070
    46
1070
   147
1040
0.875
1070
    77
1070
     1
1070
    74
1070
     0
1070
    73
1070
     0
1070
    42
1040
2.54
1070
    44
1040
1.269999999999982
1070
    76
1070
     0
1070
    75
1070
     0
1070
   279
1070
     0
1070
   271
1070
     0
1070
   173
1070
     1
1070
    41
1040
3.0
1070
   140
1040
3.5
1002
}
  0
DIMENSION
  5
510
330
1F
100
AcDbEntity
  8
0
 62
     7
100
AcDbDimension
  2
*D51
 10
-159.2746955945717
 20
244.7035762303566
 30
0.0
 11
-150.6422950883677
 21
254.5339162308148
 31
0.0
 70
   163
  1
\U+220566
  3
ISO-25
100
AcDbDiametricDimension
 15
-115.7253044054283
 25
294.2964237696435
 35
0.0
 40
0.0
1001
ACAD
1000
DSTYLE
1002
{
1070
   287
1070
     3
1070
     7
1000
OPEN30
1070
     6
1000
OPEN30
1070
   147
1040
0.875
1070
    77
1070
     1
1070
    74
1070
     0
1070
    73
1070
     0
1070
   279
1070
     0
1070
   271
1070
     0
1070
   278
1070
    46
1070
   173
1070
     1
1070
    41
1040
3.0
1070
   140
1040
3.5
1002
}
  0
INSERT
  5
525
330
1F
100
AcDbEntity
  8
0
 62
     7
100
AcDbBlockReference
  2
SYM0009
 10
-146.9655232061925
 20
235.8509456837608
 30
0.0
  0
INSERT
  5
52E
330
1F
100
AcDbEntity
  8
0
 62
     7
100
AcDbBlockReference
  2
SYM0010
 10
-133.8467155014619
 20
187.8710394809141
 30
0.0
  0
DIMENSION
  5
531
330
1F
100
AcDbEntity
  8
0
 62
     7
100
AcDbDimension
  2
*D54
 10
-21.99899999999999
 20
219.5
 30
0.0
 11
-21.999
 21
244.501
 31
0.0
 70
   160
  1
50
  3
ISO-25
100
AcDbAlignedDimension
 13
-27.5
 23
269.5
 33
0.0
 14
-130.5
 24
219.5
 34
0.0
 50
90.00000000000001
100
AcDbRotatedDimension
1001
ACAD
1000
DSTYLE
1002
{
1070
   287
1070
     3
1070
     7
1000
OPEN30
1070
     6
1000
OPEN30
1070
   278
1070
    46
1070
   147
1040
0.875
1070
    77
1070
     1
1070
    74
1070
     0
1070
    73
1070
     0
1070
    42
1040
2.54
1070
    44
1040
1.269999999999996
1070
    76
1070
     0
1070
    75
1070
     0
1070
   279
1070
     0
1070
   271
1070
     0
1070
   173
1070
     1
1070
    41
1040
3.0
1070
   140
1040
3.5
1002
}
  0
DIMENSION
  5
53E
330
1F
100
AcDbEntity
  8
0
 62
     7
100
AcDbDimension
  2
*D55
 10
-21.99899999999999
 20
189.5000000000001
 30
0.0
 11
-21.999
 21
204.501
 31
0.0
 70
   160
  1
30
  3
ISO-25
100
AcDbAlignedDimension
 13
-130.5
 23
219.5
 33
0.0
 14
-130.5
 24
189.5
 34
0.0
 50
90.00000000000001
100
AcDbRotatedDimension
1001
ACAD
1000
DSTYLE
1002
{
1070
   287
1070
     3
1070
     7
1000
OPEN30
1070
     6
1000
OPEN30
1070
   278
1070
    46
1070
   147
1040
0.875
1070
    77
1070
     1
1070
    74
1070
     0
1070
    73
1070
     0
1070
    42
1040
2.54
1070
    44
1040
1.269999999999996
1070
    76
1070
     0
1070
    75
1070
     1
1070
   279
1070
     0
1070
   271
1070
     0
1070
   173
1070
     1
1070
    41
1040
3.0
1070
   140
1040
3.5
1002
}
  0
INSERT
  5
550
330
1F
100
AcDbEntity
  8
0
 62
     7
100
AcDbBlockReference
  2
SYM0011
 10
-420.7500000000002
 20
299.5
 30
0.0
  0
LINE
  5
554
330
1F
100
AcDbEntity
  8
VIEW0001
  6
CONTINUOUS
 62
     7
100
AcDbLine
 10
-554.0
 20
10.0
 30
0.0
 11
-10.0
 21
10.0
 31
0.0
  0
LINE
  5
555
330
1F
100
AcDbEntity
  8
VIEW0001
  6
CONTINUOUS
 62
     7
100
AcDbLine
 10
-10.0
 20
10.0
 30
0.0
 11
-10.0
 21
410.0
 31
0.0
  0
LINE
  5
556
330
1F
100
AcDbEntity
  8
VIEW0001
  6
CONTINUOUS
 62
     7
100
AcDbLine
 10
-554.0
 20
410.0
 30
0.0
 11
-554.0
 21
10.0
 31
0.0
  0
LINE
  5
557
330
1F
100
AcDbEntity
  8
VIEW0001
  6
CONTINUOUS
 62
     7
100
AcDbLine
 10
-554.0
 20
410.0
 30
0.0
 11
-10.0
 21
410.0
 31
0.0
  0
LINE
  5
558
330
1F
100
AcDbEntity
  8
VIEW0001
  6
CONTINUOUS
 62
     7
100
AcDbLine
 10
-569.0
 20
225.0
 30
0.0
 11
-554.0
 21
225.0
 31
0.0
  0
LINE
  5
559
330
1F
100
AcDbEntity
  8
VIEW0001
  6
CONTINUOUS
 62
     7
100
AcDbLine
 10
-569.0
 20
285.0
 30
0.0
 11
-569.0
 21
225.0
 31
0.0
  0
LINE
  5
55A
330
1F
100
AcDbEntity
  8
VIEW0001
  6
CONTINUOUS
 62
     7
100
AcDbLine
 10
-569.0
 20
285.0
 30
0.0
 11
-554.0
 21
285.0
 31
0.0
  0
LINE
  5
55B
330
1F
100
AcDbEntity
  8
VIEW0001
  6
CONTINUOUS
 62
     7
100
AcDbLine
 10
-325.5
 20
48.0
 30
0.0
 11
-325.5
 21
10.0
 31
0.0
  0
LINE
  5
55C
330
1F
100
AcDbEntity
  8
VIEW0001
  6
CONTINUOUS
 62
     7
100
AcDbLine
 10
-325.5
 20
48.0
 30
0.0
 11
-10.0
 21
48.0
 31
0.0
  0
LINE
  5
55D
330
1F
100
AcDbEntity
  8
VIEW0001
  6
CONTINUOUS
 62
     7
100
AcDbLine
 10
-163.0
 20
48.0
 30
0.0
 11
-163.0
 21
10.0
 31
0.0
  0
LINE
  5
55E
330
1F
100
AcDbEntity
  8
VIEW0001
  6
CONTINUOUS
 62
     7
100
AcDbLine
 10
-313.5
 20
48.0
 30
0.0
 11
-313.5
 21
10.0
 31
0.0
  0
LINE
  5
55F
330
1F
100
AcDbEntity
  8
VIEW0001
  6
CONTINUOUS
 62
     7
100
AcDbLine
 10
-86.5
 20
10.0
 30
0.0
 11
-86.5
 21
38.5
 31
0.0
  0
LINE
  5
560
330
1F
100
AcDbEntity
  8
VIEW0001
  6
CONTINUOUS
 62
     7
100
AcDbLine
 10
-112.0
 20
24.0
 30
0.0
 11
-112.0
 21
48.0
 31
0.0
  0
LINE
  5
561
330
1F
100
AcDbEntity
  8
VIEW0001
  6
CONTINUOUS
 62
     7
100
AcDbLine
 10
-137.5
 20
48.0
 30
0.0
 11
-137.5
 21
24.0
 31
0.0
  0
LINE
  5
562
330
1F
100
AcDbEntity
  8
VIEW0001
  6
CONTINUOUS
 62
     7
100
AcDbLine
 10
-163.0
 20
38.5
 30
0.0
 11
-10.0
 21
38.5
 31
0.0
  0
LINE
  5
563
330
1F
100
AcDbEntity
  8
VIEW0001
  6
CONTINUOUS
 62
     7
100
AcDbLine
 10
-163.0
 20
24.0
 30
0.0
 11
-10.0
 21
24.0
 31
0.0
  0
LINE
  5
564
330
1F
100
AcDbEntity
  8
VIEW0001
  6
CONTINUOUS
 62
     7
100
AcDbLine
 10
-173.0
 20
48.0
 30
0.0
 11
-173.0
 21
10.0
 31
0.0
  0
LINE
  5
565
330
1F
100
AcDbEntity
  8
VIEW0001
  6
CONTINUOUS
 62
     7
100
AcDbLine
 10
-183.0
 20
48.0
 30
0.0
 11
-183.0
 21
10.0
 31
0.0
  0
LINE
  5
566
330
1F
100
AcDbEntity
  8
VIEW0001
  6
CONTINUOUS
 62
     7
100
AcDbLine
 10
-319.7495423070405
 20
21.60017220879919
 30
0.0
 11
-316.9995444661396
 21
17.40017859109474
 31
0.0
  0
LINE
  5
567
330
1F
100
AcDbEntity
  8
VIEW0001
  6
CONTINUOUS
 62
     7
100
AcDbLine
 10
-317.0
 20
17.39988899230957
 30
0.0
 11
-322.5
 21
17.39988899230957
 31
0.0
  0
LINE
  5
568
330
1F
100
AcDbEntity
  8
VIEW0001
  6
CONTINUOUS
 62
     7
100
AcDbLine
 10
-322.4991102631117
 20
17.39938170053685
 30
0.0
 11
-319.7491124222108
 21
21.59937531824133
 31
0.0
  0
LINE
  5
569
330
1F
100
AcDbEntity
  8
VIEW0001
  6
CONTINUOUS
 62
     7
100
AcDbLine
 10
-319.749683051235
 20
46.93345530395041
 30
0.0
 11
-316.9996852103341
 21
42.73346168624593
 31
0.0
  0
LINE
  5
56A
330
1F
100
AcDbEntity
  8
VIEW0001
  6
CONTINUOUS
 62
     7
100
AcDbLine
 10
-317.0
 20
42.73325729370117
 30
0.0
 11
-322.5
 21
42.73325729370117
 31
0.0
  0
LINE
  5
56B
330
1F
100
AcDbEntity
  8
VIEW0001
  6
CONTINUOUS
 62
     7
100
AcDbLine
 10
-322.4998199632367
 20
42.73314868004006
 30
0.0
 11
-319.7498221223358
 21
46.93314229774452
 31
0.0
  0
LINE
  5
56C
330
1F
100
AcDbEntity
  8
VIEW0001
  6
CONTINUOUS
 62
     7
100
AcDbLine
 10
-319.7496373030177
 20
40.60013232654839
 30
0.0
 11
-316.9996394621169
 21
36.40013870884391
 31
0.0
  0
LINE
  5
56D
330
1F
100
AcDbEntity
  8
VIEW0001
  6
CONTINUOUS
 62
     7
100
AcDbLine
 10
-317.0
 20
36.39990997314453
 30
0.0
 11
-322.5
 21
36.39990997314453
 31
0.0
  0
LINE
  5
56E
330
1F
100
AcDbEntity
  8
VIEW0001
  6
CONTINUOUS
 62
     7
100
AcDbLine
 10
-322.4996531003741
 20
36.39970473155005
 30
0.0
 11
-319.7496552594732
 21
40.59969834925451
 31
0.0
  0
LINE
  5
56F
330
1F
100
AcDbEntity
  8
VIEW0001
  6
CONTINUOUS
 62
     7
100
AcDbLine
 10
-319.7496254449206
 20
34.26680539782038
 30
0.0
 11
-316.9996276040197
 21
30.0668117801159
 31
0.0
  0
LINE
  5
570
330
1F
100
AcDbEntity
  8
VIEW0001
  6
CONTINUOUS
 62
     7
100
AcDbLine
 10
-317.0
 20
30.06656646728516
 30
0.0
 11
-322.5
 21
30.06656646728516
 31
0.0
  0
LINE
  5
571
330
1F
100
AcDbEntity
  8
VIEW0001
  6
CONTINUOUS
 62
     7
100
AcDbLine
 10
-322.4994523473914
 20
30.06625683173402
 30
0.0
 11
-319.7494545064905
 21
34.26625044943849
 31
0.0
  0
LINE
  5
572
330
1F
100
AcDbEntity
  8
VIEW0001
  6
CONTINUOUS
 62
     7
100
AcDbLine
 10
-319.7495880552578
 20
27.93349518620121
 30
0.0
 11
-316.9995902143569
 21
23.73350156849673
 31
0.0
  0
LINE
  5
573
330
1F
100
AcDbEntity
  8
VIEW0001
  6
CONTINUOUS
 62
     7
100
AcDbLine
 10
-317.0
 20
23.73322296142578
 30
0.0
 11
-322.5
 21
23.73322296142578
 31
0.0
  0
LINE
  5
574
330
1F
100
AcDbEntity
  8
VIEW0001
  6
CONTINUOUS
 62
     7
100
AcDbLine
 10
-322.4992771259743
 20
23.73282564902684
 30
0.0
 11
-319.7492792850734
 21
27.93281926673131
 31
0.0
  0
LINE
  5
575
330
1F
100
AcDbEntity
  8
VIEW0001
  6
CONTINUOUS
 62
     7
100
AcDbLine
 10
-15.49998891362884
 20
17.49999261130774
 30
0.0
 11
-18.99998851021562
 21
11.49999336201998
 31
0.0
  0
LINE
  5
576
330
1F
100
AcDbEntity
  8
VIEW0001
  6
CONTINUOUS
 62
     7
100
AcDbLine
 10
-19.0
 20
11.5
 30
0.0
 11
-12.0
 21
11.5
 31
0.0
  0
LINE
  5
577
330
1F
100
AcDbEntity
  8
VIEW0001
  6
CONTINUOUS
 62
     7
100
AcDbLine
 10
-11.99999962481503
 20
11.50000046269196
 30
0.0
 11
-15.49999884598864
 21
17.49999906841429
 31
0.0
  0
LINE
  5
578
330
1F
100
AcDbEntity
  8
VIEW0001
  6
CONTINUOUS
 62
     7
100
AcDbLine
 10
-61.0
 20
38.5
 30
0.0
 11
-61.0
 21
48.0
 31
0.0
  0
LINE
  5
579
330
1F
100
AcDbEntity
  8
VIEW0001
  6
CONTINUOUS
 62
     7
100
AcDbLine
 10
-325.5
 20
22.66666603088379
 30
0.0
 11
-163.0
 21
22.66666603088379
 31
0.0
  0
LINE
  5
57A
330
1F
100
AcDbEntity
  8
VIEW0001
  6
CONTINUOUS
 62
     7
100
AcDbLine
 10
-325.5
 20
16.33333396911621
 30
0.0
 11
-163.0
 21
16.33333396911621
 31
0.0
  0
LINE
  5
57B
330
1F
100
AcDbEntity
  8
VIEW0001
  6
CONTINUOUS
 62
     7
100
AcDbLine
 10
-163.0
 20
28.0
 30
0.0
 11
-86.5
 21
28.0
 31
0.0
  0
LINE
  5
57C
330
1F
100
AcDbEntity
  8
VIEW0001
  6
CONTINUOUS
 62
     7
100
AcDbLine
 10
-193.0
 20
48.0
 30
0.0
 11
-193.0
 21
10.0
 31
0.0
  0
LINE
  5
57D
330
1F
100
AcDbEntity
  8
VIEW0001
  6
CONTINUOUS
 62
     7
100
AcDbLine
 10
-213.0
 20
48.0
 30
0.0
 11
-213.0
 21
10.0
 31
0.0
  0
LINE
  5
57E
330
1F
100
AcDbEntity
  8
VIEW0001
  6
CONTINUOUS
 62
     7
100
AcDbLine
 10
-325.5
 20
35.33333206176758
 30
0.0
 11
-163.0
 21
35.33333206176758
 31
0.0
  0
LINE
  5
57F
330
1F
100
AcDbEntity
  8
VIEW0001
  6
CONTINUOUS
 62
     7
100
AcDbLine
 10
-325.5
 20
29.0
 30
0.0
 11
-163.0
 21
29.0
 31
0.0
  0
LINE
  5
580
330
1F
100
AcDbEntity
  8
VIEW0001
  6
CONTINUOUS
 62
     7
100
AcDbLine
 10
-325.5
 20
41.66666793823242
 30
0.0
 11
-163.0
 21
41.66666793823242
 31
0.0
  0
MTEXT
  5
581
330
1F
100
AcDbEntity
  8
VIEW0001
 62
     7
100
AcDbMText
 10
-118.5
 20
43.25
 30
0.0
 40
3.0
 41
0.0
 71
     5
 72
     1
  1
{\W1;1:1}
  0
MTEXT
  5
582
330
1F
100
AcDbEntity
  8
VIEW0001
 62
     7
100
AcDbMText
 10
-319.7490844726562
 20
31.56655502319336
 30
0.0
 40
2.200000047683716
 41
0.0
 71
     5
 72
     1
  1
{\W0.818182;3}
  0
MTEXT
  5
583
330
1F
100
AcDbEntity
  8
VIEW0001
 62
     7
100
AcDbMText
 10
-319.7490844726562
 20
25.23322105407715
 30
0.0
 40
2.200000047683716
 41
0.0
 71
     5
 72
     1
  1
{\W0.818182;2}
  0
MTEXT
  5
584
330
1F
100
AcDbEntity
  8
VIEW0001
 62
     7
100
AcDbMText
 10
-57.62857142686844
 20
41.75
 30
0.0
 40
3.0
 41
0.0
 71
     7
 72
     1
  1
{\W1;H3KTA8}
  0
MTEXT
  5
585
330
1F
100
AcDbEntity
  8
VIEW0001
 62
     7
100
AcDbMText
 10
-319.7490844726562
 20
18.89988899230957
 30
0.0
 40
2.200000047683716
 41
0.0
 71
     5
 72
     1
  1
{\W0.818182;1}
  0
MTEXT
  5
586
330
1F
100
AcDbEntity
  8
VIEW0001
 62
     7
100
AcDbMText
 10
-319.7490844726562
 20
37.89988708496094
 30
0.0
 40
2.200000047683716
 41
0.0
 71
     5
 72
     1
  1
{\W0.818182;4}
  0
MTEXT
  5
587
330
1F
100
AcDbEntity
  8
VIEW0001
 62
     7
100
AcDbMText
 10
-319.7490844726562
 20
44.23322296142578
 30
0.0
 40
2.200000047683716
 41
0.0
 71
     5
 72
     1
  1
{\W0.818182;5}
  0
MTEXT
  5
588
330
1F
100
AcDbEntity
  8
VIEW0001
 62
     7
100
AcDbMText
 10
-559.744139790535
 20
3.916409492492676
 30
0.0
 40
4.167181015014648
 41
0.0
 71
     7
 72
     1
  1
{\W1;D}
  0
MTEXT
  5
589
330
1F
100
AcDbEntity
  8
VIEW0001
 62
     7
100
AcDbMText
 10
-82.71428570747375
 20
26.5
 30
0.0
 40
5.0
 41
0.0
 71
     7
 72
     1
  1
{\W0.833333;楔形３爪ビッグホローチャック}
  0
LINE
  5
58B
330
1F
100
AcDbEntity
  8
VIEW0002
  6
CONTINUOUS
 62
     7
100
AcDbLine
 10
-554.0000019633707
 20
51.50000074983495
 30
0.0
 11
-586.5000002030047
 21
9.999989221885244
 31
0.0
  0
LINE
  5
58C
330
1F
100
AcDbEntity
  8
VIEW0002
  6
CONTINUOUS
 62
     7
100
AcDbLine
 10
-163.0
 20
64.0
 30
0.0
 11
-163.0
 21
48.0
 31
0.0
  0
LINE
  5
58D
330
1F
100
AcDbEntity
  8
VIEW0002
  6
CONTINUOUS
 62
     7
100
AcDbLine
 10
-163.0
 20
64.0
 30
0.0
 11
-10.0
 21
64.0
 31
0.0
  0
LINE
  5
58E
330
1F
100
AcDbEntity
  8
VIEW0002
  6
CONTINUOUS
 62
     7
100
AcDbLine
 10
-61.0
 20
53.5
 30
0.0
 11
-10.0
 21
53.5
 31
0.0
  0
LINE
  5
58F
330
1F
100
AcDbEntity
  8
VIEW0002
  6
CONTINUOUS
 62
     7
100
AcDbLine
 10
-61.0
 20
64.0
 30
0.0
 11
-61.0
 21
48.0
 31
0.0
  0
LINE
  5
590
330
1F
100
AcDbEntity
  8
VIEW0002
  6
CONTINUOUS
 62
     7
100
AcDbLine
 10
-554.0
 20
124.0
 30
0.0
 11
-245.0
 21
124.0
 31
0.0
  0
LINE
  5
591
330
1F
100
AcDbEntity
  8
VIEW0002
  6
CONTINUOUS
 62
     7
100
AcDbLine
 10
-554.0
 20
118.0
 30
0.0
 11
-360.0
 21
118.0
 31
0.0
  0
LINE
  5
592
330
1F
100
AcDbEntity
  8
VIEW0002
  6
CONTINUOUS
 62
     7
100
AcDbLine
 10
-554.0
 20
112.0
 30
0.0
 11
-245.0
 21
112.0
 31
0.0
  0
LINE
  5
593
330
1F
100
AcDbEntity
  8
VIEW0002
  6
CONTINUOUS
 62
     7
100
AcDbLine
 10
-554.0
 20
106.0
 30
0.0
 11
-245.0
 21
106.0
 31
0.0
  0
LINE
  5
594
330
1F
100
AcDbEntity
  8
VIEW0002
  6
CONTINUOUS
 62
     7
100
AcDbLine
 10
-554.0
 20
100.0
 30
0.0
 11
-245.0
 21
100.0
 31
0.0
  0
LINE
  5
595
330
1F
100
AcDbEntity
  8
VIEW0002
  6
CONTINUOUS
 62
     7
100
AcDbLine
 10
-508.0
 20
94.0
 30
0.0
 11
-467.0
 21
94.0
 31
0.0
  0
LINE
  5
596
330
1F
100
AcDbEntity
  8
VIEW0002
  6
CONTINUOUS
 62
     7
100
AcDbLine
 10
-508.0
 20
82.0
 30
0.0
 11
-470.0
 21
82.0
 31
0.0
  0
LINE
  5
597
330
1F
100
AcDbEntity
  8
VIEW0002
  6
CONTINUOUS
 62
     7
100
AcDbLine
 10
-554.0
 20
76.0
 30
0.0
 11
-245.0
 21
76.0
 31
0.0
  0
LINE
  5
598
330
1F
100
AcDbEntity
  8
VIEW0002
  6
CONTINUOUS
 62
     7
100
AcDbLine
 10
-554.0
 20
70.0
 30
0.0
 11
-245.0
 21
70.0
 31
0.0
  0
LINE
  5
599
330
1F
100
AcDbEntity
  8
VIEW0002
  6
CONTINUOUS
 62
     7
100
AcDbLine
 10
-554.0
 20
64.0
 30
0.0
 11
-245.0
 21
64.0
 31
0.0
  0
LINE
  5
59A
330
1F
100
AcDbEntity
  8
VIEW0002
  6
CONTINUOUS
 62
     7
100
AcDbLine
 10
-554.0
 20
58.0
 30
0.0
 11
-245.0
 21
58.0
 31
0.0
  0
LINE
  5
59B
330
1F
100
AcDbEntity
  8
VIEW0002
  6
CONTINUOUS
 62
     7
100
AcDbLine
 10
-554.0
 20
52.0
 30
0.0
 11
-245.0
 21
52.0
 31
0.0
  0
LINE
  5
59C
330
1F
100
AcDbEntity
  8
VIEW0002
  6
CONTINUOUS
 62
     7
100
AcDbLine
 10
-554.0
 20
46.0
 30
0.0
 11
-457.0
 21
46.0
 31
0.0
  0
LINE
  5
59D
330
1F
100
AcDbEntity
  8
VIEW0002
  6
CONTINUOUS
 62
     7
100
AcDbLine
 10
-554.0
 20
40.0
 30
0.0
 11
-325.5
 21
40.0
 31
0.0
  0
LINE
  5
59E
330
1F
100
AcDbEntity
  8
VIEW0002
  6
CONTINUOUS
 62
     7
100
AcDbLine
 10
-554.0
 20
34.0
 30
0.0
 11
-325.5
 21
34.0
 31
0.0
  0
LINE
  5
59F
330
1F
100
AcDbEntity
  8
VIEW0002
  6
CONTINUOUS
 62
     7
100
AcDbLine
 10
-554.0
 20
28.0
 30
0.0
 11
-325.5
 21
28.0
 31
0.0
  0
LINE
  5
5A0
330
1F
100
AcDbEntity
  8
VIEW0002
  6
CONTINUOUS
 62
     7
100
AcDbLine
 10
-554.0
 20
22.0
 30
0.0
 11
-325.5
 21
22.0
 31
0.0
  0
LINE
  5
5A1
330
1F
100
AcDbEntity
  8
VIEW0002
  6
CONTINUOUS
 62
     7
100
AcDbLine
 10
-554.0
 20
16.0
 30
0.0
 11
-325.5
 21
16.0
 31
0.0
  0
LINE
  5
5A2
330
1F
100
AcDbEntity
  8
VIEW0002
  6
CONTINUOUS
 62
     7
100
AcDbLine
 10
-508.0
 20
118.0
 30
0.0
 11
-508.0
 21
28.0
 31
0.0
  0
LINE
  5
5A3
330
1F
100
AcDbEntity
  8
VIEW0002
  6
CONTINUOUS
 62
     7
100
AcDbLine
 10
-245.0
 20
124.0
 30
0.0
 11
-245.0
 21
48.0
 31
0.0
  0
LINE
  5
5A4
330
1F
100
AcDbEntity
  8
VIEW0002
  6
CONTINUOUS
 62
     7
100
AcDbLine
 10
-495.0
 20
100.0
 30
0.0
 11
-495.0
 21
76.0
 31
0.0
  0
LINE
  5
5A5
330
1F
100
AcDbEntity
  8
VIEW0002
  6
CONTINUOUS
 62
     7
100
AcDbLine
 10
-554.0
 20
88.0
 30
0.0
 11
-245.0
 21
88.0
 31
0.0
  0
LINE
  5
5A6
330
1F
100
AcDbEntity
  8
VIEW0002
  6
CONTINUOUS
 62
     7
100
AcDbLine
 10
-457.0
 20
94.0
 30
0.0
 11
-245.0
 21
94.0
 31
0.0
  0
LINE
  5
5A7
330
1F
100
AcDbEntity
  8
VIEW0002
  6
CONTINUOUS
 62
     7
100
AcDbLine
 10
-457.0
 20
82.0
 30
0.0
 11
-245.0
 21
82.0
 31
0.0
  0
LINE
  5
5A8
330
1F
100
AcDbEntity
  8
VIEW0002
  6
CONTINUOUS
 62
     7
100
AcDbLine
 10
-360.0
 20
118.0
 30
0.0
 11
-245.0
 21
118.0
 31
0.0
  0
LINE
  5
5A9
330
1F
100
AcDbEntity
  8
VIEW0002
  6
CONTINUOUS
 62
     7
100
AcDbLine
 10
-360.0
 20
124.0
 30
0.0
 11
-360.0
 21
46.0
 31
0.0
  0
LINE
  5
5AA
330
1F
100
AcDbEntity
  8
VIEW0002
  6
CONTINUOUS
 62
     7
100
AcDbLine
 10
-457.0
 20
124.0
 30
0.0
 11
-457.0
 21
10.0
 31
0.0
  0
LINE
  5
5AB
330
1F
100
AcDbEntity
  8
VIEW0002
  6
CONTINUOUS
 62
     7
100
AcDbLine
 10
-360.0
 20
46.0
 30
0.0
 11
-360.0
 21
10.0
 31
0.0
  0
LINE
  5
5AC
330
1F
100
AcDbEntity
  8
VIEW0002
  6
CONTINUOUS
 62
     7
100
AcDbLine
 10
-360.0
 20
46.0
 30
0.0
 11
-325.5
 21
46.0
 31
0.0
  0
LINE
  5
5AD
330
1F
100
AcDbEntity
  8
VIEW0002
  6
CONTINUOUS
 62
     7
100
AcDbLine
 10
-457.0
 20
46.0
 30
0.0
 11
-360.0
 21
46.0
 31
0.0
  0
LINE
  5
5AE
330
1F
100
AcDbEntity
  8
VIEW0002
  6
CONTINUOUS
 62
     7
100
AcDbLine
 10
-552.0
 20
126.0
 30
0.0
 11
-427.5
 21
126.0
 31
0.0
  0
LINE
  5
5AF
330
1F
100
AcDbEntity
  8
VIEW0002
  6
CONTINUOUS
 62
     7
100
AcDbLine
 10
-552.0
 20
132.0
 30
0.0
 11
-427.5
 21
132.0
 31
0.0
  0
LINE
  5
5B0
330
1F
100
AcDbEntity
  8
VIEW0002
  6
CONTINUOUS
 62
     7
100
AcDbLine
 10
-552.0
 20
132.0
 30
0.0
 11
-552.0
 21
126.0
 31
0.0
  0
LINE
  5
5B1
330
1F
100
AcDbEntity
  8
VIEW0002
  6
CONTINUOUS
 62
     7
100
AcDbLine
 10
-427.5
 20
132.0
 30
0.0
 11
-427.5
 21
126.0
 31
0.0
  0
CIRCLE
  5
5B2
330
1F
100
AcDbEntity
  8
VIEW0002
  6
CONTINUOUS
 62
     7
100
AcDbCircle
 10
-55.0
 20
61.0
 30
0.0
 40
1.5
  0
CIRCLE
  5
5B3
330
1F
100
AcDbEntity
  8
VIEW0002
  6
CONTINUOUS
 62
     7
100
AcDbCircle
 10
-55.0
 20
56.5
 30
0.0
 40
1.5
  0
CIRCLE
  5
5B4
330
1F
100
AcDbEntity
  8
VIEW0002
  6
CONTINUOUS
 62
     7
100
AcDbCircle
 10
-35.0
 20
61.0
 30
0.0
 40
1.5
  0
CIRCLE
  5
5B5
330
1F
100
AcDbEntity
  8
VIEW0002
  6
CONTINUOUS
 62
     7
100
AcDbCircle
 10
-35.0
 20
56.5
 30
0.0
 40
1.5
  0
MTEXT
  5
5B6
330
1F
100
AcDbEntity
  8
VIEW0002
 62
     7
100
AcDbMText
 10
-46.67142857313156
 20
19.49999237060547
 30
0.0
 40
4.0
 41
0.0
 71
     7
 72
     1
  1
{\W1;B-765}
  0
MTEXT
  5
5B7
330
1F
100
AcDbEntity
  8
VIEW0002
 62
     7
100
AcDbMText
 10
-158.15
 20
59.25
 30
0.0
 40
3.5
 41
0.0
 71
     7
 72
     1
  1
{\W0.833333;納{\H0.5x;\S　;}入{\H0.5x;\S　;}先}
  0
MTEXT
  5
5B8
330
1F
100
AcDbEntity
  8
VIEW0002
 62
     7
100
AcDbMText
 10
-31.12857142686844
 20
55.0
 30
0.0
 40
3.0
 41
0.0
 71
     7
 72
     1
  1
{\W0.833333;製作図}
  0
MTEXT
  5
5B9
330
1F
100
AcDbEntity
  8
VIEW0002
 62
     7
100
AcDbMText
 10
-31.12857142686844
 20
59.5
 30
0.0
 40
3.0
 41
0.0
 71
     7
 72
     1
  1
{\W0.833333;納入仕様図}
  0
MTEXT
  5
5BA
330
1F
100
AcDbEntity
  8
VIEW0002
 62
     7
100
AcDbMText
 10
-51.12857142686844
 20
55.0
 30
0.0
 40
3.0
 41
0.0
 71
     7
 72
     1
  1
{\W0.833333;見積図}
  0
MTEXT
  5
5BB
330
1F
100
AcDbEntity
  8
VIEW0002
 62
     7
100
AcDbMText
 10
-51.12857142686844
 20
59.5
 30
0.0
 40
3.0
 41
0.0
 71
     7
 72
     1
  1
{\W0.833333;計画図}
  0
MTEXT
  5
5BC
330
1F
100
AcDbEntity
  8
VIEW0002
 62
     7
100
AcDbMText
 10
-531.0
 20
112.875
 30
0.0
 40
3.5
 41
0.0
 71
     8
 72
     1
  1
{\W0.833333;チャック形番}
  0
MTEXT
  5
5BD
330
1F
100
AcDbEntity
  8
VIEW0002
 62
     7
100
AcDbMText
 10
-531.0
 20
94.0
 30
0.0
 40
3.5
 41
0.0
 71
     5
 72
     1
  1
{\W0.833333;ジョーのストローク（直径）}
  0
MTEXT
  5
5BE
330
1F
100
AcDbEntity
  8
VIEW0002
 62
     7
100
AcDbMText
 10
-531.0
 20
82.0
 30
0.0
 40
3.5
 41
0.0
 71
     5
 72
     1
  1
{\W0.833333;使用油圧力}
  0
MTEXT
  5
5BF
330
1F
100
AcDbEntity
  8
VIEW0002
 62
     7
100
AcDbMText
 10
-531.0
 20
106.875
 30
0.0
 40
3.5
 41
0.0
 71
     8
 72
     1
  1
{\W0.833333;シリンダ形番}
  0
MTEXT
  5
5C0
330
1F
100
AcDbEntity
  8
VIEW0002
 62
     7
100
AcDbMText
 10
-531.0
 20
100.875
 30
0.0
 40
3.5
 41
0.0
 71
     8
 72
     1
  1
{\W0.833333;プランジャストローク}
  0
MTEXT
  5
5C1
330
1F
100
AcDbEntity
  8
VIEW0002
 62
     7
100
AcDbMText
 10
-531.0
 20
70.875
 30
0.0
 40
3.5
 41
0.0
 71
     8
 72
     1
  1
{\W0.833333;許容シリンダ力}
  0
MTEXT
  5
5C2
330
1F
100
AcDbEntity
  8
VIEW0002
 62
     7
100
AcDbMText
 10
-501.5
 20
82.875
 30
0.0
 40
3.5
 41
0.0
 71
     8
 72
     1
  1
{\W0.833333;最大}
  0
MTEXT
  5
5C3
330
1F
100
AcDbEntity
  8
VIEW0002
 62
     7
100
AcDbMText
 10
-501.5
 20
76.875
 30
0.0
 40
3.5
 41
0.0
 71
     8
 72
     1
  1
{\W0.833333;常用}
  0
MTEXT
  5
5C4
330
1F
100
AcDbEntity
  8
VIEW0002
 62
     7
100
AcDbMText
 10
-501.5
 20
94.875
 30
0.0
 40
3.5
 41
0.0
 71
     8
 72
     1
  1
{\W0.833333;最大}
  0
MTEXT
  5
5C5
330
1F
100
AcDbEntity
  8
VIEW0002
 62
     7
100
AcDbMText
 10
-501.5
 20
88.875
 30
0.0
 40
3.5
 41
0.0
 71
     8
 72
     1
  1
{\W0.833333;常用}
  0
MTEXT
  5
5C6
330
1F
100
AcDbEntity
  8
VIEW0002
 62
     7
100
AcDbMText
 10
-460.4285714285714
 20
82.0
 30
0.0
 40
3.0
 41
0.0
 71
     6
 72
     1
  1
{\W0.857143;MPa}
  0
MTEXT
  5
5C7
330
1F
100
AcDbEntity
  8
VIEW0002
 62
     7
100
AcDbMText
 10
-460.4285714285714
 20
70.75
 30
0.0
 40
3.0
 41
0.0
 71
     9
 72
     1
  1
{\W0.857143;kN}
  0
MTEXT
  5
5C8
330
1F
100
AcDbEntity
  8
VIEW0002
 62
     7
100
AcDbMText
 10
-460.4285714285714
 20
58.75
 30
0.0
 40
3.0
 41
0.0
 71
     9
 72
     1
  1
{\W0.714286;Ｎ・ｍ}
  0
MTEXT
  5
5C9
330
1F
100
AcDbEntity
  8
VIEW0002
 62
     7
100
AcDbMText
 10
-408.5
 20
121.0
 30
0.0
 40
3.5
 41
0.0
 71
     5
 72
     1
  1
{\W0.833333;納入品目}
  0
MTEXT
  5
5CA
330
1F
100
AcDbEntity
  8
VIEW0002
 62
     7
100
AcDbMText
 10
-355.875
 20
118.875
 30
0.0
 40
3.5
 41
0.0
 71
     7
 72
     1
  1
{\W0.833333;記}
  0
MTEXT
  5
5CB
102
{ACAD_XDICTIONARY
360
60E
102
}
330
1F
100
AcDbEntity
  8
VIEW0002
 62
     7
100
AcDbMText
 10
-507.6607142899717
 20
64.94999998807907
 30
0.0
 40
1.899999976158142
 41
18.17485689640045
 71
     7
 72
     1
  1
{\fＭＳ Ｐゴシック|b0|i0|c0|p0;\W0.83333x;\U+3000\U+3000\U+3000\U+3000\U+FF52\U+FF0F\U+FF4D\U+FF49\U+FF4E}\P{\fＭＳ Ｐゴシック|b0|i0|c0|p0;\W0.83333x;\U+FF38\U+FF11\U+4F4D\U+7F6E\U+306B\U+304A\U+3044\U+3066}
1001
ACAD
1000
MTEXTBEGIN
1070
    44
1040
0.7875
1000
MTEXTEND
  0
MTEXT
  5
5CC
330
1F
100
AcDbEntity
  8
VIEW0002
 62
     7
100
AcDbMText
 10
-474.5
 20
100.875
 30
0.0
 40
3.5
 41
0.0
 71
     9
 72
     1
  1
{\W1;16}
  0
MTEXT
  5
5CD
330
1F
100
AcDbEntity
  8
VIEW0002
 62
     7
100
AcDbMText
 10
-474.5
 20
94.875
 30
0.0
 40
3.5
 41
0.0
 71
     9
 72
     1
  1
{\W1;7.4}
  0
MTEXT
  5
5CE
330
1F
100
AcDbEntity
  8
VIEW0002
 62
     7
100
AcDbMText
 10
-474.5
 20
70.875
 30
0.0
 40
3.5
 41
0.0
 71
     9
 72
     1
  1
{\W1;34.8}
  0
MTEXT
  5
5CF
330
1F
100
AcDbEntity
  8
VIEW0002
 62
     7
100
AcDbMText
 10
-474.5
 20
64.875
 30
0.0
 40
3.5
 41
0.0
 71
     9
 72
     1
  1
{\W1;86.0}
  0
MTEXT
  5
5D0
330
1F
100
AcDbEntity
  8
VIEW0002
 62
     7
100
AcDbMText
 10
-474.5
 20
46.875
 30
0.0
 40
3.5
 41
0.0
 71
     9
 72
     1
  1
{\W1;22.9}
  0
MTEXT
  5
5D1
330
1F
100
AcDbEntity
  8
VIEW0002
 62
     7
100
AcDbMText
 10
-474.5
 20
40.875
 30
0.0
 40
3.5
 41
0.0
 71
     9
 72
     1
  1
{\W1;0.14}
  0
MTEXT
  5
5D2
330
1F
100
AcDbEntity
  8
VIEW0002
 62
     7
100
AcDbMText
 10
-455.375
 20
112.875
 30
0.0
 40
3.5
 41
0.0
 71
     7
 72
     1
  1
{\W1;H3KTA8}
  0
MTEXT
  5
5D3
102
{ACAD_XDICTIONARY
360
610
102
}
330
1F
100
AcDbEntity
  8
VIEW0002
 62
     7
100
AcDbMText
 10
-507.6607142899717
 20
58.94999998807907
 30
0.0
 40
1.899999976158142
 41
12.01885697364807
 71
     7
 72
     1
  1
{\fＭＳ Ｐゴシック|b0|i0|c0|p0;\W0.83333x;\U+FF24\U+FF1D}{\W0.83333x;\U+2205}{\fＭＳ Ｐゴシック|b0|i0|c0|p0;\W0.83333x;\U+3000\U+3000\U+3000}\P{\W0.83333x;μ}{\fＭＳ Ｐゴシック|b0|i0|c0|p0;\W0.83333x;\U+FF1D}
1001
ACAD
1000
MTEXTBEGIN
1070
    44
1040
0.7875
1000
MTEXTEND
  0
MTEXT
  5
5D4
330
1F
100
AcDbEntity
  8
VIEW0002
 62
     7
100
AcDbMText
 10
-531.0
 20
40.875
 30
0.0
 40
3.5
 41
0.0
 71
     8
 72
     1
  1
{\W0.833333;慣性モーメント}
  0
MTEXT
  5
5D5
330
1F
100
AcDbEntity
  8
VIEW0002
 62
     7
100
AcDbMText
 10
-474.5
 20
52.875
 30
0.0
 40
3.5
 41
0.0
 71
     9
 72
     1
  1
{\W1;5000}
  0
MTEXT
  5
5D6
330
1F
100
AcDbEntity
  8
VIEW0002
 62
     7
100
AcDbMText
 10
-460.4285714285714
 20
100.75
 30
0.0
 40
3.0
 41
0.0
 71
     9
 72
     1
  1
{\W0.857143;mm}
  0
MTEXT
  5
5D7
330
1F
100
AcDbEntity
  8
VIEW0002
 62
     7
100
AcDbMText
 10
-506.375
 20
112.875
 30
0.0
 40
3.5
 41
0.0
 71
     7
 72
     1
  1
{\W0.857143;H3KTA8}
  0
MTEXT
  5
5D8
330
1F
100
AcDbEntity
  8
VIEW0002
 62
     7
100
AcDbMText
 10
-361.5
 20
112.875
 30
0.0
 40
3.5
 41
0.0
 71
     9
 72
     1
  1
{\W0.833333;１台}
  0
MTEXT
  5
5D9
330
1F
100
AcDbEntity
  8
VIEW0002
 62
     7
100
AcDbMText
 10
-358.875
 20
106.875
 30
0.0
 40
3.5
 41
0.0
 71
     7
 72
     1
  1
{\W0.833333;　　条件およびワーク剛性を考慮のうえ，貴社にて決定願います．}
  0
MTEXT
  5
5DA
330
1F
100
AcDbEntity
  8
VIEW0002
 62
     7
100
AcDbMText
 10
-358.875
 20
112.875
 30
0.0
 40
3.5
 41
0.0
 71
     7
 72
     1
  1
{\W0.833333;１．左記仕様値はこのチャックの最大値を示します．使用油圧力は切削}
  0
MTEXT
  5
5DB
102
{ACAD_XDICTIONARY
360
612
102
}
330
1F
100
AcDbEntity
  8
VIEW0002
 62
     7
100
AcDbMText
 10
-507.1607142899717
 20
41.04999846220016
 30
0.0
 40
1.899999976158142
 41
16.70914247274399
 71
     7
 72
     1
  1
{\A1;\fＭＳ Ｐゴシック|b0|i0|c0|p0;\W0.71429x;\U+3053\U+306E\U+5024\U+306E\U+FF14\U+500D\U+304C\U+FF27\U+FF24{\A1;\H0.50000x;\W0.71429x;\S２^ ;}}\P{\A1;\fＭＳ Ｐゴシック|b0|i0|c0|p0;\W0.71429x;\U+306B\U+76F8\U+5F53\U+3057\U+307E\U+3059\U+FF0E}
1001
ACAD
1000
MTEXTBEGIN
1070
    44
1040
0.7875
1000
MTEXTEND
  0
MTEXT
  5
5DC
330
1F
100
AcDbEntity
  8
VIEW0002
 62
     7
100
AcDbMText
 10
-531.0
 20
52.875
 30
0.0
 40
3.5
 41
0.0
 71
     8
 72
     1
  1
{\W0.833333;最高使用回転数}
  0
MTEXT
  5
5DD
330
1F
100
AcDbEntity
  8
VIEW0002
 62
     7
100
AcDbMText
 10
-460.4285714285714
 20
52.75
 30
0.0
 40
3.0
 41
0.0
 71
     9
 72
     1
  1
{\W0.857143;r/min}
  0
MTEXT
  5
5DE
330
1F
100
AcDbEntity
  8
VIEW0002
 62
     7
100
AcDbMText
 10
-460.4285714285714
 20
94.0
 30
0.0
 40
3.0
 41
0.0
 71
     6
 72
     1
  1
{\W0.857143;mm}
  0
MTEXT
  5
5DF
330
1F
100
AcDbEntity
  8
VIEW0002
 62
     7
100
AcDbMText
 10
-460.4285714285714
 20
64.75
 30
0.0
 40
3.0
 41
0.0
 71
     9
 72
     1
  1
{\W0.857143;kN}
  0
MTEXT
  5
5E0
330
1F
100
AcDbEntity
  8
VIEW0002
 62
     7
100
AcDbMText
 10
-460.4285714285714
 20
46.75
 30
0.0
 40
3.0
 41
0.0
 71
     9
 72
     1
  1
{\W0.857143;kg}
  0
MTEXT
  5
5E1
330
1F
100
AcDbEntity
  8
VIEW0002
 62
     7
100
AcDbMText
 10
-460.4285714285714
 20
40.75
 30
0.0
 40
3.0
 41
0.0
 71
     9
 72
     1
  1
{\W0.714286;\A1;ｋｇ・ｍ{\H0.5x;\S２^ ;}}
  0
MTEXT
  5
5E2
330
1F
100
AcDbEntity
  8
VIEW0002
 62
     7
100
AcDbMText
 10
-505.5
 20
121.0
 30
0.0
 40
3.5
 41
0.0
 71
     5
 72
     1
  1
{\W0.833333;仕様}
  0
MTEXT
  5
5E3
330
1F
100
AcDbEntity
  8
VIEW0002
 62
     7
100
AcDbMText
 10
-531.0
 20
46.875
 30
0.0
 40
3.5
 41
0.0
 71
     8
 72
     1
  1
{\W0.833333;質量}
  0
MTEXT
  5
5E4
330
1F
100
AcDbEntity
  8
VIEW0002
 62
     7
100
AcDbMText
 10
-549.625
 20
64.875
 30
0.0
 40
3.5
 41
0.0
 71
     7
 72
     1
  1
{\W0.833333;把　握　力}
  0
MTEXT
  5
5E5
330
1F
100
AcDbEntity
  8
VIEW0002
 62
     7
100
AcDbMText
 10
-549.625
 20
58.875
 30
0.0
 40
3.5
 41
0.0
 71
     7
 72
     1
  1
{\W0.833333;把握トルク}
  0
MTEXT
  5
5E6
330
1F
100
AcDbEntity
  8
VIEW0002
 62
     7
100
AcDbMText
 10
-508.3571428571428
 20
64.625
 30
0.0
 40
2.5
 41
0.0
 71
     9
 72
     1
  1
{\W0.833333;（許容シリンダ力時）}
  0
MTEXT
  5
5E7
330
1F
100
AcDbEntity
  8
VIEW0002
 62
     7
100
AcDbMText
 10
-508.3571428571428
 20
58.625
 30
0.0
 40
2.5
 41
0.0
 71
     9
 72
     1
  1
{\W0.833333;（　　　〃　　　　）}
  0
MTEXT
  5
5E8
330
1F
100
AcDbEntity
  8
VIEW0002
 62
     7
100
AcDbMText
 10
-550.375
 20
10.875
 30
0.0
 40
3.5
 41
0.0
 71
     7
 72
     1
  1
{\W0.595238;\A1;（１{\H0.5x;\S　;}ｋＮ＝１０１{\H0.5x;\S^ ・;}９７{\H0.5x;\S　;}ｋｇｆ，１{\H0.5x;\S　;}ＭＰａ＝１０{\H0.5x;\S^ ・;}１９７{\H0.5x;\S　;}ｋｇｆ／ｃｍ{\H0.5x;\S２^ ;}）}
  0
MTEXT
  5
5E9
330
1F
100
AcDbEntity
  8
VIEW0002
 62
     7
100
AcDbMText
 10
-531.0
 20
28.875
 30
0.0
 40
3.5
 41
0.0
 71
     8
 72
     1
  1
{\W0.833333;\A1;標準生爪{\H0.75x;\Sによる;}最小把握径}
  0
MTEXT
  5
5EA
330
1F
100
AcDbEntity
  8
VIEW0002
 62
     7
100
AcDbMText
 10
-358.875
 20
64.875
 30
0.0
 40
3.5
 41
0.0
 71
     7
 72
     1
  1
{\W0.833333;　　メーカ　：東レ・ダウコーニング（株）}
  0
MTEXT
  5
5EB
330
1F
100
AcDbEntity
  8
VIEW0002
 62
     7
100
AcDbMText
 10
-531.0
 20
34.875
 30
0.0
 40
3.5
 41
0.0
 71
     8
 72
     1
  1
{\W0.833333;\A1;標準生爪{\H0.75x;\Sによる;}最大把握径}
  0
MTEXT
  5
5EC
330
1F
100
AcDbEntity
  8
VIEW0002
 62
     7
100
AcDbMText
 10
-460.4285714285714
 20
34.75
 30
0.0
 40
3.0
 41
0.0
 71
     9
 72
     1
  1
{\W0.857143;mm}
  0
MTEXT
  5
5ED
330
1F
100
AcDbEntity
  8
VIEW0002
 62
     7
100
AcDbMText
 10
-358.875
 20
100.875
 30
0.0
 40
3.5
 41
0.0
 71
     7
 72
     1
  1
{\W0.833333;２．内径把握時のシリンダ力は，許容シリンダ力の１／２以下としてく}
  0
MTEXT
  5
5EE
330
1F
100
AcDbEntity
  8
VIEW0002
 62
     7
100
AcDbMText
 10
-358.875
 20
94.875
 30
0.0
 40
3.5
 41
0.0
 71
     7
 72
     1
  1
{\W0.833333;　　ださい．}
  0
MTEXT
  5
5EF
330
1F
100
AcDbEntity
  8
VIEW0002
 62
     7
100
AcDbMText
 10
-361.5
 20
100.875
 30
0.0
 40
3.5
 41
0.0
 71
     9
 72
     1
  1
{\W0.833333;１式}
  0
MTEXT
  5
5F0
330
1F
100
AcDbEntity
  8
VIEW0002
 62
     7
100
AcDbMText
 10
-455.375
 20
100.875
 30
0.0
 40
3.5
 41
0.0
 71
     7
 72
     1
  1
{\W0.833333;　標準付属品・工具}
  0
MTEXT
  5
5F1
330
1F
100
AcDbEntity
  8
VIEW0002
 62
     7
100
AcDbMText
 10
-358.875
 20
88.875
 30
0.0
 40
3.5
 41
0.0
 71
     7
 72
     1
  1
{\W0.833333;３．チャック本体への潤滑油の供給は，付属の取扱説明書に基づいて，}
  0
MTEXT
  5
5F2
330
1F
100
AcDbEntity
  8
VIEW0002
 62
     7
100
AcDbMText
 10
-358.875
 20
82.875
 30
0.0
 40
3.5
 41
0.0
 71
     7
 72
     1
  1
{\W0.833333;　　使用環境・使用する切削油の種類等を考慮した上で，図示グリース}
  0
MTEXT
  5
5F3
330
1F
100
AcDbEntity
  8
VIEW0002
 62
     7
100
AcDbMText
 10
-358.875
 20
76.875
 30
0.0
 40
3.5
 41
0.0
 71
     7
 72
     1
  1
{\W0.833333;　　ニップルより定期的に実施願います．}
  0
MTEXT
  5
5F4
330
1F
100
AcDbEntity
  8
VIEW0002
 62
     7
100
AcDbMText
 10
-358.875
 20
70.875
 30
0.0
 40
3.5
 41
0.0
 71
     7
 72
     1
  1
{\W0.833333;　　推奨油種：モリコートＥＰグリース}
  0
MTEXT
  5
5F5
330
1F
100
AcDbEntity
  8
VIEW0002
 62
     7
100
AcDbMText
 10
-460.4285714285714
 20
28.75
 30
0.0
 40
3.0
 41
0.0
 71
     9
 72
     1
  1
{\W0.857143;mm}
  0
MTEXT
  5
5F6
330
1F
100
AcDbEntity
  8
VIEW0002
 62
     7
100
AcDbMText
 10
-474.5
 20
34.875
 30
0.0
 40
3.5
 41
0.0
 71
     9
 72
     1
  1
{\W0.833333;２１０}
  0
MTEXT
  5
5F7
330
1F
100
AcDbEntity
  8
VIEW0002
 62
     7
100
AcDbMText
 10
-474.5
 20
28.875
 30
0.0
 40
3.5
 41
0.0
 71
     9
 72
     1
  1
{\W0.833333;１３}
  0
MTEXT
  5
5F8
330
1F
100
AcDbEntity
  8
VIEW0002
 62
     7
100
AcDbMText
 10
-550.375
 20
126.875
 30
0.0
 40
3.5
 41
0.0
 71
     7
 72
     1
  1
{\W0.833333;仕様値を超えるシリンダ力を加えると，チャックが破損する恐れがあります．}
  0
INSERT
  5
5FF
330
1F
100
AcDbEntity
  8
VIEW0002
 62
     7
100
AcDbBlockReference
  2
$X0
 10
-35.0
 20
61.0
 30
0.0
  0
ENDSEC
  0
SECTION
  2
OBJECTS
  0
DICTIONARY
  5
C
330
0
100
AcDbDictionary
  3
ACAD_GROUP
350
D
  3
ACAD_LAYOUT
350
1A
  3
ACAD_MATERIAL
350
43
  3
ACAD_MLEADERSTYLE
350
6B
  3
ACAD_MLINESTYLE
350
17
  3
ACAD_PLOTSETTINGS
350
19
  3
ACAD_SCALELIST
350
47
  3
ACAD_VISUALSTYLE
350
2A
  3
ACDB_RECOMPOSE_DATA
350
623
  3
ACDBVARIABLEDICTIONARY
350
603
  3
DWGPROPS
350
60D
1001
ACAD
1000
TREAT_AS_HARD
1070
     0
  0
DICTIONARY
  5
614
330
3C0
100
AcDbDictionary
  3
ACAD_MTEXT_RT
360
615
  0
DICTIONARY
  5
616
330
463
100
AcDbDictionary
  3
ACAD_MTEXT_RT
360
617
  0
DICTIONARY
  5
618
330
46B
100
AcDbDictionary
  3
ACAD_MTEXT_RT
360
619
  0
DICTIONARY
  5
60E
330
5CB
100
AcDbDictionary
  3
ACAD_MTEXT_RT
360
60F
  0
DICTIONARY
  5
610
330
5D3
100
AcDbDictionary
  3
ACAD_MTEXT_RT
360
611
  0
DICTIONARY
  5
612
330
5DB
100
AcDbDictionary
  3
ACAD_MTEXT_RT
360
613
  0
DICTIONARY
  5
D
102
{ACAD_REACTORS
330
C
102
}
330
C
100
AcDbDictionary
1001
ACAD
1000
TREAT_AS_HARD
1070
     0
  0
DICTIONARY
  5
1A
102
{ACAD_REACTORS
330
C
102
}
330
C
100
AcDbDictionary
1001
ACAD
1000
TREAT_AS_HARD
1070
     0
  0
DICTIONARY
  5
43
102
{ACAD_REACTORS
330
C
102
}
330
C
100
AcDbDictionary
  3
BYBLOCK
350
45
  3
BYLAYER
350
44
  3
GLOBAL
350
46
1001
ACAD
1000
TREAT_AS_HARD
1070
     0
  0
DICTIONARY
  5
6B
102
{ACAD_REACTORS
330
C
102
}
330
C
100
AcDbDictionary
  3
STANDARD
350
6C
1001
ACAD
1000
TREAT_AS_HARD
1070
     0
  0
DICTIONARY
  5
17
102
{ACAD_REACTORS
330
C
102
}
330
C
100
AcDbDictionary
  3
STANDARD
350
18
1001
ACAD
1000
TREAT_AS_HARD
1070
     0
  0
DICTIONARY
  5
19
102
{ACAD_REACTORS
330
C
102
}
330
C
100
AcDbDictionary
1001
ACAD
1000
TREAT_AS_HARD
1070
     0
  0
DICTIONARY
  5
47
102
{ACAD_REACTORS
330
C
102
}
330
C
100
AcDbDictionary
  3
A0
350
48
  3
A1
350
49
  3
A2
350
4A
  3
A3
350
4B
  3
A4
350
4C
  3
A5
350
4D
  3
A6
350
4E
  3
A7
350
4F
  3
A8
350
50
  3
A9
350
51
  3
B0
350
52
  3
B1
350
53
  3
B2
350
54
  3
B3
350
55
  3
B4
350
56
  3
B5
350
57
  3
B6
350
58
  3
B7
350
59
  3
B8
350
5A
  3
B9
350
5B
  3
C0
350
5C
  3
C1
350
5D
  3
C2
350
5E
  3
C3
350
5F
  3
C4
350
60
  3
C5
350
61
  3
C6
350
62
  3
C7
350
63
  3
C8
350
64
  3
C9
350
65
  3
D0
350
66
  3
D1
350
67
  3
D2
350
68
1001
ACAD
1000
TREAT_AS_HARD
1070
     0
  0
DICTIONARY
  5
2A
102
{ACAD_REACTORS
330
C
102
}
330
C
100
AcDbDictionary
  3
2DWIREFRAME
350
2F
  3
BASIC
350
32
  3
BRIGHTEN
350
36
  3
COLORCHANGE
350
3A
  3
CONCEPTUAL
350
34
  3
DIM
350
35
  3
EDGECOLOROFF
350
3D
  3
FACEPATTERN
350
39
  3
FLAT
350
2B
  3
FLATWITHEDGES
350
2C
  3
GOURAUD
350
2D
  3
GOURAUDWITHEDGES
350
2E
  3
HIDDEN
350
31
  3
JITTEROFF
350
3B
  3
LINEPATTERN
350
38
  3
OVERHANGOFF
350
3C
  3
REALISTIC
350
33
  3
SHADED
350
42
  3
SHADED_WITH_EDGES
350
41
  3
SHADES_OF_GRAY
350
3E
  3
SKETCHY
350
3F
  3
THICKEN
350
37
  3
WIREFRAME
350
30
  3
X-RAY
350
40
1001
ACAD
1000
TREAT_AS_HARD
1070
     0
  0
XRECORD
  5
623
102
{ACAD_REACTORS
330
C
102
}
330
C
100
AcDbXrecord
 90
        1
330
5CB
330
5D3
330
5DB
330
463
330
46B
330
3C0
  0
DICTIONARY
  5
603
102
{ACAD_REACTORS
330
C
102
}
330
C
100
AcDbDictionary
  3
CANNOSCALE
350
61A
  3
CENTEREXE
350
609
  3
CENTERLTYPEFILE
350
60A
  3
CMLEADERSTYLE
350
605
  3
CTABLESTYLE
350
604
  3
DIMASSOC
350
60B
  3
HIDETEXT
350
60C
  3
MSLTSCALE
350
61B
  3
PSOLHEIGHT
350
606
1001
ACAD
1000
TREAT_AS_HARD
1070
     0
  0
XRECORD
  5
60D
102
{ACAD_REACTORS
330
C
102
}
330
C
100
AcDbXrecord
  1
DWGPROPS COOKIE
  2

  3

  4

  6

  7

  8
GU470001
  9

300
=
301
=
302
=
303
=
304
=
305
=
306
=
307
=
308
=
309
=
 40
0.0
 41
2460892.251769387
 42
2460892.251769815
  1

 90
        0
  0
XRECORD
  5
615
102
{ACAD_REACTORS
330
614
102
}
330
614
100
AcDbXrecord
 40
907829.0
  1
\W0.833333;\pxql;セレーション\Pピッチ１．５}
  0
XRECORD
  5
617
102
{ACAD_REACTORS
330
616
102
}
330
616
100
AcDbXrecord
 40
1316732.0
  1
\W0.833333;\pxql;グリースニップル\P（円周等分３ヶ所）}
  0
XRECORD
  5
619
102
{ACAD_REACTORS
330
618
102
}
330
618
100
AcDbXrecord
 40
1316732.0
  1
\W0.833333;\pxql;グリースニップル\P（円周等分３ヶ所）}
  0
XRECORD
  5
60F
102
{ACAD_REACTORS
330
60E
102
}
330
60E
100
AcDbXrecord
 40
1321061.0
  1
\W0.833333;\pxql;　　　　ｒ／ｍｉｎ\PＸ１位置において}
  0
XRECORD
  5
611
102
{ACAD_REACTORS
330
610
102
}
330
610
100
AcDbXrecord
 40
1226231.0
  1
\W0.833333;\pxql;Ｄ＝\U+2205　　　\Pμ＝}
  0
XRECORD
  5
613
102
{ACAD_REACTORS
330
612
102
}
330
612
100
AcDbXrecord
 40
1796651.0
  1
\W0.714286;\pxql;\A1;この値の４倍がＧＤ{\H0.5x;\S２^ ;}\Pに相当します．}
  0
MATERIAL
  5
45
102
{ACAD_REACTORS
330
43
102
}
102
{ACAD_XDICTIONARY
360
61E
102
}
330
43
100
AcDbMaterial
  1
BYBLOCK
  0
MATERIAL
  5
44
102
{ACAD_REACTORS
330
43
102
}
102
{ACAD_XDICTIONARY
360
61C
102
}
330
43
100
AcDbMaterial
  1
BYLAYER
  0
MATERIAL
  5
46
102
{ACAD_REACTORS
330
43
102
}
102
{ACAD_XDICTIONARY
360
620
102
}
330
43
100
AcDbMaterial
  1
GLOBAL
  0
ACAD_PROXY_OBJECT
  5
6C
102
{ACAD_REACTORS
330
6B
102
}
330
6B
100
AcDbZombieObject
 90
      499
 91
      505
 93
      610
310
40901902A4063FBFFFFFE0000000000000020400000000000020404214DD185B99185C990000000000000104090141901A00000000000004100000000000000041025764000000000000039000
340
14
340
0
340
11
340
0
 94
        0
1001
ACAD_MLEADERVER
1070
     2
  0
MLINESTYLE
  5
18
102
{ACAD_REACTORS
330
17
102
}
330
17
100
AcDbMlineStyle
  2
Standard
 70
     0
  3

 62
   256
 51
90.0
 52
90.0
 71
     2
 49
0.5
 62
   256
  6
BYLAYER
 49
-0.5
 62
   256
  6
BYLAYER
  0
ACAD_PROXY_OBJECT
  5
48
102
{ACAD_REACTORS
330
47
102
}
330
47
100
AcDbZombieObject
 90
      499
 91
      503
 93
       41
310
903313A31580
  0
ACAD_PROXY_OBJECT
  5
49
102
{ACAD_REACTORS
330
47
102
}
330
47
100
AcDbZombieObject
 90
      499
 91
      503
 93
      105
310
903313A324000000000000004000
  0
ACAD_PROXY_OBJECT
  5
4A
102
{ACAD_REACTORS
330
47
102
}
330
47
100
AcDbZombieObject
 90
      499
 91
      503
 93
      105
310
903313A344000000000000104000
  0
ACAD_PROXY_OBJECT
  5
4B
102
{ACAD_REACTORS
330
47
102
}
330
47
100
AcDbZombieObject
 90
      499
 91
      503
 93
      105
310
903313A354000000000000144000
  0
ACAD_PROXY_OBJECT
  5
4C
102
{ACAD_REACTORS
330
47
102
}
330
47
100
AcDbZombieObject
 90
      499
 91
      503
 93
      105
310
903313A384000000000000204000
  0
ACAD_PROXY_OBJECT
  5
4D
102
{ACAD_REACTORS
330
47
102
}
330
47
100
AcDbZombieObject
 90
      499
 91
      503
 93
      113
310
904313A31304000000000000244000
  0
ACAD_PROXY_OBJECT
  5
4E
102
{ACAD_REACTORS
330
47
102
}
330
47
100
AcDbZombieObject
 90
      499
 91
      503
 93
      113
310
904313A31364000000000000304000
  0
ACAD_PROXY_OBJECT
  5
4F
102
{ACAD_REACTORS
330
47
102
}
330
47
100
AcDbZombieObject
 90
      499
 91
      503
 93
      113
310
904313A32304000000000000344000
  0
ACAD_PROXY_OBJECT
  5
50
102
{ACAD_REACTORS
330
47
102
}
330
47
100
AcDbZombieObject
 90
      499
 91
      503
 93
      113
310
904313A333040000000000003E4000
  0
ACAD_PROXY_OBJECT
  5
51
102
{ACAD_REACTORS
330
47
102
}
330
47
100
AcDbZombieObject
 90
      499
 91
      503
 93
      113
310
904313A34304000000000000444000
  0
ACAD_PROXY_OBJECT
  5
52
102
{ACAD_REACTORS
330
47
102
}
330
47
100
AcDbZombieObject
 90
      499
 91
      503
 93
      113
310
904313A35304000000000000494000
  0
ACAD_PROXY_OBJECT
  5
53
102
{ACAD_REACTORS
330
47
102
}
330
47
100
AcDbZombieObject
 90
      499
 91
      503
 93
      121
310
905313A3130304000000000000594000
  0
ACAD_PROXY_OBJECT
  5
54
102
{ACAD_REACTORS
330
47
102
}
330
47
100
AcDbZombieObject
 90
      499
 91
      503
 93
      105
310
903323A310000000000000010100
  0
ACAD_PROXY_OBJECT
  5
55
102
{ACAD_REACTORS
330
47
102
}
330
47
100
AcDbZombieObject
 90
      499
 91
      503
 93
      105
310
903343A310000000000000410100
  0
ACAD_PROXY_OBJECT
  5
56
102
{ACAD_REACTORS
330
47
102
}
330
47
100
AcDbZombieObject
 90
      499
 91
      503
 93
      105
310
903383A310000000000000810100
  0
ACAD_PROXY_OBJECT
  5
57
102
{ACAD_REACTORS
330
47
102
}
330
47
100
AcDbZombieObject
 90
      499
 91
      503
 93
      113
310
90431303A310000000000000910100
  0
ACAD_PROXY_OBJECT
  5
58
102
{ACAD_REACTORS
330
47
102
}
330
47
100
AcDbZombieObject
 90
      499
 91
      503
 93
      121
310
9053130303A310000000000001650100
  0
ACAD_PROXY_OBJECT
  5
59
102
{ACAD_REACTORS
330
47
102
}
330
47
100
AcDbZombieObject
 90
      499
 91
      503
 93
      257
310
90E312F31323822203D2031272D3022000000000000200FC000000000000284000
  0
ACAD_PROXY_OBJECT
  5
5A
102
{ACAD_REACTORS
330
47
102
}
330
47
100
AcDbZombieObject
 90
      499
 91
      503
 93
      249
310
90D312F363422203D2031272D3022000000000000240FC000000000000284000
  0
ACAD_PROXY_OBJECT
  5
5B
102
{ACAD_REACTORS
330
47
102
}
330
47
100
AcDbZombieObject
 90
      499
 91
      503
 93
      249
310
90D312F333222203D2031272D3022000000000000280FC000000000000284000
  0
ACAD_PROXY_OBJECT
  5
5C
102
{ACAD_REACTORS
330
47
102
}
330
47
100
AcDbZombieObject
 90
      499
 91
      503
 93
      249
310
90D312F313622203D2031272D30220000000000002C0FC000000000000284000
  0
ACAD_PROXY_OBJECT
  5
5D
102
{ACAD_REACTORS
330
47
102
}
330
47
100
AcDbZombieObject
 90
      499
 91
      503
 93
      249
310
90D332F333222203D2031272D30220000000000002E0FC000000000000284000
  0
ACAD_PROXY_OBJECT
  5
5E
102
{ACAD_REACTORS
330
47
102
}
330
47
100
AcDbZombieObject
 90
      499
 91
      503
 93
      241
310
90C312F3822203D2031272D3022000000000000300FC000000000000284000
  0
ACAD_PROXY_OBJECT
  5
5F
102
{ACAD_REACTORS
330
47
102
}
330
47
100
AcDbZombieObject
 90
      499
 91
      503
 93
      249
310
90D332F313622203D2031272D3022000000000000320FC000000000000284000
  0
ACAD_PROXY_OBJECT
  5
60
102
{ACAD_REACTORS
330
47
102
}
330
47
100
AcDbZombieObject
 90
      499
 91
      503
 93
      241
310
90C312F3422203D2031272D3022000000000000340FC000000000000284000
  0
ACAD_PROXY_OBJECT
  5
61
102
{ACAD_REACTORS
330
47
102
}
330
47
100
AcDbZombieObject
 90
      499
 91
      503
 93
      241
310
90C332F3822203D2031272D3022000000000000360FC000000000000284000
  0
ACAD_PROXY_OBJECT
  5
62
102
{ACAD_REACTORS
330
47
102
}
330
47
100
AcDbZombieObject
 90
      499
 91
      503
 93
      241
310
90C312F3222203D2031272D3022000000000000380FC000000000000284000
  0
ACAD_PROXY_OBJECT
  5
63
102
{ACAD_REACTORS
330
47
102
}
330
47
100
AcDbZombieObject
 90
      499
 91
      503
 93
      241
310
90C332F3422203D2031272D30220000000000003A0FC000000000000284000
  0
ACAD_PROXY_OBJECT
  5
64
102
{ACAD_REACTORS
330
47
102
}
330
47
100
AcDbZombieObject
 90
      499
 91
      503
 93
      161
310
90A3122203D2031272D30224000000000000284000
  0
ACAD_PROXY_OBJECT
  5
65
102
{ACAD_REACTORS
330
47
102
}
330
47
100
AcDbZombieObject
 90
      499
 91
      503
 93
      257
310
90E312D312F3222203D2031272D30220000000000003E0FC000000000000284000
  0
ACAD_PROXY_OBJECT
  5
66
102
{ACAD_REACTORS
330
47
102
}
330
47
100
AcDbZombieObject
 90
      499
 91
      503
 93
      225
310
90A3322203D2031272D302200000000000002100000000000000284000
  0
ACAD_PROXY_OBJECT
  5
67
102
{ACAD_REACTORS
330
47
102
}
330
47
100
AcDbZombieObject
 90
      499
 91
      503
 93
      225
310
90A3622203D2031272D302200000000000006100000000000000284000
  0
ACAD_PROXY_OBJECT
  5
68
102
{ACAD_REACTORS
330
47
102
}
330
47
100
AcDbZombieObject
 90
      499
 91
      503
 93
      249
310
90D31272D3022203D2031272D30220000000000000A100000000000000284000
  0
ACAD_PROXY_OBJECT
  5
2F
102
{ACAD_REACTORS
330
2A
102
}
330
2A
100
AcDbZombieObject
 90
      499
 91
      501
 93
      436
310
42CC9915DA5C99599C985B595049028333333333333E33F0000000000000F90107901411070040501600405405064090741402480A0340
1001
ACAD
1000
AcDbSavedByObjectVersion
1070
     0
  0
ACAD_PROXY_OBJECT
  5
32
102
{ACAD_REACTORS
330
2A
102
}
330
2A
100
AcDbZombieObject
 90
      499
 91
      501
 93
      388
310
4150985CDA58D07406404333333333333E33F0000000000000F90107A41107004050150841D405064090741402480A0350
1001
ACAD
1000
AcDbSavedByObjectVersion
1070
     0
  0
ACAD_PROXY_OBJECT
  5
36
102
{ACAD_REACTORS
330
2A
102
}
330
2A
100
AcDbZombieObject
 90
      499
 91
      501
 93
      428
310
42109C9A59DA1D195B90C409028333333333333E33F0000000000000F9010790141107004050150841D405064090741402480A029950
1001
ACAD
1000
AcDbSavedByObjectVersion
1070
     0
  0
ACAD_PROXY_OBJECT
  5
3A
102
{ACAD_REACTORS
330
2A
102
}
330
2A
100
AcDbZombieObject
 90
      499
 91
      501
 93
      452
310
42D0DBDB1BDC90DA185B99D95104090240C333333333333E33F0000000000000F90108901411070040501508421405064090741402480A0350
1001
ACAD
1000
AcDbSavedByObjectVersion
1070
     0
  0
ACAD_PROXY_OBJECT
  5
34
102
{ACAD_REACTORS
330
2A
102
}
330
2A
100
AcDbZombieObject
 90
      499
 91
      501
 93
      500
310
4290DBDB98D95C1D1D585B10940D028333333333333E33F0000000000000F90107902409070040501000000000018199010841D405064090740C02480A0340
1001
ACAD
1000
AcDbSavedByObjectVersion
1070
     0
  0
ACAD_PROXY_OBJECT
  5
35
102
{ACAD_REACTORS
330
2A
102
}
330
2A
100
AcDbZombieObject
 90
      499
 91
      501
 93
      412
310
40D11A5B50B409028333333333333E33F0000000000000F9010790141107004050150841D405064090741402480A02677FFFFFD0
1001
ACAD
1000
AcDbSavedByObjectVersion
1070
     0
  0
ACAD_PROXY_OBJECT
  5
3D
102
{ACAD_REACTORS
330
2A
102
}
330
2A
100
AcDbZombieObject
 90
      499
 91
      501
 93
      452
310
43115919D950DBDB1BDC93D999916409028333333333333E33F0000000000000F9010790141107004050150841D405064090741402480A0350
1001
ACAD
1000
AcDbSavedByObjectVersion
1070
     0
  0
ACAD_PROXY_OBJECT
  5
39
102
{ACAD_REACTORS
330
2A
102
}
330
2A
100
AcDbZombieObject
 90
      499
 91
      501
 93
      444
310
42D19858D95C185D1D195C9B90F409028333333333333E33F0000000000000F9010790141107004050150841D405064090741402480A0350
1001
ACAD
1000
AcDbSavedByObjectVersion
1070
     0
  0
ACAD_PROXY_OBJECT
  5
2B
102
{ACAD_REACTORS
330
2A
102
}
330
2A
100
AcDbZombieObject
 90
      499
 91
      501
 93
      380
310
41119B185D240901404333333333333E33F0000000000000F9010740A907004050150841D405064090741402480A1B50
1001
ACAD
1000
AcDbSavedByObjectVersion
1070
     0
  0
ACAD_PROXY_OBJECT
  5
2C
102
{ACAD_REACTORS
330
2A
102
}
330
2A
100
AcDbZombieObject
 90
      499
 91
      501
 93
      468
310
43519B185D15DA5D1A115919D95CD0140901404333333333333E33F0000000000000F90107409019070040501600405405064090741402480A1B50
1001
ACAD
1000
AcDbSavedByObjectVersion
1070
     0
  0
ACAD_PROXY_OBJECT
  5
2D
102
{ACAD_REACTORS
330
2A
102
}
330
2A
100
AcDbZombieObject
 90
      499
 91
      501
 93
      404
310
41D1DBDD5C985D5910240902404333333333333E33F0000000000000F9010740A9070040501641D405064090741402480A1B50
1001
ACAD
1000
AcDbSavedByObjectVersion
1070
     0
  0
ACAD_PROXY_OBJECT
  5
2E
102
{ACAD_REACTORS
330
2A
102
}
330
2A
100
AcDbZombieObject
 90
      499
 91
      501
 93
      492
310
4411DBDD5C985D5915DA5D1A115919D95CD0340902404333333333333E33F0000000000000F90107409019070040501600405405064090741402480A1B50
1001
ACAD
1000
AcDbSavedByObjectVersion
1070
     0
  0
ACAD_PROXY_OBJECT
  5
31
102
{ACAD_REACTORS
330
2A
102
}
330
2A
100
AcDbZombieObject
 90
      499
 91
      501
 93
      476
310
41921A5919195B90640502408333333333333E33F0000000000000F901079024090700405020000000000001110200405405064090740C02480A0340
1001
ACAD
1000
AcDbSavedByObjectVersion
1070
     0
  0
ACAD_PROXY_OBJECT
  5
3B
102
{ACAD_REACTORS
330
2A
102
}
330
2A
100
AcDbZombieObject
 90
      499
 91
      501
 93
      428
310
42529A5D1D195C93D999914409028333333333333E33F0000000000000F9010790141107004050150A41D405064090741402480A0350
1001
ACAD
1000
AcDbSavedByObjectVersion
1070
     0
  0
ACAD_PROXY_OBJECT
  5
38
102
{ACAD_REACTORS
330
2A
102
}
330
2A
100
AcDbZombieObject
 90
      499
 91
      501
 93
      444
310
42D31A5B995C185D1D195C9B90E409028333333333333E33F0000000000000F9010790141107004050750841D405064090741402483A0350
1001
ACAD
1000
AcDbSavedByObjectVersion
1070
     0
  0
ACAD_PROXY_OBJECT
  5
3C
102
{ACAD_REACTORS
330
2A
102
}
330
2A
100
AcDbZombieObject
 90
      499
 91
      501
 93
      444
310
42D3DD995C9A185B99D3D999915409028333333333333E33F0000000000000F9010790141107004050150941D405064090741402480A0350
1001
ACAD
1000
AcDbSavedByObjectVersion
1070
     0
  0
ACAD_PROXY_OBJECT
  5
33
102
{ACAD_REACTORS
330
2A
102
}
330
2A
100
AcDbZombieObject
 90
      499
 91
      501
 93
      428
310
425499585B1A5CDD1A58D08409038333333333333E33F0000000000000F9010740A907004050150800405405064090740C02480A1B40
1001
ACAD
1000
AcDbSavedByObjectVersion
1070
     0
  0
ACAD_PROXY_OBJECT
  5
42
102
{ACAD_REACTORS
330
2A
102
}
330
2A
100
AcDbZombieObject
 90
      499
 91
      501
 93
      420
310
4194DA1859195911B40902404333333333333E33F0000000000000F9010740A41107004050150800405405064090840C02480A0B40
1001
ACAD
1000
AcDbSavedByObjectVersion
1070
     0
  0
ACAD_PROXY_OBJECT
  5
41
102
{ACAD_REACTORS
330
2A
102
}
330
2A
100
AcDbZombieObject
 90
      499
 91
      501
 93
      516
310
4454DA18591959081DDA5D1A08195919D95CD1A40902404333333333333E33F0000000000000F901074090142907004050250800405405064090740C02480A0B40
1001
ACAD
1000
AcDbSavedByObjectVersion
1070
     0
  0
ACAD_PROXY_OBJECT
  5
3E
102
{ACAD_REACTORS
330
2A
102
}
330
2A
100
AcDbZombieObject
 90
      499
 91
      501
 93
      532
310
4394DA1859195CC81BD98811DC985E5174090240C333333333333E33F0000000000000F901079024090741D01000000000000111010841D405064090740C02480A0340
1001
ACAD
1000
AcDbSavedByObjectVersion
1070
     0
  0
ACAD_PROXY_OBJECT
  5
3F
102
{ACAD_REACTORS
330
2A
102
}
330
2A
100
AcDbZombieObject
 90
      499
 91
      501
 93
      476
310
41D4DAD95D18DA1E51840502408333333333333E33F0000000000000F901079024090741D01000000000000111010B41D405064090741802480A0340
1001
ACAD
1000
AcDbSavedByObjectVersion
1070
     0
  0
ACAD_PROXY_OBJECT
  5
37
102
{ACAD_REACTORS
330
2A
102
}
330
2A
100
AcDbZombieObject
 90
      499
 91
      501
 93
      412
310
41D51A1A58DAD95B90D409028333333333333E33F0000000000000F9010790141107004050150C41D405064090741402480A0350
1001
ACAD
1000
AcDbSavedByObjectVersion
1070
     0
  0
ACAD_PROXY_OBJECT
  5
30
102
{ACAD_REACTORS
330
2A
102
}
330
2A
100
AcDbZombieObject
 90
      499
 91
      501
 93
      420
310
4255DA5C99599C985B595059028333333333333E33F0000000000000F90107901411070040501600405405064090740C02480A0340
1001
ACAD
1000
AcDbSavedByObjectVersion
1070
     0
  0
ACAD_PROXY_OBJECT
  5
40
102
{ACAD_REACTORS
330
2A
102
}
330
2A
100
AcDbZombieObject
 90
      499
 91
      501
 93
      404
310
41560B54985E51940902404000000000000E03F0000000000000F9010740501907004050150841D405064090740C02480A1B40
1001
ACAD
1000
AcDbSavedByObjectVersion
1070
     0
  0
DICTIONARYVAR
  5
61A
102
{ACAD_REACTORS
330
603
102
}
330
603
100
DictionaryVariables
280
     0
  1
1:1
  0
DICTIONARYVAR
  5
609
102
{ACAD_REACTORS
330
603
102
}
330
603
100
DictionaryVariables
280
     0
  1
3.500000
  0
DICTIONARYVAR
  5
60A
102
{ACAD_REACTORS
330
603
102
}
330
603
100
DictionaryVariables
280
     0
  1
acadiso.lin
  0
DICTIONARYVAR
  5
605
102
{ACAD_REACTORS
330
603
102
}
330
603
100
DictionaryVariables
280
     0
  1
Standard
  0
DICTIONARYVAR
  5
604
102
{ACAD_REACTORS
330
603
102
}
330
603
100
DictionaryVariables
280
     0
  1
Standard
  0
DICTIONARYVAR
  5
60B
102
{ACAD_REACTORS
330
603
102
}
330
603
100
DictionaryVariables
280
     0
  1
2
  0
DICTIONARYVAR
  5
60C
102
{ACAD_REACTORS
330
603
102
}
330
603
100
DictionaryVariables
280
     0
  1
1
  0
DICTIONARYVAR
  5
61B
102
{ACAD_REACTORS
330
603
102
}
330
603
100
DictionaryVariables
280
     0
  1
1
  0
DICTIONARYVAR
  5
606
102
{ACAD_REACTORS
330
603
102
}
330
603
100
DictionaryVariables
280
     0
  1
80.000000
  0
DICTIONARY
  5
61E
330
45
100
AcDbDictionary
  3
ACAD_XREC_ROUNDTRIP
360
61F
1001
ACAD
1000
TREAT_AS_HARD
1070
     1
  0
DICTIONARY
  5
61C
330
44
100
AcDbDictionary
  3
ACAD_XREC_ROUNDTRIP
360
61D
1001
ACAD
1000
TREAT_AS_HARD
1070
     1
  0
DICTIONARY
  5
620
330
46
100
AcDbDictionary
  3
ACAD_XREC_ROUNDTRIP
360
621
1001
ACAD
1000
TREAT_AS_HARD
1070
     1
  0
XRECORD
  5
61F
102
{ACAD_REACTORS
330
61E
102
}
330
61E
100
AcDbXrecord
102
MATERIAL
148
0.0
149
0.0
149
0.0
 93
        0
 94
      127
282
     0
 72
     1
 77
     1
171
     1
175
     1
179
     1
273
     0
  0
XRECORD
  5
61D
102
{ACAD_REACTORS
330
61C
102
}
330
61C
100
AcDbXrecord
102
MATERIAL
148
0.0
149
0.0
149
0.0
 93
        0
 94
      127
282
     0
 72
     1
 77
     1
171
     1
175
     1
179
     1
273
     0
  0
XRECORD
  5
621
102
{ACAD_REACTORS
330
620
102
}
330
620
100
AcDbXrecord
102
MATERIAL
148
0.0
149
0.0
149
0.0
 93
        0
 94
      127
282
     0
 72
     1
 77
     1
171
     1
175
     1
179
     1
273
     0
  0
ENDSEC
  0
EOF
