  0
SECTION
  2
HEADER
  9
$ACADVER
  1
AC1012
  9
$DWGCODEPAGE
  3
ansi_932
  9
$INSBASE
 10
0.0
 20
0.0
 30
0.0
  9
$EXTMIN
 10
-586.5000002030047
 20
3.082973289489746
 30
0.0
  9
$EXTMAX
 10
-10.0
 20
410.0
 30
0.0
  9
$LIMMIN
 10
-586.5000002030047
 20
3.082973289489746
  9
$LIMMAX
 10
-10.0
 20
410.0
  9
$ORTHOMODE
 70
     0
  9
$REGENMODE
 70
     1
  9
$FILLMODE
 70
     1
  9
$QTEXTMODE
 70
     0
  9
$MIRRTEXT
 70
     1
  9
$DRAGMODE
 70
     2
  9
$LTSCALE
 40
1.0
  9
$OSMODE
 70
    37
  9
$ATTMODE
 70
     1
  9
$TEXTSIZE
 40
2.5
  9
$TRACEWID
 40
1.0
  9
$TEXTSTYLE
  7
STANDARD
  9
$CLAYER
  8
0
  9
$CELTYPE
  6
BYLAYER
  9
$CECOLOR
 62
   256
  9
$CELTSCALE
 40
1.0
  9
$DELOBJ
 70
     1
  9
$DISPSILH
 70
     0
  9
$DIMSCALE
 40
1.0
  9
$DIMASZ
 40
2.5
  9
$DIMEXO
 40
0.625
  9
$DIMDLI
 40
3.75
  9
$DIMRND
 40
0.0
  9
$DIMDLE
 40
0.0
  9
$DIMEXE
 40
1.25
  9
$DIMTP
 40
0.0
  9
$DIMTM
 40
0.0
  9
$DIMTXT
 40
2.5
  9
$DIMCEN
 40
2.5
  9
$DIMTSZ
 40
0.0
  9
$DIMTOL
 70
     0
  9
$DIMLIM
 70
     0
  9
$DIMTIH
 70
     0
  9
$DIMTOH
 70
     0
  9
$DIMSE1
 70
     0
  9
$DIMSE2
 70
     0
  9
$DIMTAD
 70
     1
  9
$DIMZIN
 70
     8
  9
$DIMBLK
  1

  9
$DIMASO
 70
     1
  9
$DIMSHO
 70
     1
  9
$DIMPOST
  1

  9
$DIMAPOST
  1

  9
$DIMALT
 70
     0
  9
$DIMALTD
 70
     3
  9
$DIMALTF
 40
0.03937007874016
  9
$DIMLFAC
 40
1.0
  9
$DIMTOFL
 70
     1
  9
$DIMTVP
 40
0.0
  9
$DIMTIX
 70
     0
  9
$DIMSOXD
 70
     0
  9
$DIMSAH
 70
     0
  9
$DIMBLK1
  1

  9
$DIMBLK2
  1

  9
$DIMSTYLE
  2
ISO-25
  9
$DIMCLRD
 70
     0
  9
$DIMCLRE
 70
     0
  9
$DIMCLRT
 70
     0
  9
$DIMTFAC
 40
1.0
  9
$DIMGAP
 40
0.625
  9
$DIMJUST
 70
     0
  9
$DIMSD1
 70
     0
  9
$DIMSD2
 70
     0
  9
$DIMTOLJ
 70
     0
  9
$DIMTZIN
 70
     8
  9
$DIMALTZ
 70
     0
  9
$DIMALTTZ
 70
     0
  9
$DIMFIT
 70
     3
  9
$DIMUPT
 70
     0
  9
$DIMUNIT
 70
     2
  9
$DIMDEC
 70
     2
  9
$DIMTDEC
 70
     2
  9
$DIMALTU
 70
     2
  9
$DIMALTTD
 70
     3
  9
$DIMTXSTY
  7
STANDARD
  9
$DIMAUNIT
 70
     0
  9
$LUNITS
 70
     2
  9
$LUPREC
 70
     4
  9
$SKETCHINC
 40
1.0
  9
$FILLETRAD
 40
10.0
  9
$AUNITS
 70
     0
  9
$AUPREC
 70
     0
  9
$MENU
  1
.
  9
$ELEVATION
 40
0.0
  9
$PELEVATION
 40
0.0
  9
$THICKNESS
 40
0.0
  9
$LIMCHECK
 70
     0
  9
$CHAMFERA
 40
0.0
  9
$CHAMFERB
 40
0.0
  9
$CHAMFERC
 40
0.0
  9
$CHAMFERD
 40
0.0
  9
$SKPOLY
 70
     0
  9
$TDCREATE
 40
2460892.626767315
  9
$TDUPDATE
 40
2460892.626767859
  9
$TDINDWG
 40
0.0000000116
  9
$TDUSRTIMER
 40
0.0000000116
  9
$USRTIMER
 70
     1
  9
$ANGBASE
 50
0.0
  9
$ANGDIR
 70
     0
  9
$PDMODE
 70
     0
  9
$PDSIZE
 40
0.0
  9
$PLINEWID
 40
0.0
  9
$COORDS
 70
     1
  9
$SPLFRAME
 70
     0
  9
$SPLINETYPE
 70
     6
  9
$SPLINESEGS
 70
     8
  9
$ATTDIA
 70
     0
  9
$ATTREQ
 70
     1
  9
$HANDLING
 70
     1
  9
$HANDSEED
  5
65F
  9
$SURFTAB1
 70
     6
  9
$SURFTAB2
 70
     6
  9
$SURFTYPE
 70
     6
  9
$SURFU
 70
     6
  9
$SURFV
 70
     6
  9
$UCSNAME
  2

  9
$UCSORG
 10
0.0
 20
0.0
 30
0.0
  9
$UCSXDIR
 10
1.0
 20
0.0
 30
0.0
  9
$UCSYDIR
 10
0.0
 20
1.0
 30
0.0
  9
$PUCSNAME
  2

  9
$PUCSORG
 10
0.0
 20
0.0
 30
0.0
  9
$PUCSXDIR
 10
1.0
 20
0.0
 30
0.0
  9
$PUCSYDIR
 10
0.0
 20
1.0
 30
0.0
  9
$USERI1
 70
     0
  9
$USERI2
 70
     0
  9
$USERI3
 70
     0
  9
$USERI4
 70
     0
  9
$USERI5
 70
     0
  9
$USERR1
 40
0.0
  9
$USERR2
 40
0.0
  9
$USERR3
 40
0.0
  9
$USERR4
 40
0.0
  9
$USERR5
 40
0.0
  9
$WORLDVIEW
 70
     1
  9
$SHADEDGE
 70
     3
  9
$SHADEDIF
 70
    70
  9
$TILEMODE
 70
     1
  9
$MAXACTVP
 70
    64
  9
$PINSBASE
 10
0.0
 20
0.0
 30
0.0
  9
$PLIMCHECK
 70
     0
  9
$PEXTMIN
 10
1.000000000000000E+20
 20
1.000000000000000E+20
 30
1.000000000000000E+20
  9
$PEXTMAX
 10
-1.000000000000000E+20
 20
-1.000000000000000E+20
 30
-1.000000000000000E+20
  9
$PLIMMIN
 10
-586.5000002030047
 20
3.082973289489746
  9
$PLIMMAX
 10
-10.0
 20
410.0
  9
$UNITMODE
 70
     0
  9
$VISRETAIN
 70
     1
  9
$PLINEGEN
 70
     0
  9
$PSLTSCALE
 70
     1
  9
$TREEDEPTH
 70
  3020
  9
$PICKSTYLE
 70
     1
  9
$CMLSTYLE
  2
STANDARD
  9
$CMLJUST
 70
     0
  9
$CMLSCALE
 40
20.0
  9
$SAVEIMAGES
 70
     1
  0
ENDSEC
  0
SECTION
  2
CLASSES
  0
CLASS
  1
ACDBDICTIONARYWDFLT
  2
AcDbDictionaryWithDefault
  3
ObjectDBX Classes
 90
    32768
280
     0
281
     0
  0
CLASS
  1
VISUALSTYLE
  2
AcDbVisualStyle
  3
ObjectDBX Classes
 90
     4095
280
     0
281
     0
  0
CLASS
  1
MATERIAL
  2
AcDbMaterial
  3
ObjectDBX Classes
 90
     1153
280
     0
281
     0
  0
CLASS
  1
SCALE
  2
AcDbScale
  3
ObjectDBX Classes
 90
     1153
280
     0
281
     0
  0
CLASS
  1
TABLESTYLE
  2
AcDbTableStyle
  3
ObjectDBX Classes
 90
     4095
280
     0
281
     0
  0
CLASS
  1
MLEADERSTYLE
  2
AcDbMLeaderStyle
  3
ACDB_MLEADERSTYLE_CLASS
 90
     4095
280
     0
281
     0
  0
CLASS
  1
SUN
  2
AcDbSun
  3
SCENEOE
 90
     1153
280
     0
281
     0
  0
CLASS
  1
DICTIONARYVAR
  2
AcDbDictionaryVar
  3
ObjectDBX Classes
 90
        0
280
     0
281
     0
  0
CLASS
  1
XRECORD
  2
AcDbXrecord
  3
ObjectDBX Classes
 90
    32768
280
     0
281
     0
  0
CLASS
  1
LWPOLYLINE
  2
AcDbPolyline
  3
ObjectDBX Classes
 90
    32768
280
     0
281
     1
  0
CLASS
  1
HATCH
  2
AcDbHatch
  3
ObjectDBX Classes
 90
    32768
280
     0
281
     1
  0
CLASS
  1
ACDBPLACEHOLDER
  2
AcDbPlaceHolder
  3
ObjectDBX Classes
 90
        0
280
     0
281
     0
  0
CLASS
  1
LAYOUT
  2
AcDbLayout
  3
ObjectDBX Classes
 90
        0
280
     0
281
     0
  0
ENDSEC
  0
SECTION
  2
TABLES
  0
TABLE
  2
VPORT
  5
8
330
0
100
AcDbSymbolTable
 70
     1
  0
VPORT
  5
29
330
8
100
AcDbSymbolTableRecord
100
AcDbViewportTableRecord
  2
*ACTIVE
 70
     0
 10
0.0
 20
0.0
 11
1.0
 21
1.0
 12
344.1869158878504
 22
148.5
 13
0.0
 23
0.0
 14
10.0
 24
10.0
 15
10.0
 25
10.0
 16
0.0
 26
0.0
 36
1.0
 17
0.0
 27
0.0
 37
0.0
 40
297.0
 41
1.972972972850329
 42
50.0
 43
0.0
 44
0.0
 50
0.0
 51
0.0
 71
     0
 72
   100
 73
     1
 74
     3
 75
     0
 76
     0
 77
     0
 78
     0
  0
ENDTAB
  0
TABLE
  2
LTYPE
  5
5
330
0
100
AcDbSymbolTable
 70
     5
  0
LTYPE
  5
14
330
5
100
AcDbSymbolTableRecord
100
AcDbLinetypeTableRecord
  2
BYBLOCK
 70
     0
  3

 72
    65
 73
     0
 40
0.0
  0
LTYPE
  5
15
330
5
100
AcDbSymbolTableRecord
100
AcDbLinetypeTableRecord
  2
BYLAYER
 70
     0
  3

 72
    65
 73
     0
 40
0.0
  0
LTYPE
  5
16
330
5
100
AcDbSymbolTableRecord
100
AcDbLinetypeTableRecord
  2
CONTINUOUS
 70
     0
  3
Solid line
 72
    65
 73
     0
 40
0.0
  0
LTYPE
  5
6E
330
5
100
AcDbSymbolTableRecord
100
AcDbLinetypeTableRecord
  2
CONTINOUS
 70
     0
  3
______________________________
 72
    65
 73
     0
 40
0.0
  0
LTYPE
  5
6F
330
5
100
AcDbSymbolTableRecord
100
AcDbLinetypeTableRecord
  2
DASHED
 70
     0
  3
__ __ __ __ __ __ __ __ __ __ __ __ __ __ __ __
 72
    65
 73
     2
 40
4.5
 49
3.0
 74
     0
 49
-1.5
 74
     0
  0
LTYPE
  5
70
330
5
100
AcDbSymbolTableRecord
100
AcDbLinetypeTableRecord
  2
PHANTOM
 70
     0
  3
______  __  __  ______  __  __  _____
 72
    65
 73
     6
 40
15.0
 49
7.5
 74
     0
 49
-1.5
 74
     0
 49
1.5
 74
     0
 49
-1.5
 74
     0
 49
1.5
 74
     0
 49
-1.5
 74
     0
  0
LTYPE
  5
71
330
5
100
AcDbSymbolTableRecord
100
AcDbLinetypeTableRecord
  2
CENTER
 70
     0
  3
____ _ ____ _ ____ _ ____ _ ____ _ ____
 72
    65
 73
     4
 40
12.0
 49
7.5
 74
     0
 49
-1.5
 74
     0
 49
1.5
 74
     0
 49
-1.5
 74
     0
  0
ENDTAB
  0
TABLE
  2
LAYER
  5
2
330
0
100
AcDbSymbolTable
 70
     5
  0
LAYER
  5
10
330
2
100
AcDbSymbolTableRecord
100
AcDbLayerTableRecord
  2
0
 70
     0
 62
     7
  6
CONTINUOUS
  0
LAYER
  5
2D5
330
2
100
AcDbSymbolTableRecord
100
AcDbLayerTableRecord
  2
DEFPOINTS
 70
     0
 62
     7
  6
CONTINUOUS
  0
LAYER
  5
591
330
2
100
AcDbSymbolTableRecord
100
AcDbLayerTableRecord
  2
VIEW0001
 70
     0
 62
     7
  6
CONTINUOUS
  0
LAYER
  5
5C8
330
2
100
AcDbSymbolTableRecord
100
AcDbLayerTableRecord
  2
VIEW0002
 70
     0
 62
     7
  6
CONTINUOUS
  0
LAYER
  5
63F
330
2
100
AcDbSymbolTableRecord
100
AcDbLayerTableRecord
  2
VIEW0003
 70
     0
 62
     7
  6
CONTINUOUS
  0
ENDTAB
  0
TABLE
  2
STYLE
  5
3
330
0
100
AcDbSymbolTable
 70
     1
  0
STYLE
  5
11
330
3
100
AcDbSymbolTableRecord
100
AcDbTextStyleTableRecord
  2
STANDARD
 70
     0
 40
0.0
 41
1.0
 50
0.0
 71
     0
 42
2.5
  3
ROMANS
  4
EXTFONT
  0
ENDTAB
  0
TABLE
  2
VIEW
  5
6
330
0
100
AcDbSymbolTable
 70
     0
  0
ENDTAB
  0
TABLE
  2
UCS
  5
7
330
0
100
AcDbSymbolTable
 70
     0
  0
ENDTAB
  0
TABLE
  2
APPID
  5
9
330
0
100
AcDbSymbolTable
 70
     2
  0
APPID
  5
12
330
9
100
AcDbSymbolTableRecord
100
AcDbRegAppTableRecord
  2
ACAD
 70
     0
  0
APPID
  5
65D
330
9
100
AcDbSymbolTableRecord
100
AcDbRegAppTableRecord
  2
ACAD_MLEADERVER
 70
     0
  0
ENDTAB
  0
TABLE
  2
DIMSTYLE
  5
A
330
0
100
AcDbSymbolTable
 70
     1
  0
DIMSTYLE
105
27
102
{ACAD_REACTORS
330
2CE
330
2E2
330
2F6
330
309
330
319
330
330
330
33E
330
34B
330
358
330
365
330
37B
330
397
330
3A7
330
3B4
330
3BF
330
3DC
330
3F2
330
401
330
40D
330
419
330
426
330
43C
330
447
330
454
330
460
330
46C
330
479
330
485
330
491
330
4B8
330
4C7
330
4D4
330
4E1
330
4F5
330
501
330
50E
330
519
330
526
330
538
330
550
330
55D
330
56A
102
}
330
A
100
AcDbSymbolTableRecord
100
AcDbDimStyleTableRecord
  2
ISO-25
 70
     0
  3

  4

  5

  6

  7

 40
1.0
 41
2.5
 42
0.625
 43
3.75
 44
1.25
 45
0.0
 46
0.0
 47
0.0
 48
0.0
140
2.5
141
2.5
142
0.0
143
0.03937007874016
144
1.0
145
0.0
146
1.0
147
0.625
 71
     0
 72
     0
 73
     0
 74
     0
 75
     0
 76
     0
 77
     1
 78
     8
170
     0
171
     3
172
     1
173
     0
174
     0
175
     0
176
     0
177
     0
178
     0
270
     2
271
     2
272
     2
273
     2
274
     3
340
11
275
     0
280
     0
281
     0
282
     0
283
     0
284
     8
285
     0
286
     0
287
     3
288
     0
  0
ENDTAB
  0
TABLE
  2
BLOCK_RECORD
  5
1
330
0
100
AcDbSymbolTable
 70
    57
  0
BLOCK_RECORD
  5
1F
330
1
100
AcDbSymbolTableRecord
100
AcDbBlockTableRecord
  2
*MODEL_SPACE
  0
BLOCK_RECORD
  5
1B
330
1
100
AcDbSymbolTableRecord
100
AcDbBlockTableRecord
  2
*PAPER_SPACE
  0
BLOCK_RECORD
  5
2CF
330
1
100
AcDbSymbolTableRecord
100
AcDbBlockTableRecord
  2
_OPEN30
  0
BLOCK_RECORD
  5
2D6
330
1
100
AcDbSymbolTableRecord
100
AcDbBlockTableRecord
  2
*D2
  0
BLOCK_RECORD
  5
2E3
330
1
100
AcDbSymbolTableRecord
100
AcDbBlockTableRecord
  2
*D3
  0
BLOCK_RECORD
  5
2F7
330
1
100
AcDbSymbolTableRecord
100
AcDbBlockTableRecord
  2
_NONE
  0
BLOCK_RECORD
  5
2FA
330
1
100
AcDbSymbolTableRecord
100
AcDbBlockTableRecord
  2
*D5
  0
BLOCK_RECORD
  5
30A
330
1
100
AcDbSymbolTableRecord
100
AcDbBlockTableRecord
  2
*D6
  0
BLOCK_RECORD
  5
31A
330
1
100
AcDbSymbolTableRecord
100
AcDbBlockTableRecord
  2
*D7
  0
BLOCK_RECORD
  5
331
330
1
100
AcDbSymbolTableRecord
100
AcDbBlockTableRecord
  2
*D8
  0
BLOCK_RECORD
  5
33F
330
1
100
AcDbSymbolTableRecord
100
AcDbBlockTableRecord
  2
*D9
  0
BLOCK_RECORD
  5
34C
330
1
100
AcDbSymbolTableRecord
100
AcDbBlockTableRecord
  2
*D10
  0
BLOCK_RECORD
  5
359
330
1
100
AcDbSymbolTableRecord
100
AcDbBlockTableRecord
  2
*D11
  0
BLOCK_RECORD
  5
366
330
1
100
AcDbSymbolTableRecord
100
AcDbBlockTableRecord
  2
*D12
  0
BLOCK_RECORD
  5
37C
330
1
100
AcDbSymbolTableRecord
100
AcDbBlockTableRecord
  2
_ORIGIN
  0
BLOCK_RECORD
  5
381
330
1
100
AcDbSymbolTableRecord
100
AcDbBlockTableRecord
  2
*D14
  0
BLOCK_RECORD
  5
398
330
1
100
AcDbSymbolTableRecord
100
AcDbBlockTableRecord
  2
*D15
  0
BLOCK_RECORD
  5
3A8
330
1
100
AcDbSymbolTableRecord
100
AcDbBlockTableRecord
  2
*D16
  0
BLOCK_RECORD
  5
3B5
330
1
100
AcDbSymbolTableRecord
100
AcDbBlockTableRecord
  2
*D17
  0
BLOCK_RECORD
  5
3C0
330
1
100
AcDbSymbolTableRecord
100
AcDbBlockTableRecord
  2
*D18
  0
BLOCK_RECORD
  5
3D3
330
1
100
AcDbSymbolTableRecord
100
AcDbBlockTableRecord
  2
SYM0001
  0
BLOCK_RECORD
  5
3DD
330
1
100
AcDbSymbolTableRecord
100
AcDbBlockTableRecord
  2
*D20
  0
BLOCK_RECORD
  5
3E9
330
1
100
AcDbSymbolTableRecord
100
AcDbBlockTableRecord
  2
SYM0002
  0
BLOCK_RECORD
  5
3F3
330
1
100
AcDbSymbolTableRecord
100
AcDbBlockTableRecord
  2
*D22
  0
BLOCK_RECORD
  5
402
330
1
100
AcDbSymbolTableRecord
100
AcDbBlockTableRecord
  2
*D23
  0
BLOCK_RECORD
  5
40E
330
1
100
AcDbSymbolTableRecord
100
AcDbBlockTableRecord
  2
*D24
  0
BLOCK_RECORD
  5
41A
330
1
100
AcDbSymbolTableRecord
100
AcDbBlockTableRecord
  2
*D25
  0
BLOCK_RECORD
  5
427
330
1
100
AcDbSymbolTableRecord
100
AcDbBlockTableRecord
  2
*D26
  0
BLOCK_RECORD
  5
433
330
1
100
AcDbSymbolTableRecord
100
AcDbBlockTableRecord
  2
SYM0003
  0
BLOCK_RECORD
  5
43D
330
1
100
AcDbSymbolTableRecord
100
AcDbBlockTableRecord
  2
*D28
  0
BLOCK_RECORD
  5
448
330
1
100
AcDbSymbolTableRecord
100
AcDbBlockTableRecord
  2
*D29
  0
BLOCK_RECORD
  5
455
330
1
100
AcDbSymbolTableRecord
100
AcDbBlockTableRecord
  2
*D30
  0
BLOCK_RECORD
  5
461
330
1
100
AcDbSymbolTableRecord
100
AcDbBlockTableRecord
  2
*D31
  0
BLOCK_RECORD
  5
46D
330
1
100
AcDbSymbolTableRecord
100
AcDbBlockTableRecord
  2
*D32
  0
BLOCK_RECORD
  5
47A
330
1
100
AcDbSymbolTableRecord
100
AcDbBlockTableRecord
  2
*D33
  0
BLOCK_RECORD
  5
486
330
1
100
AcDbSymbolTableRecord
100
AcDbBlockTableRecord
  2
*D34
  0
BLOCK_RECORD
  5
492
330
1
100
AcDbSymbolTableRecord
100
AcDbBlockTableRecord
  2
*D35
  0
BLOCK_RECORD
  5
49F
330
1
100
AcDbSymbolTableRecord
100
AcDbBlockTableRecord
  2
SYM0004
  0
BLOCK_RECORD
  5
4A8
330
1
100
AcDbSymbolTableRecord
100
AcDbBlockTableRecord
  2
SYM0005
  0
BLOCK_RECORD
  5
4B0
330
1
100
AcDbSymbolTableRecord
100
AcDbBlockTableRecord
  2
SYM0006
  0
BLOCK_RECORD
  5
4B9
330
1
100
AcDbSymbolTableRecord
100
AcDbBlockTableRecord
  2
*D39
  0
BLOCK_RECORD
  5
4C8
330
1
100
AcDbSymbolTableRecord
100
AcDbBlockTableRecord
  2
*D40
  0
BLOCK_RECORD
  5
4D5
330
1
100
AcDbSymbolTableRecord
100
AcDbBlockTableRecord
  2
*D41
  0
BLOCK_RECORD
  5
4E2
330
1
100
AcDbSymbolTableRecord
100
AcDbBlockTableRecord
  2
*D42
  0
BLOCK_RECORD
  5
4EC
330
1
100
AcDbSymbolTableRecord
100
AcDbBlockTableRecord
  2
SYM0007
  0
BLOCK_RECORD
  5
4F6
330
1
100
AcDbSymbolTableRecord
100
AcDbBlockTableRecord
  2
*D44
  0
BLOCK_RECORD
  5
502
330
1
100
AcDbSymbolTableRecord
100
AcDbBlockTableRecord
  2
*D45
  0
BLOCK_RECORD
  5
50F
330
1
100
AcDbSymbolTableRecord
100
AcDbBlockTableRecord
  2
*D46
  0
BLOCK_RECORD
  5
51A
330
1
100
AcDbSymbolTableRecord
100
AcDbBlockTableRecord
  2
*D47
  0
BLOCK_RECORD
  5
527
330
1
100
AcDbSymbolTableRecord
100
AcDbBlockTableRecord
  2
*D48
  0
BLOCK_RECORD
  5
539
330
1
100
AcDbSymbolTableRecord
100
AcDbBlockTableRecord
  2
*D49
  0
BLOCK_RECORD
  5
547
330
1
100
AcDbSymbolTableRecord
100
AcDbBlockTableRecord
  2
SYM0008
  0
BLOCK_RECORD
  5
551
330
1
100
AcDbSymbolTableRecord
100
AcDbBlockTableRecord
  2
*D51
  0
BLOCK_RECORD
  5
55E
330
1
100
AcDbSymbolTableRecord
100
AcDbBlockTableRecord
  2
*D52
  0
BLOCK_RECORD
  5
56B
330
1
100
AcDbSymbolTableRecord
100
AcDbBlockTableRecord
  2
*D53
  0
BLOCK_RECORD
  5
576
330
1
100
AcDbSymbolTableRecord
100
AcDbBlockTableRecord
  2
SYM0009
  0
BLOCK_RECORD
  5
57F
330
1
100
AcDbSymbolTableRecord
100
AcDbBlockTableRecord
  2
SYM0010
  0
BLOCK_RECORD
  5
588
330
1
100
AcDbSymbolTableRecord
100
AcDbBlockTableRecord
  2
SYM0011
  0
BLOCK_RECORD
  5
636
330
1
100
AcDbSymbolTableRecord
100
AcDbBlockTableRecord
  2
$X0
  0
ENDTAB
  0
ENDSEC
  0
SECTION
  2
BLOCKS
  0
BLOCK
  5
20
330
1F
100
AcDbEntity
  8
0
100
AcDbBlockBegin
  2
*MODEL_SPACE
 70
     0
 10
0.0
 20
0.0
 30
0.0
  3
*MODEL_SPACE
  1

  0
ENDBLK
  5
21
330
1F
100
AcDbEntity
  8
0
100
AcDbBlockEnd
  0
BLOCK
  5
1C
330
1B
100
AcDbEntity
 67
     1
  8
0
100
AcDbBlockBegin
  2
*PAPER_SPACE
 70
     0
 10
0.0
 20
0.0
 30
0.0
  3
*PAPER_SPACE
  1

  0
ENDBLK
  5
1D
330
1B
100
AcDbEntity
 67
     1
  8
0
100
AcDbBlockEnd
  0
BLOCK
  5
2D0
330
2CF
100
AcDbEntity
  8
0
100
AcDbBlockBegin
  2
_OPEN30
 70
     0
 10
0.0
 20
0.0
 30
0.0
  3
_OPEN30
  1

  0
LINE
  5
2D2
330
2CF
100
AcDbEntity
  8
0
  6
BYBLOCK
 62
     0
100
AcDbLine
 10
-1.0
 20
0.267949
 30
0.0
 11
0.0
 21
0.0
 31
0.0
  0
LINE
  5
2D3
330
2CF
100
AcDbEntity
  8
0
  6
BYBLOCK
 62
     0
100
AcDbLine
 10
0.0
 20
0.0
 30
0.0
 11
-1.0
 21
-0.267949
 31
0.0
  0
LINE
  5
2D4
330
2CF
100
AcDbEntity
  8
0
  6
BYBLOCK
 62
     0
100
AcDbLine
 10
0.0
 20
0.0
 30
0.0
 11
-1.0
 21
0.0
 31
0.0
  0
ENDBLK
  5
2D1
330
2CF
100
AcDbEntity
  8
0
100
AcDbBlockEnd
  0
BLOCK
  5
2D7
330
2D6
100
AcDbEntity
  8
0
100
AcDbBlockBegin
  2
*D2
 70
     1
 10
0.0
 20
0.0
 30
0.0
  3
*D2
  1

  0
LINE
  5
2D9
330
2D6
100
AcDbEntity
  8
0
 62
     0
100
AcDbLine
 10
-429.54
 20
256.0
 30
0.0
 11
-485.26901953125
 21
256.0
 31
0.0
  0
LINE
  5
2DA
330
2D6
100
AcDbEntity
  8
0
 62
     0
100
AcDbLine
 10
-429.54
 20
316.0
 30
0.0
 11
-485.26901953125
 21
316.0
 31
0.0
  0
LINE
  5
2DB
330
2D6
100
AcDbEntity
  8
0
 62
     0
100
AcDbLine
 10
-483.999
 20
259.0
 30
0.0
 11
-483.999
 21
313.0
 31
0.0
  0
INSERT
  5
2DC
330
2D6
100
AcDbEntity
  8
0
 62
     0
100
AcDbBlockReference
  2
_OPEN30
 10
-483.999
 20
256.0
 30
0.0
 41
3.0
 42
3.0
 43
3.0
 50
270.0
  0
INSERT
  5
2DD
330
2D6
100
AcDbEntity
  8
0
 62
     0
100
AcDbBlockReference
  2
_OPEN30
 10
-483.999
 20
316.0
 30
0.0
 41
3.0
 42
3.0
 43
3.0
 50
90.0
  0
MTEXT
  5
2DE
330
2D6
100
AcDbEntity
  8
0
 62
     0
100
AcDbMText
 10
-486.63975
 20
286.001
 30
0.0
 40
3.5
 41
0.0
 71
     5
 72
     1
  1
\U+220560
 11
0.0
 21
1.0
 31
0.0
  0
POINT
  5
2DF
330
2D6
100
AcDbEntity
  8
DEFPOINTS
 62
     0
100
AcDbPoint
 10
-427.0
 20
256.0
 30
0.0
  0
POINT
  5
2E0
330
2D6
100
AcDbEntity
  8
DEFPOINTS
 62
     0
100
AcDbPoint
 10
-427.0
 20
316.0
 30
0.0
  0
POINT
  5
2E1
330
2D6
100
AcDbEntity
  8
DEFPOINTS
 62
     0
100
AcDbPoint
 10
-484.0
 20
316.0
 30
0.0
  0
ENDBLK
  5
2D8
330
2D6
100
AcDbEntity
  8
0
100
AcDbBlockEnd
  0
BLOCK
  5
2E4
330
2E3
100
AcDbEntity
  8
0
100
AcDbBlockBegin
  2
*D3
 70
     1
 10
0.0
 20
0.0
 30
0.0
  3
*D3
  1

  0
MTEXT
  5
2EC
330
2E3
100
AcDbEntity
  8
0
 62
     0
100
AcDbMText
 10
-441.499
 20
189.64175
 30
0.0
 40
3.5
 41
0.0
 71
     5
 72
     1
  1
5
  0
POINT
  5
2ED
330
2E3
100
AcDbEntity
  8
DEFPOINTS
 62
     0
100
AcDbPoint
 10
-444.0
 20
203.5
 30
0.0
  0
POINT
  5
2EE
330
2E3
100
AcDbEntity
  8
DEFPOINTS
 62
     0
100
AcDbPoint
 10
-439.0
 20
217.0
 30
0.0
  0
POINT
  5
2EF
330
2E3
100
AcDbEntity
  8
DEFPOINTS
 62
     0
100
AcDbPoint
 10
-439.0
 20
187.0
 30
0.0
  0
LINE
  5
2F0
330
2E3
100
AcDbEntity
  8
0
  6
CONTINUOUS
 62
     7
100
AcDbLine
 10
-444.0
 20
200.96
 30
0.0
 11
-444.0
 21
185.7299957275391
 31
0.0
  0
LINE
  5
2F1
330
2E3
100
AcDbEntity
  8
0
  6
CONTINUOUS
 62
     7
100
AcDbLine
 10
-450.35
 20
187.0
 30
0.0
 11
-432.65
 21
187.0
 31
0.0
  0
LINE
  5
2F2
330
2E3
100
AcDbEntity
  8
0
  6
CONTINUOUS
 62
     7
100
AcDbLine
 10
-444.0
 20
187.0
 30
0.0
 11
-447.0545256620056
 21
186.1815423157
 31
0.0
  0
LINE
  5
2F3
330
2E3
100
AcDbEntity
  8
0
  6
CONTINUOUS
 62
     7
100
AcDbLine
 10
-444.0
 20
187.0
 30
0.0
 11
-447.0545256620056
 21
187.8184576843
 31
0.0
  0
LINE
  5
2F4
330
2E3
100
AcDbEntity
  8
0
  6
CONTINUOUS
 62
     7
100
AcDbLine
 10
-439.0
 20
187.0
 30
0.0
 11
-435.9454743379944
 21
187.8184576843
 31
0.0
  0
LINE
  5
2F5
330
2E3
100
AcDbEntity
  8
0
  6
CONTINUOUS
 62
     7
100
AcDbLine
 10
-439.0
 20
187.0
 30
0.0
 11
-435.9454743379944
 21
186.1815423157
 31
0.0
  0
ENDBLK
  5
2E5
330
2E3
100
AcDbEntity
  8
0
100
AcDbBlockEnd
  0
BLOCK
  5
2F8
330
2F7
100
AcDbEntity
  8
0
100
AcDbBlockBegin
  2
_NONE
 70
     0
 10
0.0
 20
0.0
 30
0.0
  3
_NONE
  1

  0
ENDBLK
  5
2F9
330
2F7
100
AcDbEntity
  8
0
100
AcDbBlockEnd
  0
BLOCK
  5
2FB
330
2FA
100
AcDbEntity
  8
0
100
AcDbBlockBegin
  2
*D5
 70
     1
 10
0.0
 20
0.0
 30
0.0
  3
*D5
  1

  0
MTEXT
  5
300
330
2FA
100
AcDbEntity
  8
0
 62
     0
100
AcDbMText
 10
-332.63975
 20
286.001
 30
0.0
 40
3.5
 41
0.0
 71
     5
 72
     1
  1
\U+220558
 11
0.0
 21
1.0
 31
0.0
  0
POINT
  5
301
330
2FA
100
AcDbEntity
  8
DEFPOINTS
 62
     0
100
AcDbPoint
 10
-358.5025939941406
 20
315.0
 30
0.0
  0
POINT
  5
302
330
2FA
100
AcDbEntity
  8
DEFPOINTS
 62
     0
100
AcDbPoint
 10
-360.1000061035156
 20
257.0
 30
0.0
  0
POINT
  5
303
330
2FA
100
AcDbEntity
  8
DEFPOINTS
 62
     0
100
AcDbPoint
 10
-330.0
 20
257.0
 30
0.0
  0
LINE
  5
304
330
2FA
100
AcDbEntity
  8
0
  6
CONTINUOUS
 62
     7
100
AcDbLine
 10
-357.5600061035156
 20
257.0
 30
0.0
 11
-328.7299957275391
 21
257.0
 31
0.0
  0
LINE
  5
305
330
2FA
100
AcDbEntity
  8
0
  6
CONTINUOUS
 62
     7
100
AcDbLine
 10
-330.0
 20
281.7786178588867
 30
0.0
 11
-330.0
 21
257.0
 31
0.0
  0
LINE
  5
306
330
2FA
100
AcDbEntity
  8
0
  6
CONTINUOUS
 62
     7
100
AcDbLine
 10
-330.0
 20
257.0
 30
0.0
 11
-330.8184576843
 21
260.0545256620056
 31
0.0
  0
LINE
  5
307
330
2FA
100
AcDbEntity
  8
0
  6
CONTINUOUS
 62
     7
100
AcDbLine
 10
-330.0
 20
257.0
 30
0.0
 11
-329.1815423157
 21
260.0545256620056
 31
0.0
  0
LINE
  5
308
330
2FA
100
AcDbEntity
  8
0
  6
CONTINUOUS
 62
     7
100
AcDbLine
 10
-330.0
 20
281.7786178588867
 30
0.0
 11
-330.0
 21
297.2913541793823
 31
0.0
  0
ENDBLK
  5
2FC
330
2FA
100
AcDbEntity
  8
0
100
AcDbBlockEnd
  0
BLOCK
  5
30B
330
30A
100
AcDbEntity
  8
0
100
AcDbBlockBegin
  2
*D6
 70
     1
 10
0.0
 20
0.0
 30
0.0
  3
*D6
  1

  0
MTEXT
  5
310
330
30A
100
AcDbEntity
  8
0
 62
     0
100
AcDbMText
 10
-321.63975
 20
286.001
 30
0.0
 40
3.5
 41
0.0
 71
     5
 72
     1
  1
\U+220570
 11
0.0
 21
1.0
 31
0.0
  0
POINT
  5
311
330
30A
100
AcDbEntity
  8
DEFPOINTS
 62
     0
100
AcDbPoint
 10
-363.0
 20
321.0
 30
0.0
  0
POINT
  5
312
330
30A
100
AcDbEntity
  8
DEFPOINTS
 62
     0
100
AcDbPoint
 10
-363.0
 20
251.0
 30
0.0
  0
POINT
  5
313
330
30A
100
AcDbEntity
  8
DEFPOINTS
 62
     0
100
AcDbPoint
 10
-319.0
 20
251.0
 30
0.0
  0
LINE
  5
314
330
30A
100
AcDbEntity
  8
0
  6
CONTINUOUS
 62
     7
100
AcDbLine
 10
-360.46
 20
251.0
 30
0.0
 11
-317.7299957275391
 21
251.0
 31
0.0
  0
LINE
  5
315
330
30A
100
AcDbEntity
  8
0
  6
CONTINUOUS
 62
     7
100
AcDbLine
 10
-319.0
 20
281.7786178588867
 30
0.0
 11
-319.0
 21
251.0
 31
0.0
  0
LINE
  5
316
330
30A
100
AcDbEntity
  8
0
  6
CONTINUOUS
 62
     7
100
AcDbLine
 10
-319.0
 20
251.0
 30
0.0
 11
-319.8184576843
 21
254.0545256620056
 31
0.0
  0
LINE
  5
317
330
30A
100
AcDbEntity
  8
0
  6
CONTINUOUS
 62
     7
100
AcDbLine
 10
-319.0
 20
251.0
 30
0.0
 11
-318.1815423157
 21
254.0545256620056
 31
0.0
  0
LINE
  5
318
330
30A
100
AcDbEntity
  8
0
  6
CONTINUOUS
 62
     7
100
AcDbLine
 10
-319.0
 20
281.7786178588867
 30
0.0
 11
-319.0
 21
301.4584512710571
 31
0.0
  0
ENDBLK
  5
30C
330
30A
100
AcDbEntity
  8
0
100
AcDbBlockEnd
  0
BLOCK
  5
31B
330
31A
100
AcDbEntity
  8
0
100
AcDbBlockBegin
  2
*D7
 70
     1
 10
0.0
 20
0.0
 30
0.0
  3
*D7
  1

  0
POINT
  5
323
330
31A
100
AcDbEntity
  8
DEFPOINTS
 62
     0
100
AcDbPoint
 10
-132.0000029322258
 20
285.9999646789653
 30
0.0
  0
POINT
  5
324
330
31A
100
AcDbEntity
  8
DEFPOINTS
 62
     0
100
AcDbPoint
 10
-149.1208742678892
 20
222.1040035199626
 30
0.0
  0
POINT
  5
325
330
31A
100
AcDbEntity
  8
DEFPOINTS
 62
     0
100
AcDbPoint
 10
-132.0
 20
196.5
 30
0.0
  0
POINT
  5
326
330
31A
100
AcDbEntity
  8
DEFPOINTS
 62
     0
100
AcDbPoint
 10
-148.5277313181452
 20
192.2665539441397
 30
0.0
  0
LINE
  5
328
330
31A
100
AcDbEntity
  8
0
  6
CONTINUOUS
 62
     7
100
AcDbLine
 10
-149.7782746475905
 20
219.6505519225659
 30
0.0
 11
-156.9632314605275
 21
192.8359282712432
 31
0.0
  0
LINE
  5
329
330
31A
100
AcDbEntity
  8
0
  6
CONTINUOUS
 62
     7
100
AcDbLine
 10
-131.9999999167838
 20
193.96
 30
0.0
 11
-131.9999997722842
 21
189.5494565257636
 31
0.0
  0
ARC
  5
32A
330
31A
100
AcDbEntity
  8
0
  6
CONTINUOUS
 62
     7
100
AcDbCircle
 10
-132.0
 20
285.9999771118164
 30
0.0
 40
95.18052058605271
100
AcDbArc
 50
255.0000001120312
 51
270.0000001120312
  0
LINE
  5
32B
330
31A
100
AcDbEntity
  8
0
  6
CONTINUOUS
 62
     7
100
AcDbLine
 10
-156.6345312706767
 20
194.0626540699416
 30
0.0
 11
-153.472660702034
 21
194.1133936796313
 31
0.0
  0
LINE
  5
32C
330
31A
100
AcDbEntity
  8
0
  6
CONTINUOUS
 62
     7
100
AcDbLine
 10
-156.6345312706767
 20
194.0626540699416
 30
0.0
 11
-153.8709012298202
 21
192.5256605767492
 31
0.0
  0
LINE
  5
32D
330
31A
100
AcDbEntity
  8
0
  6
CONTINUOUS
 62
     7
100
AcDbLine
 10
-131.9999998138923
 20
190.8194565257637
 30
0.0
 11
-135.0672646298922
 21
190.0501148920472
 31
0.0
  0
LINE
  5
32E
330
31A
100
AcDbEntity
  8
0
  6
CONTINUOUS
 62
     7
100
AcDbLine
 10
-131.9999998138923
 20
190.8194565257637
 30
0.0
 11
-135.0409998815908
 21
191.6868195346005
 31
0.0
  0
MTEXT
  5
32F
330
31A
100
AcDbEntity
  8
0
 62
     7
100
AcDbMText
 10
-142.947257187717
 20
192.3261058382894
 30
0.0
 40
3.5
 41
0.0
 71
     8
 72
     1
  1
\W1;15°
 11
0.9933727656003964
 21
-0.1149371504928668
 31
0.0
  0
ENDBLK
  5
31C
330
31A
100
AcDbEntity
  8
0
100
AcDbBlockEnd
  0
BLOCK
  5
332
330
331
100
AcDbEntity
  8
0
100
AcDbBlockBegin
  2
*D8
 70
     1
 10
0.0
 20
0.0
 30
0.0
  3
*D8
  1

  0
LINE
  5
334
330
331
100
AcDbEntity
  8
0
 62
     0
100
AcDbLine
 10
-114.2217227353043
 20
219.6505526238171
 30
0.0
 11
-107.0369591686421
 21
192.8366319659656
 31
0.0
  0
ARC
  5
335
330
331
100
AcDbEntity
  8
0
 62
     0
100
AcDbCircle
 10
-132.0000000000001
 20
286.0000311537414
 30
0.0
 40
95.17984373117926
100
AcDbArc
 50
271.8059963934004
 51
283.1939939981394
  0
INSERT
  5
336
330
331
100
AcDbEntity
  8
0
 62
     0
100
AcDbBlockReference
  2
_OPEN30
 10
-132.0000000000001
 20
190.8201874225621
 30
0.0
 41
3.0
 42
3.0
 43
3.0
 50
180.9029981967003
  0
INSERT
  5
337
330
331
100
AcDbEntity
  8
0
 62
     0
100
AcDbBlockReference
  2
_OPEN30
 10
-107.3656591502013
 20
194.0633578204755
 30
0.0
 41
3.0
 42
3.0
 43
3.0
 50
14.09699219483971
  0
POINT
  5
339
330
331
100
AcDbEntity
  8
DEFPOINTS
 62
     0
100
AcDbPoint
 10
-132.0000000000001
 20
286.0000311537414
 30
0.0
  0
POINT
  5
33A
330
331
100
AcDbEntity
  8
DEFPOINTS
 62
     0
100
AcDbPoint
 10
-132.0000000000001
 20
196.5
 30
0.0
  0
POINT
  5
33B
330
331
100
AcDbEntity
  8
DEFPOINTS
 62
     0
100
AcDbPoint
 10
-114.8791226984227
 20
222.1040043328369
 30
0.0
  0
POINT
  5
33C
330
331
100
AcDbEntity
  8
DEFPOINTS
 62
     0
100
AcDbPoint
 10
-123.7045353252868
 20
191.1823749998251
 30
0.0
  0
MTEXT
  5
33D
330
331
100
AcDbEntity
  8
0
 62
     7
100
AcDbMText
 10
-119.5764500702162
 20
192.5087390086197
 30
0.0
 40
3.5
 41
0.0
 71
     8
 72
     1
  1
\W1;15°
 11
0.9914448613738104
 21
0.1305261922200516
 31
0.0
  0
ENDBLK
  5
333
330
331
100
AcDbEntity
  8
0
100
AcDbBlockEnd
  0
BLOCK
  5
340
330
33F
100
AcDbEntity
  8
0
100
AcDbBlockBegin
  2
*D9
 70
     1
 10
0.0
 20
0.0
 30
0.0
  3
*D9
  1

  0
LINE
  5
342
330
33F
100
AcDbEntity
  8
0
 62
     0
100
AcDbLine
 10
-244.9846527433392
 20
227.6964846173219
 30
0.0
 11
-237.2070835117047
 21
232.1868663874415
 31
0.0
  0
LINE
  5
343
330
33F
100
AcDbEntity
  8
0
 62
     0
100
AcDbLine
 10
-238.9846526625722
 20
217.3041798185395
 30
0.0
 11
-231.2070834309377
 21
221.7945615886591
 31
0.0
  0
LINE
  5
344
330
33F
100
AcDbEntity
  8
0
 62
     0
100
AcDbLine
 10
-236.8069328421943
 20
228.9537918576649
 30
0.0
 11
-233.8069328018108
 21
223.7576394582737
 31
0.0
  0
INSERT
  5
345
330
33F
100
AcDbEntity
  8
0
 62
     0
100
AcDbBlockReference
  2
_OPEN30
 10
-238.306932862386
 20
231.5518680573605
 30
0.0
 41
3.0
 42
3.0
 43
3.0
 50
120.000000445292
  0
INSERT
  5
346
330
33F
100
AcDbEntity
  8
0
 62
     0
100
AcDbBlockReference
  2
_OPEN30
 10
-232.306932781619
 20
221.1595632585781
 30
0.0
 41
3.0
 42
3.0
 43
3.0
 50
300.000000445292
  0
MTEXT
  5
347
330
33F
100
AcDbEntity
  8
0
 62
     0
100
AcDbMText
 10
-233.0204088426984
 20
227.6768399530765
 30
0.0
 40
3.5
 41
0.0
 71
     5
 72
     1
  1
12h8
 11
0.5000000067305856
 21
-0.8660253998985333
 31
0.0
  0
POINT
  5
348
330
33F
100
AcDbEntity
  8
DEFPOINTS
 62
     0
100
AcDbPoint
 10
-247.1843572590815
 20
226.4264846002262
 30
0.0
  0
POINT
  5
349
330
33F
100
AcDbEntity
  8
DEFPOINTS
 62
     0
100
AcDbPoint
 10
-241.1843571783145
 20
216.0341798014438
 30
0.0
  0
POINT
  5
34A
330
33F
100
AcDbEntity
  8
DEFPOINTS
 62
     0
100
AcDbPoint
 10
-232.3073655756238
 20
221.1593133848385
 30
0.0
  0
ENDBLK
  5
341
330
33F
100
AcDbEntity
  8
0
100
AcDbBlockEnd
  0
BLOCK
  5
34D
330
34C
100
AcDbEntity
  8
0
100
AcDbBlockBegin
  2
*D10
 70
     1
 10
0.0
 20
0.0
 30
0.0
  3
*D10
  1

  0
LINE
  5
34F
330
34C
100
AcDbEntity
  8
0
 62
     0
100
AcDbLine
 10
-264.4904681900268
 20
219.3215479751874
 30
0.0
 11
-290.9537894288319
 21
204.0429420600878
 31
0.0
  0
LINE
  5
350
330
34C
100
AcDbEntity
  8
0
 62
     0
100
AcDbLine
 10
-255.9904680756068
 20
204.5991161769124
 30
0.0
 11
-282.4537893144119
 21
189.3205102618128
 31
0.0
  0
LINE
  5
351
330
34C
100
AcDbEntity
  8
0
 62
     0
100
AcDbLine
 10
-288.3539334507093
 20
202.0798680051706
 30
0.0
 11
-282.8539333766728
 21
192.5535886062867
 31
0.0
  0
INSERT
  5
352
330
34C
100
AcDbEntity
  8
0
 62
     0
100
AcDbBlockReference
  2
_OPEN30
 10
-289.853933470901
 20
204.6779442048662
 30
0.0
 41
3.0
 42
3.0
 43
3.0
 50
120.000000445292
  0
INSERT
  5
353
330
34C
100
AcDbEntity
  8
0
 62
     0
100
AcDbBlockReference
  2
_OPEN30
 10
-281.3539333564811
 20
189.9555124065911
 30
0.0
 41
3.0
 42
3.0
 43
3.0
 50
300.000000445292
  0
MTEXT
  5
354
330
34C
100
AcDbEntity
  8
0
 62
     0
100
AcDbMText
 10
-283.3262544897685
 20
198.6321726861601
 30
0.0
 40
3.5
 41
0.0
 71
     5
 72
     1
  1
17
 11
0.5000000067305868
 21
-0.8660253998985327
 31
0.0
  0
POINT
  5
355
330
34C
100
AcDbEntity
  8
DEFPOINTS
 62
     0
100
AcDbPoint
 10
-262.2907636742845
 20
220.5915479922831
 30
0.0
  0
POINT
  5
356
330
34C
100
AcDbEntity
  8
DEFPOINTS
 62
     0
100
AcDbPoint
 10
-253.7907635598646
 20
205.8691161940081
 30
0.0
  0
POINT
  5
357
330
34C
100
AcDbEntity
  8
DEFPOINTS
 62
     0
100
AcDbPoint
 10
-281.3551114614781
 20
189.9548322273418
 30
0.0
  0
ENDBLK
  5
34E
330
34C
100
AcDbEntity
  8
0
100
AcDbBlockEnd
  0
BLOCK
  5
35A
330
359
100
AcDbEntity
  8
0
100
AcDbBlockBegin
  2
*D11
 70
     1
 10
0.0
 20
0.0
 30
0.0
  3
*D11
  1

  0
LINE
  5
35C
330
359
100
AcDbEntity
  8
0
 62
     0
100
AcDbLine
 10
-239.9143571612188
 20
213.8344752857016
 30
0.0
 11
-225.7667277247319
 21
189.3300627348602
 31
0.0
  0
LINE
  5
35D
330
359
100
AcDbEntity
  8
0
 62
     0
100
AcDbLine
 10
-247.8156355845539
 20
205.5198910101825
 30
0.0
 11
-235.2930071236157
 21
183.8300626608237
 31
0.0
  0
LINE
  5
35E
330
359
100
AcDbEntity
  8
0
 62
     0
100
AcDbLine
 10
-229.0448118681515
 20
189.0078710016093
 30
0.0
 11
-233.3749388676442
 21
186.5078709679564
 31
0.0
  0
INSERT
  5
35F
330
359
100
AcDbEntity
  8
0
 62
     0
100
AcDbBlockReference
  2
_OPEN30
 10
-226.4467356684559
 20
190.5078710218011
 30
0.0
 41
3.0
 42
3.0
 43
3.0
 50
30.00000044529221
  0
INSERT
  5
360
330
359
100
AcDbEntity
  8
0
 62
     0
100
AcDbBlockReference
  2
_OPEN30
 10
-235.9730150673398
 20
185.0078709477646
 30
0.0
 41
3.0
 42
3.0
 43
3.0
 50
210.0000004452922
  0
MTEXT
  5
361
330
359
100
AcDbEntity
  8
0
 62
     0
100
AcDbMText
 10
-232.5211939263592
 20
190.0318697753196
 30
0.0
 40
3.5
 41
0.0
 71
     5
 72
     1
  1
11
 11
0.866025399898531
 21
0.5000000067305895
 31
0.0
  0
POINT
  5
362
330
359
100
AcDbEntity
  8
DEFPOINTS
 62
     0
100
AcDbPoint
 10
-241.1843571783145
 20
216.0341798014439
 30
0.0
  0
POINT
  5
363
330
359
100
AcDbEntity
  8
DEFPOINTS
 62
     0
100
AcDbPoint
 10
-249.0856356016496
 20
207.7195955259248
 30
0.0
  0
POINT
  5
364
330
359
100
AcDbEntity
  8
DEFPOINTS
 62
     0
100
AcDbPoint
 10
-235.9728310122941
 20
185.0075521550797
 30
0.0
  0
ENDBLK
  5
35B
330
359
100
AcDbEntity
  8
0
100
AcDbBlockEnd
  0
BLOCK
  5
367
330
366
100
AcDbEntity
  8
0
100
AcDbBlockBegin
  2
*D12
 70
     1
 10
0.0
 20
0.0
 30
0.0
  3
*D12
  1

  0
MTEXT
  5
370
330
366
100
AcDbEntity
  8
0
 62
     0
100
AcDbMText
 10
-252.9683013669936
 20
178.2535702667809
 30
0.0
 40
3.5
 41
0.0
 71
     5
 72
     1
  1
7.5
 11
0.8660253998985313
 21
0.5000000067305888
 31
0.0
  0
POINT
  5
371
330
366
100
AcDbEntity
  8
DEFPOINTS
 62
     0
100
AcDbPoint
 10
-249.0856365553239
 20
207.7195971777371
 30
0.0
  0
POINT
  5
372
330
366
100
AcDbEntity
  8
DEFPOINTS
 62
     0
100
AcDbPoint
 10
-257.2058270764373
 20
206.784179676928
 30
0.0
  0
POINT
  5
373
330
366
100
AcDbEntity
  8
DEFPOINTS
 62
     0
100
AcDbPoint
 10
-242.468021511533
 20
181.2575521046003
 30
0.0
  0
LINE
  5
374
330
366
100
AcDbEntity
  8
0
  6
CONTINUOUS
 62
     7
100
AcDbLine
 10
-255.9358270593416
 20
204.5844751611857
 30
0.0
 11
-241.8330212741034
 21
180.1576994502942
 31
0.0
  0
LINE
  5
375
330
366
100
AcDbEntity
  8
0
  6
CONTINUOUS
 62
     7
100
AcDbLine
 10
-230.4735697229384
 20
188.1825521978189
 30
0.0
 11
-247.9672828008888
 21
178.082552061861
 31
0.0
  0
LINE
  5
376
330
366
100
AcDbEntity
  8
0
  6
CONTINUOUS
 62
     7
100
AcDbLine
 10
-235.9728310122941
 20
185.0075521550797
 30
0.0
 11
-233.736763052014
 21
187.2436201499872
 31
0.0
  0
LINE
  5
377
330
366
100
AcDbEntity
  8
0
  6
CONTINUOUS
 62
     7
100
AcDbLine
 10
-235.9728310122941
 20
185.0075521550797
 30
0.0
 11
-232.9183053566966
 21
185.8260098632953
 31
0.0
  0
LINE
  5
378
330
366
100
AcDbEntity
  8
0
  6
CONTINUOUS
 62
     7
100
AcDbLine
 10
-242.4680215115331
 20
181.2575521046003
 30
0.0
 11
-244.7040894718131
 21
179.0214841096928
 31
0.0
  0
LINE
  5
379
330
366
100
AcDbEntity
  8
0
  6
CONTINUOUS
 62
     7
100
AcDbLine
 10
-242.4680215115331
 20
181.2575521046003
 30
0.0
 11
-245.5225471671305
 21
180.4390943963846
 31
0.0
  0
LINE
  5
37A
330
366
100
AcDbEntity
  8
0
  6
CONTINUOUS
 62
     7
100
AcDbLine
 10
-242.4680215115331
 20
181.2575521046003
 30
0.0
 11
-252.0457845981306
 21
175.72782790907
 31
0.0
  0
ENDBLK
  5
368
330
366
100
AcDbEntity
  8
0
100
AcDbBlockEnd
  0
BLOCK
  5
37D
330
37C
100
AcDbEntity
  8
0
100
AcDbBlockBegin
  2
_ORIGIN
 70
     0
 10
0.0
 20
0.0
 30
0.0
  3
_ORIGIN
  1

  0
CIRCLE
  5
37F
330
37C
100
AcDbEntity
  8
0
  6
BYBLOCK
 62
     0
100
AcDbCircle
 10
0.0
 20
0.0
 30
0.0
 40
0.5
  0
LINE
  5
380
330
37C
100
AcDbEntity
  8
0
  6
BYBLOCK
 62
     0
100
AcDbLine
 10
0.0
 20
0.0
 30
0.0
 11
-1.0
 21
0.0
 31
0.0
  0
ENDBLK
  5
37E
330
37C
100
AcDbEntity
  8
0
100
AcDbBlockEnd
  0
BLOCK
  5
382
330
381
100
AcDbEntity
  8
0
100
AcDbBlockBegin
  2
*D14
 70
     1
 10
0.0
 20
0.0
 30
0.0
  3
*D14
  1

  0
MTEXT
  5
38C
330
381
100
AcDbEntity
  8
0
 62
     0
100
AcDbMText
 10
-253.9069455201876
 20
254.1968486007593
 30
0.0
 40
3.5
 41
0.0
 71
     5
 72
     1
  1
3
 11
0.8660253998985277
 21
0.5000000067305953
 31
0.0
  0
POINT
  5
38D
330
381
100
AcDbEntity
  8
DEFPOINTS
 62
     0
100
AcDbPoint
 10
-247.1843572590815
 20
226.4264846002263
 30
0.0
  0
POINT
  5
38E
330
381
100
AcDbEntity
  8
DEFPOINTS
 62
     0
100
AcDbPoint
 10
-254.2824282741436
 20
232.7207040941532
 30
0.0
  0
POINT
  5
38F
330
381
100
AcDbEntity
  8
DEFPOINTS
 62
     0
100
AcDbPoint
 10
-262.1681243145899
 20
246.3791300441064
 30
0.0
  0
LINE
  5
390
330
381
100
AcDbEntity
  8
0
  6
CONTINUOUS
 62
     7
100
AcDbLine
 10
-248.4543572761772
 20
228.6261891159686
 30
0.0
 11
-260.2050473986497
 21
248.9789810667921
 31
0.0
  0
LINE
  5
391
330
381
100
AcDbEntity
  8
0
  6
CONTINUOUS
 62
     7
100
AcDbLine
 10
-255.5524282912393
 20
234.9204086098956
 30
0.0
 11
-262.8031235983453
 21
247.4789810466002
 31
0.0
  0
LINE
  5
392
330
381
100
AcDbEntity
  8
0
  6
CONTINUOUS
 62
     7
100
AcDbLine
 10
-254.0707868255387
 20
251.0541301070374
 30
0.0
 11
-262.1681243145899
 21
246.3791300441064
 31
0.0
  0
LINE
  5
393
330
381
100
AcDbEntity
  8
0
  6
CONTINUOUS
 62
     7
100
AcDbLine
 10
-259.5700481148943
 20
247.8791300642982
 30
0.0
 11
-257.3339801546143
 21
250.1151980592057
 31
0.0
  0
LINE
  5
394
330
381
100
AcDbEntity
  8
0
  6
CONTINUOUS
 62
     7
100
AcDbLine
 10
-259.5700481148943
 20
247.8791300642982
 30
0.0
 11
-256.5155224592969
 21
248.6975877725139
 31
0.0
  0
CIRCLE
  5
395
330
381
100
AcDbEntity
  8
0
  6
CONTINUOUS
 62
     7
100
AcDbCircle
 10
-262.1681243145899
 20
246.3791300441064
 30
0.0
 40
1.5
  0
LINE
  5
396
330
381
100
AcDbEntity
  8
0
  6
CONTINUOUS
 62
     7
100
AcDbLine
 10
-259.5700481148943
 20
247.8791300642982
 30
0.0
 11
-255.0668706450591
 21
250.47904083538
 31
0.0
  0
ENDBLK
  5
383
330
381
100
AcDbEntity
  8
0
100
AcDbBlockEnd
  0
BLOCK
  5
399
330
398
100
AcDbEntity
  8
0
100
AcDbBlockBegin
  2
*D15
 70
     1
 10
0.0
 20
0.0
 30
0.0
  3
*D15
  1

  0
MTEXT
  5
39F
330
398
100
AcDbEntity
  8
0
 62
     0
100
AcDbMText
 10
-272.2108594635634
 20
243.6296575280475
 30
0.0
 40
3.5
 41
0.0
 71
     5
 72
     1
  1
2
 11
0.8660253998985394
 21
0.5000000067305747
 31
0.0
  0
POINT
  5
3A0
330
398
100
AcDbEntity
  8
DEFPOINTS
 62
     0
100
AcDbPoint
 10
-254.782433526083
 20
233.5867385790198
 30
0.0
  0
POINT
  5
3A1
330
398
100
AcDbEntity
  8
DEFPOINTS
 62
     0
100
AcDbPoint
 10
-261.0144843864554
 20
240.3809671646455
 30
0.0
  0
POINT
  5
3A2
330
398
100
AcDbEntity
  8
DEFPOINTS
 62
     0
100
AcDbPoint
 10
-263.900175114387
 20
245.3791300306453
 30
0.0
  0
LINE
  5
3A3
330
398
100
AcDbEntity
  8
0
  6
CONTINUOUS
 62
     7
100
AcDbLine
 10
-262.1681243145899
 20
246.3791300441064
 30
0.0
 11
-269.3994364037427
 21
242.204129987906
 31
0.0
  0
LINE
  5
3A4
330
398
100
AcDbEntity
  8
0
  6
CONTINUOUS
 62
     7
100
AcDbLine
 10
-263.900175114387
 20
245.3791300306453
 30
0.0
 11
-266.136243074667
 21
243.1430620357378
 31
0.0
  0
LINE
  5
3A5
330
398
100
AcDbEntity
  8
0
  6
CONTINUOUS
 62
     7
100
AcDbLine
 10
-263.900175114387
 20
245.3791300306453
 30
0.0
 11
-266.9547007699845
 21
244.5606723224296
 31
0.0
  0
LINE
  5
3A6
330
398
100
AcDbEntity
  8
0
  6
CONTINUOUS
 62
     7
100
AcDbLine
 10
-263.900175114387
 20
245.3791300306453
 30
0.0
 11
-268.2716502809372
 21
242.8552576211827
 31
0.0
  0
ENDBLK
  5
39A
330
398
100
AcDbEntity
  8
0
100
AcDbBlockEnd
  0
BLOCK
  5
3A9
330
3A8
100
AcDbEntity
  8
0
100
AcDbBlockBegin
  2
*D16
 70
     1
 10
0.0
 20
0.0
 30
0.0
  3
*D16
  1

  0
LINE
  5
3AB
330
3A8
100
AcDbEntity
  8
0
 62
     0
100
AcDbLine
 10
-145.0
 20
373.79
 30
0.0
 11
-145.0
 21
386.2699966430664
 31
0.0
  0
LINE
  5
3AC
330
3A8
100
AcDbEntity
  8
0
 62
     0
100
AcDbLine
 10
-119.0
 20
373.79
 30
0.0
 11
-119.0
 21
386.2699966430664
 31
0.0
  0
LINE
  5
3AD
330
3A8
100
AcDbEntity
  8
0
 62
     0
100
AcDbLine
 10
-142.0
 20
385.0
 30
0.0
 11
-122.0
 21
385.0
 31
0.0
  0
INSERT
  5
3AE
330
3A8
100
AcDbEntity
  8
0
 62
     0
100
AcDbBlockReference
  2
_OPEN30
 10
-145.0
 20
385.0
 30
0.0
 41
3.0
 42
3.0
 43
3.0
 50
180.0
  0
INSERT
  5
3AF
330
3A8
100
AcDbEntity
  8
0
 62
     0
100
AcDbBlockReference
  2
_OPEN30
 10
-119.0
 20
385.0
 30
0.0
 41
3.0
 42
3.0
 43
3.0
  0
MTEXT
  5
3B0
330
3A8
100
AcDbEntity
  8
0
 62
     0
100
AcDbMText
 10
-131.999
 20
387.64075
 30
0.0
 40
3.5
 41
0.0
 71
     5
 72
     1
  1
26
  0
POINT
  5
3B1
330
3A8
100
AcDbEntity
  8
DEFPOINTS
 62
     0
100
AcDbPoint
 10
-145.0
 20
371.25
 30
0.0
  0
POINT
  5
3B2
330
3A8
100
AcDbEntity
  8
DEFPOINTS
 62
     0
100
AcDbPoint
 10
-119.0
 20
371.25
 30
0.0
  0
POINT
  5
3B3
330
3A8
100
AcDbEntity
  8
DEFPOINTS
 62
     0
100
AcDbPoint
 10
-119.0
 20
385.0
 30
0.0
  0
ENDBLK
  5
3AA
330
3A8
100
AcDbEntity
  8
0
100
AcDbBlockEnd
  0
BLOCK
  5
3B6
330
3B5
100
AcDbEntity
  8
0
100
AcDbBlockBegin
  2
*D17
 70
     1
 10
0.0
 20
0.0
 30
0.0
  3
*D17
  1

  0
LINE
  5
3B8
330
3B5
100
AcDbEntity
  8
0
 62
     0
100
AcDbLine
 10
-366.0
 20
176.0
 30
0.0
 11
-436.0
 21
176.0
 31
0.0
  0
INSERT
  5
3B9
330
3B5
100
AcDbEntity
  8
0
 62
     0
100
AcDbBlockReference
  2
_OPEN30
 10
-363.0
 20
176.0
 30
0.0
 41
3.0
 42
3.0
 43
3.0
  0
INSERT
  5
3BA
330
3B5
100
AcDbEntity
  8
0
 62
     0
100
AcDbBlockReference
  2
_OPEN30
 10
-439.0
 20
176.0
 30
0.0
 41
3.0
 42
3.0
 43
3.0
 50
180.0
  0
MTEXT
  5
3BB
330
3B5
100
AcDbEntity
  8
0
 62
     0
100
AcDbMText
 10
-400.998
 20
178.64075
 30
0.0
 40
3.5
 41
0.0
 71
     5
 72
     1
  1
76
  0
POINT
  5
3BC
330
3B5
100
AcDbEntity
  8
DEFPOINTS
 62
     0
100
AcDbPoint
 10
-363.0
 20
152.7299957275391
 30
0.0
  0
POINT
  5
3BD
330
3B5
100
AcDbEntity
  8
DEFPOINTS
 62
     0
100
AcDbPoint
 10
-439.0
 20
174.7299957275391
 30
0.0
  0
POINT
  5
3BE
330
3B5
100
AcDbEntity
  8
DEFPOINTS
 62
     0
100
AcDbPoint
 10
-439.0
 20
176.0
 30
0.0
  0
ENDBLK
  5
3B7
330
3B5
100
AcDbEntity
  8
0
100
AcDbBlockEnd
  0
BLOCK
  5
3C1
330
3C0
100
AcDbEntity
  8
0
100
AcDbBlockBegin
  2
*D18
 70
     1
 10
0.0
 20
0.0
 30
0.0
  3
*D18
  1

  0
MTEXT
  5
3C9
330
3C0
100
AcDbEntity
  8
0
 62
     0
100
AcDbMText
 10
-365.498
 20
189.64175
 30
0.0
 40
3.5
 41
0.0
 71
     5
 72
     1
  1
5
  0
POINT
  5
3CA
330
3C0
100
AcDbEntity
  8
DEFPOINTS
 62
     0
100
AcDbPoint
 10
-363.0
 20
203.5
 30
0.0
  0
POINT
  5
3CB
330
3C0
100
AcDbEntity
  8
DEFPOINTS
 62
     0
100
AcDbPoint
 10
-368.0
 20
251.0
 30
0.0
  0
POINT
  5
3CC
330
3C0
100
AcDbEntity
  8
DEFPOINTS
 62
     0
100
AcDbPoint
 10
-368.0
 20
187.0
 30
0.0
  0
LINE
  5
3CD
330
3C0
100
AcDbEntity
  8
0
  6
CONTINUOUS
 62
     7
100
AcDbLine
 10
-368.0
 20
248.46
 30
0.0
 11
-368.0
 21
185.7300033569336
 31
0.0
  0
LINE
  5
3CE
330
3C0
100
AcDbEntity
  8
0
  6
CONTINUOUS
 62
     7
100
AcDbLine
 10
-356.65
 20
187.0
 30
0.0
 11
-374.35
 21
187.0
 31
0.0
  0
LINE
  5
3CF
330
3C0
100
AcDbEntity
  8
0
  6
CONTINUOUS
 62
     7
100
AcDbLine
 10
-363.0
 20
187.0
 30
0.0
 11
-359.9454743379944
 21
187.8184576843
 31
0.0
  0
LINE
  5
3D0
330
3C0
100
AcDbEntity
  8
0
  6
CONTINUOUS
 62
     7
100
AcDbLine
 10
-363.0
 20
187.0
 30
0.0
 11
-359.9454743379944
 21
186.1815423157
 31
0.0
  0
LINE
  5
3D1
330
3C0
100
AcDbEntity
  8
0
  6
CONTINUOUS
 62
     7
100
AcDbLine
 10
-368.0
 20
187.0
 30
0.0
 11
-371.0545256620056
 21
186.1815423157
 31
0.0
  0
LINE
  5
3D2
330
3C0
100
AcDbEntity
  8
0
  6
CONTINUOUS
 62
     7
100
AcDbLine
 10
-368.0
 20
187.0
 30
0.0
 11
-371.0545256620056
 21
187.8184576843
 31
0.0
  0
ENDBLK
  5
3C2
330
3C0
100
AcDbEntity
  8
0
100
AcDbBlockEnd
  0
BLOCK
  5
3DA
330
3D3
100
AcDbEntity
  8
0
100
AcDbBlockBegin
  2
SYM0001
 70
     0
 10
0.0
 20
0.0
 30
0.0
  3
SYM0001
  1

  0
LINE
  5
3D4
330
3D3
100
AcDbEntity
  8
0
  6
CONTINUOUS
 62
     7
100
AcDbLine
 10
0.0
 20
0.0
 30
0.0
 11
20.43175107786465
 21
-23.49999493856205
 31
0.0
  0
LINE
  5
3D5
330
3D3
100
AcDbEntity
  8
0
  6
CONTINUOUS
 62
     7
100
AcDbLine
 10
0.0
 20
0.0
 30
0.0
 11
2.621797719574033
 21
-1.768099747886708
 31
0.0
  0
LINE
  5
3D6
330
3D3
100
AcDbEntity
  8
0
  6
CONTINUOUS
 62
     7
100
AcDbLine
 10
0.0
 20
0.0
 30
0.0
 11
1.386493554956019
 21
-2.842118157801679
 31
0.0
  0
LINE
  5
3D7
330
3D3
100
AcDbEntity
  8
0
  6
CONTINUOUS
 62
     7
100
AcDbLine
 10
20.43175107786465
 20
-23.49999493856203
 30
0.0
 11
35.43285107786465
 21
-23.49999493856203
 31
0.0
  0
MTEXT
  5
3D8
330
3D3
100
AcDbEntity
  8
0
 62
     7
100
AcDbMText
 10
21.19713628515353
 20
-22.62498923003153
 30
0.0
 40
3.5
 41
0.0
 71
     7
 72
     1
  1
{\W0.833333;３－Ｍ５}
  0
ENDBLK
  5
3DB
330
3D3
100
AcDbEntity
  8
0
100
AcDbBlockEnd
  0
BLOCK
  5
3DE
330
3DD
100
AcDbEntity
  8
0
100
AcDbBlockBegin
  2
*D20
 70
     1
 10
0.0
 20
0.0
 30
0.0
  3
*D20
  1

  0
LINE
  5
3E0
330
3DD
100
AcDbEntity
  8
0
 62
     0
100
AcDbLine
 10
-427.0
 20
334.04
 30
0.0
 11
-427.0
 21
342.2710004577636
 31
0.0
  0
LINE
  5
3E1
330
3DD
100
AcDbEntity
  8
0
 62
     0
100
AcDbLine
 10
-427.0
 20
341.001
 30
0.0
 11
-404.491
 21
341.001
 31
0.0
  0
LINE
  5
3E2
330
3DD
100
AcDbEntity
  8
0
 62
     0
100
AcDbLine
 10
-436.0
 20
341.001
 30
0.0
 11
-430.0
 21
341.001
 31
0.0
  0
INSERT
  5
3E3
330
3DD
100
AcDbEntity
  8
0
 62
     0
100
AcDbBlockReference
  2
_OPEN30
 10
-439.0
 20
341.001
 30
0.0
 41
3.0
 42
3.0
 43
3.0
 50
180.0
  0
INSERT
  5
3E4
330
3DD
100
AcDbEntity
  8
0
 62
     0
100
AcDbBlockReference
  2
_OPEN30
 10
-427.0
 20
341.001
 30
0.0
 41
3.0
 42
3.0
 43
3.0
  0
MTEXT
  5
3E5
330
3DD
100
AcDbEntity
  8
0
 62
     0
100
AcDbMText
 10
-414.2455
 20
346.5584166666666
 30
0.0
 40
3.5
 41
0.0
 71
     5
 72
     1
  1
\A1;MAX{\H0.5x;\S ;}12\PMIN{\H0.5x;\S ;} 0
  0
POINT
  5
3E6
330
3DD
100
AcDbEntity
  8
DEFPOINTS
 62
     0
100
AcDbPoint
 10
-439.0
 20
356.0
 30
0.0
  0
POINT
  5
3E7
330
3DD
100
AcDbEntity
  8
DEFPOINTS
 62
     0
100
AcDbPoint
 10
-427.0
 20
331.5
 30
0.0
  0
POINT
  5
3E8
330
3DD
100
AcDbEntity
  8
DEFPOINTS
 62
     0
100
AcDbPoint
 10
-427.0
 20
341.0
 30
0.0
  0
ENDBLK
  5
3DF
330
3DD
100
AcDbEntity
  8
0
100
AcDbBlockEnd
  0
BLOCK
  5
3F0
330
3E9
100
AcDbEntity
  8
0
100
AcDbBlockBegin
  2
SYM0002
 70
     0
 10
0.0
 20
0.0
 30
0.0
  3
SYM0002
  1

  0
LINE
  5
3EA
330
3E9
100
AcDbEntity
  8
0
  6
CONTINUOUS
 62
     7
100
AcDbLine
 10
0.0
 20
0.0
 30
0.0
 11
5.619440918828559
 21
20.49945373546058
 31
0.0
  0
LINE
  5
3EB
330
3E9
100
AcDbEntity
  8
0
  6
CONTINUOUS
 62
     7
100
AcDbLine
 10
0.0
 20
0.0
 30
0.0
 11
0.018197032220854
 21
3.162225303304467
 31
0.0
  0
LINE
  5
3EC
330
3E9
100
AcDbEntity
  8
0
  6
CONTINUOUS
 62
     7
100
AcDbLine
 10
0.0
 20
0.0
 30
0.0
 11
1.596871743671301
 21
2.729468929133418
 31
0.0
  0
LINE
  5
3ED
330
3E9
100
AcDbEntity
  8
0
  6
CONTINUOUS
 62
     7
100
AcDbLine
 10
5.619440918828559
 20
20.49945373546058
 30
0.0
 11
17.99468680893568
 21
20.49945373546058
 31
0.0
  0
MTEXT
  5
3EE
330
3E9
100
AcDbEntity
  8
0
 62
     7
100
AcDbMText
 10
7.119686808935683
 20
21.37445454173275
 30
0.0
 40
3.5
 41
0.0
 71
     7
 72
     1
  1
{\W0.833333;Ｍ１０}
  0
ENDBLK
  5
3F1
330
3E9
100
AcDbEntity
  8
0
100
AcDbBlockEnd
  0
BLOCK
  5
3F4
330
3F3
100
AcDbEntity
  8
0
100
AcDbBlockBegin
  2
*D22
 70
     1
 10
0.0
 20
0.0
 30
0.0
  3
*D22
  1

  0
POINT
  5
3FA
330
3F3
100
AcDbEntity
  8
DEFPOINTS
 62
     0
100
AcDbPoint
 10
-124.0534752134301
 20
299.1567814360794
 30
0.0
  0
POINT
  5
3FB
330
3F3
100
AcDbEntity
  8
DEFPOINTS
 62
     0
100
AcDbPoint
 10
-176.3697264687864
 20
212.5386053391488
 30
0.0
  0
LINE
  5
3FC
330
3F3
100
AcDbEntity
  8
0
  6
CONTINUOUS
 62
     7
100
AcDbLine
 10
-124.0534752134301
 20
299.1567814360794
 30
0.0
 11
-176.3697264687864
 21
212.5386053391488
 31
0.0
  0
LINE
  5
3FD
330
3F3
100
AcDbEntity
  8
0
  6
CONTINUOUS
 62
     7
100
AcDbLine
 10
-176.3697264687864
 20
212.5386053391488
 30
0.0
 11
-175.4911140185336
 21
215.5763742841315
 31
0.0
  0
LINE
  5
3FE
330
3F3
100
AcDbEntity
  8
0
  6
CONTINUOUS
 62
     7
100
AcDbLine
 10
-176.3697264687864
 20
212.5386053391488
 30
0.0
 11
-174.0899412944214
 21
214.7300841913365
 31
0.0
  0
LINE
  5
3FF
330
3F3
100
AcDbEntity
  8
0
  6
CONTINUOUS
 62
     7
100
AcDbLine
 10
-176.3697264687864
 20
212.5386053391488
 30
0.0
 11
-187.3202635087688
 21
194.4081865318944
 31
0.0
  0
MTEXT
  5
400
330
3F3
100
AcDbEntity
  8
0
 62
     7
100
AcDbMText
 10
-182.4733612122192
 20
203.3080293521346
 30
0.0
 40
3.5
 41
0.0
 71
     8
 72
     1
  1
\W1;\U+2205171.6
 11
0.5165333288666419
 21
0.8562670846003282
 31
0.0
  0
ENDBLK
  5
3F5
330
3F3
100
AcDbEntity
  8
0
100
AcDbBlockEnd
  0
BLOCK
  5
403
330
402
100
AcDbEntity
  8
0
100
AcDbBlockBegin
  2
*D23
 70
     1
 10
0.0
 20
0.0
 30
0.0
  3
*D23
  1

  0
LINE
  5
405
330
402
100
AcDbEntity
  8
0
 62
     0
100
AcDbLine
 10
-326.1590051269531
 20
339.2503356933594
 30
0.0
 11
-306.7289957275391
 21
339.2503356933594
 31
0.0
  0
LINE
  5
406
330
402
100
AcDbEntity
  8
0
 62
     0
100
AcDbLine
 10
-307.999
 20
356.2503356933594
 30
0.0
 11
-307.999
 21
342.2503356933594
 31
0.0
  0
INSERT
  5
407
330
402
100
AcDbEntity
  8
0
 62
     0
100
AcDbBlockReference
  2
_OPEN30
 10
-307.999
 20
359.2503356933594
 30
0.0
 41
3.0
 42
3.0
 43
3.0
 50
90.0
  0
INSERT
  5
408
330
402
100
AcDbEntity
  8
0
 62
     0
100
AcDbBlockReference
  2
_OPEN30
 10
-307.999
 20
339.2503356933594
 30
0.0
 41
3.0
 42
3.0
 43
3.0
 50
270.0
  0
MTEXT
  5
409
330
402
100
AcDbEntity
  8
0
 62
     0
100
AcDbMText
 10
-310.63975
 20
349.2513356933594
 30
0.0
 40
3.5
 41
0.0
 71
     5
 72
     1
  1
20
 11
0.0
 21
1.0
 31
0.0
  0
POINT
  5
40A
330
402
100
AcDbEntity
  8
DEFPOINTS
 62
     0
100
AcDbPoint
 10
-329.8472137451172
 20
359.2503356933594
 30
0.0
  0
POINT
  5
40B
330
402
100
AcDbEntity
  8
DEFPOINTS
 62
     0
100
AcDbPoint
 10
-328.6990051269531
 20
339.2503356933594
 30
0.0
  0
POINT
  5
40C
330
402
100
AcDbEntity
  8
DEFPOINTS
 62
     0
100
AcDbPoint
 10
-308.0
 20
339.2503356933594
 30
0.0
  0
ENDBLK
  5
404
330
402
100
AcDbEntity
  8
0
100
AcDbBlockEnd
  0
BLOCK
  5
40F
330
40E
100
AcDbEntity
  8
0
100
AcDbBlockBegin
  2
*D24
 70
     1
 10
0.0
 20
0.0
 30
0.0
  3
*D24
  1

  0
LINE
  5
411
330
40E
100
AcDbEntity
  8
0
 62
     0
100
AcDbLine
 10
-326.1590051269531
 20
359.2503356933594
 30
0.0
 11
-306.7289957275391
 21
359.2503356933594
 31
0.0
  0
LINE
  5
412
330
40E
100
AcDbEntity
  8
0
 62
     0
100
AcDbLine
 10
-307.999
 20
368.2503356933594
 30
0.0
 11
-307.999
 21
362.2503356933594
 31
0.0
  0
INSERT
  5
413
330
40E
100
AcDbEntity
  8
0
 62
     0
100
AcDbBlockReference
  2
_OPEN30
 10
-307.999
 20
371.2503356933594
 30
0.0
 41
3.0
 42
3.0
 43
3.0
 50
90.0
  0
INSERT
  5
414
330
40E
100
AcDbEntity
  8
0
 62
     0
100
AcDbBlockReference
  2
_OPEN30
 10
-307.999
 20
359.2503356933594
 30
0.0
 41
3.0
 42
3.0
 43
3.0
 50
270.0
  0
MTEXT
  5
415
330
40E
100
AcDbEntity
  8
0
 62
     0
100
AcDbMText
 10
-310.63975
 20
365.2513356933594
 30
0.0
 40
3.5
 41
0.0
 71
     5
 72
     1
  1
12
 11
0.0
 21
1.0
 31
0.0
  0
POINT
  5
416
330
40E
100
AcDbEntity
  8
DEFPOINTS
 62
     0
100
AcDbPoint
 10
-333.6990051269531
 20
371.2503356933594
 30
0.0
  0
POINT
  5
417
330
40E
100
AcDbEntity
  8
DEFPOINTS
 62
     0
100
AcDbPoint
 10
-328.6990051269531
 20
359.2503356933594
 30
0.0
  0
POINT
  5
418
330
40E
100
AcDbEntity
  8
DEFPOINTS
 62
     0
100
AcDbPoint
 10
-308.0
 20
359.2503356933594
 30
0.0
  0
ENDBLK
  5
410
330
40E
100
AcDbEntity
  8
0
100
AcDbBlockEnd
  0
BLOCK
  5
41B
330
41A
100
AcDbEntity
  8
0
100
AcDbBlockBegin
  2
*D25
 70
     1
 10
0.0
 20
0.0
 30
0.0
  3
*D25
  1

  0
LINE
  5
41D
330
41A
100
AcDbEntity
  8
0
 62
     0
100
AcDbLine
 10
-331.1590051269531
 20
305.2503356933594
 30
0.0
 11
-295.7299957275391
 21
305.2503356933594
 31
0.0
  0
LINE
  5
41E
330
41A
100
AcDbEntity
  8
0
 62
     0
100
AcDbLine
 10
-331.1590051269531
 20
371.2503356933594
 30
0.0
 11
-295.7299957275391
 21
371.2503356933594
 31
0.0
  0
LINE
  5
41F
330
41A
100
AcDbEntity
  8
0
 62
     0
100
AcDbLine
 10
-297.0
 20
308.2503356933594
 30
0.0
 11
-297.0
 21
368.2503356933594
 31
0.0
  0
INSERT
  5
420
330
41A
100
AcDbEntity
  8
0
 62
     0
100
AcDbBlockReference
  2
_OPEN30
 10
-297.0
 20
305.2503356933594
 30
0.0
 41
3.0
 42
3.0
 43
3.0
 50
270.0
  0
INSERT
  5
421
330
41A
100
AcDbEntity
  8
0
 62
     0
100
AcDbBlockReference
  2
_OPEN30
 10
-297.0
 20
371.2503356933594
 30
0.0
 41
3.0
 42
3.0
 43
3.0
 50
90.0
  0
MTEXT
  5
422
330
41A
100
AcDbEntity
  8
0
 62
     0
100
AcDbMText
 10
-299.64075
 20
338.2513356933594
 30
0.0
 40
3.5
 41
0.0
 71
     5
 72
     1
  1
66
 11
0.0
 21
1.0
 31
0.0
  0
POINT
  5
423
330
41A
100
AcDbEntity
  8
DEFPOINTS
 62
     0
100
AcDbPoint
 10
-333.6990051269531
 20
305.2503356933594
 30
0.0
  0
POINT
  5
424
330
41A
100
AcDbEntity
  8
DEFPOINTS
 62
     0
100
AcDbPoint
 10
-333.6990051269531
 20
371.2503356933594
 30
0.0
  0
POINT
  5
425
330
41A
100
AcDbEntity
  8
DEFPOINTS
 62
     0
100
AcDbPoint
 10
-297.0
 20
371.2503356933594
 30
0.0
  0
ENDBLK
  5
41C
330
41A
100
AcDbEntity
  8
0
100
AcDbBlockEnd
  0
BLOCK
  5
428
330
427
100
AcDbEntity
  8
0
100
AcDbBlockBegin
  2
*D26
 70
     1
 10
0.0
 20
0.0
 30
0.0
  3
*D26
  1

  0
LINE
  5
42A
330
427
100
AcDbEntity
  8
0
 62
     0
100
AcDbLine
 10
-363.0
 20
371.04
 30
0.0
 11
-363.0
 21
397.2656860351562
 31
0.0
  0
LINE
  5
42B
330
427
100
AcDbEntity
  8
0
 62
     0
100
AcDbLine
 10
-333.6990051269531
 20
373.79
 30
0.0
 11
-333.6990051269531
 21
397.2656860351562
 31
0.0
  0
LINE
  5
42C
330
427
100
AcDbEntity
  8
0
 62
     0
100
AcDbLine
 10
-360.0
 20
395.9956893920898
 30
0.0
 11
-336.6990051269531
 21
395.9956893920898
 31
0.0
  0
INSERT
  5
42D
330
427
100
AcDbEntity
  8
0
 62
     0
100
AcDbBlockReference
  2
_OPEN30
 10
-363.0
 20
395.9956893920898
 30
0.0
 41
3.0
 42
3.0
 43
3.0
 50
180.0
  0
INSERT
  5
42E
330
427
100
AcDbEntity
  8
0
 62
     0
100
AcDbBlockReference
  2
_OPEN30
 10
-333.6990051269531
 20
395.9956893920898
 30
0.0
 41
3.0
 42
3.0
 43
3.0
  0
MTEXT
  5
42F
330
427
100
AcDbEntity
  8
0
 62
     0
100
AcDbMText
 10
-348.3485025634766
 20
398.6364393920899
 30
0.0
 40
3.5
 41
0.0
 71
     5
 72
     1
  1
29
  0
POINT
  5
430
330
427
100
AcDbEntity
  8
DEFPOINTS
 62
     0
100
AcDbPoint
 10
-363.0
 20
368.5
 30
0.0
  0
POINT
  5
431
330
427
100
AcDbEntity
  8
DEFPOINTS
 62
     0
100
AcDbPoint
 10
-333.6990051269531
 20
371.25
 30
0.0
  0
POINT
  5
432
330
427
100
AcDbEntity
  8
DEFPOINTS
 62
     0
100
AcDbPoint
 10
-333.6990051269531
 20
395.9956893920898
 30
0.0
  0
ENDBLK
  5
429
330
427
100
AcDbEntity
  8
0
100
AcDbBlockEnd
  0
BLOCK
  5
43A
330
433
100
AcDbEntity
  8
0
100
AcDbBlockBegin
  2
SYM0003
 70
     0
 10
0.0
 20
0.0
 30
0.0
  3
SYM0003
  1

  0
LINE
  5
434
330
433
100
AcDbEntity
  8
0
  6
CONTINUOUS
 62
     7
100
AcDbLine
 10
0.0
 20
0.0
 30
0.0
 11
30.99999805231084
 21
26.076782413834
 31
0.0
  0
LINE
  5
435
330
433
100
AcDbEntity
  8
0
  6
CONTINUOUS
 62
     7
100
AcDbLine
 10
0.0
 20
0.0
 30
0.0
 11
1.810637476260524
 21
2.592603311423034
 31
0.0
  0
LINE
  5
436
330
433
100
AcDbEntity
  8
0
  6
CONTINUOUS
 62
     7
100
AcDbLine
 10
0.0
 20
0.0
 30
0.0
 11
2.864359707119831
 21
1.339941591663148
 31
0.0
  0
LINE
  5
437
330
433
100
AcDbEntity
  8
0
  6
CONTINUOUS
 62
     7
100
AcDbLine
 10
30.99999805231096
 20
26.07678241383394
 30
0.0
 11
75.4299778611113
 21
26.07678241383394
 31
0.0
  0
MTEXT
  5
438
330
433
100
AcDbEntity
  8
0
 62
     7
100
AcDbMText
 10
33.0549778611113
 20
26.95177800102863
 30
0.0
 40
3.5
 41
0.0
 71
     7
 72
     1
  1
{\W0.833333;セレーションピッチ１．５}
  0
ENDBLK
  5
43B
330
433
100
AcDbEntity
  8
0
100
AcDbBlockEnd
  0
BLOCK
  5
43E
330
43D
100
AcDbEntity
  8
0
100
AcDbBlockBegin
  2
*D28
 70
     1
 10
0.0
 20
0.0
 30
0.0
  3
*D28
  1

  0
LINE
  5
440
330
43D
100
AcDbEntity
  8
0
 62
     0
100
AcDbLine
 10
-307.999
 20
336.25
 30
0.0
 11
-307.999
 21
308.25
 31
0.0
  0
INSERT
  5
441
330
43D
100
AcDbEntity
  8
0
 62
     0
100
AcDbBlockReference
  2
_OPEN30
 10
-307.999
 20
339.25
 30
0.0
 41
3.0
 42
3.0
 43
3.0
 50
90.0
  0
INSERT
  5
442
330
43D
100
AcDbEntity
  8
0
 62
     0
100
AcDbBlockReference
  2
_OPEN30
 10
-307.999
 20
305.25
 30
0.0
 41
3.0
 42
3.0
 43
3.0
 50
270.0
  0
MTEXT
  5
443
330
43D
100
AcDbEntity
  8
0
 62
     0
100
AcDbMText
 10
-310.63975
 20
322.251
 30
0.0
 40
3.5
 41
0.0
 71
     5
 72
     1
  1
34
 11
0.0
 21
1.0
 31
0.0
  0
POINT
  5
444
330
43D
100
AcDbEntity
  8
DEFPOINTS
 62
     0
100
AcDbPoint
 10
-330.2590789794922
 20
339.25
 30
0.0
  0
POINT
  5
445
330
43D
100
AcDbEntity
  8
DEFPOINTS
 62
     0
100
AcDbPoint
 10
-333.6990051269531
 20
305.25
 30
0.0
  0
POINT
  5
446
330
43D
100
AcDbEntity
  8
DEFPOINTS
 62
     0
100
AcDbPoint
 10
-308.0
 20
305.25
 30
0.0
  0
ENDBLK
  5
43F
330
43D
100
AcDbEntity
  8
0
100
AcDbBlockEnd
  0
BLOCK
  5
449
330
448
100
AcDbEntity
  8
0
100
AcDbBlockBegin
  2
*D29
 70
     1
 10
0.0
 20
0.0
 30
0.0
  3
*D29
  1

  0
LINE
  5
44B
330
448
100
AcDbEntity
  8
0
 62
     0
100
AcDbLine
 10
-363.54
 20
318.7499771118164
 30
0.0
 11
-388.2679890136719
 21
318.7499771118164
 31
0.0
  0
LINE
  5
44C
330
448
100
AcDbEntity
  8
0
 62
     0
100
AcDbLine
 10
-386.998
 20
318.7499771118164
 30
0.0
 11
-386.998
 21
351.5314771118165
 31
0.0
  0
LINE
  5
44D
330
448
100
AcDbEntity
  8
0
 62
     0
100
AcDbLine
 10
-386.998
 20
315.7499771118164
 30
0.0
 11
-386.998
 21
289.0
 31
0.0
  0
INSERT
  5
44E
330
448
100
AcDbEntity
  8
0
 62
     0
100
AcDbBlockReference
  2
_OPEN30
 10
-386.998
 20
318.7499771118164
 30
0.0
 41
3.0
 42
3.0
 43
3.0
 50
90.0
  0
INSERT
  5
44F
330
448
100
AcDbEntity
  8
0
 62
     0
100
AcDbBlockReference
  2
_OPEN30
 10
-386.998
 20
286.0
 30
0.0
 41
3.0
 42
3.0
 43
3.0
 50
270.0
  0
MTEXT
  5
450
330
448
100
AcDbEntity
  8
0
 62
     0
100
AcDbMText
 10
-392.5624166666667
 20
336.6407271118164
 30
0.0
 40
3.5
 41
0.0
 71
     5
 72
     1
  1
MAX 32.75\PMIN 29.98
 11
0.0
 21
1.0
 31
0.0
  0
POINT
  5
451
330
448
100
AcDbEntity
  8
DEFPOINTS
 62
     0
100
AcDbPoint
 10
-361.0
 20
318.7499771118164
 30
0.0
  0
POINT
  5
452
330
448
100
AcDbEntity
  8
DEFPOINTS
 62
     0
100
AcDbPoint
 10
-358.0
 20
286.0
 30
0.0
  0
POINT
  5
453
330
448
100
AcDbEntity
  8
DEFPOINTS
 62
     0
100
AcDbPoint
 10
-387.0
 20
286.0
 30
0.0
  0
ENDBLK
  5
44A
330
448
100
AcDbEntity
  8
0
100
AcDbBlockEnd
  0
BLOCK
  5
456
330
455
100
AcDbEntity
  8
0
100
AcDbBlockBegin
  2
*D30
 70
     1
 10
0.0
 20
0.0
 30
0.0
  3
*D30
  1

  0
LINE
  5
458
330
455
100
AcDbEntity
  8
0
 62
     0
100
AcDbLine
 10
-370.54
 20
339.25
 30
0.0
 11
-375.268004272461
 21
339.25
 31
0.0
  0
LINE
  5
459
330
455
100
AcDbEntity
  8
0
 62
     0
100
AcDbLine
 10
-373.998
 20
336.25
 30
0.0
 11
-373.998
 21
321.7499771118164
 31
0.0
  0
INSERT
  5
45A
330
455
100
AcDbEntity
  8
0
 62
     0
100
AcDbBlockReference
  2
_OPEN30
 10
-373.998
 20
339.25
 30
0.0
 41
3.0
 42
3.0
 43
3.0
 50
90.0
  0
INSERT
  5
45B
330
455
100
AcDbEntity
  8
0
 62
     0
100
AcDbBlockReference
  2
_OPEN30
 10
-373.998
 20
318.7499771118164
 30
0.0
 41
3.0
 42
3.0
 43
3.0
 50
270.0
  0
MTEXT
  5
45C
330
455
100
AcDbEntity
  8
0
 62
     0
100
AcDbMText
 10
-379.5624166666667
 20
333.7106481323242
 30
0.0
 40
3.5
 41
0.0
 71
     5
 72
     1
  1
MAX 22\PMIN  8.5
 11
0.0
 21
1.0
 31
0.0
  0
POINT
  5
45D
330
455
100
AcDbEntity
  8
DEFPOINTS
 62
     0
100
AcDbPoint
 10
-368.0
 20
339.25
 30
0.0
  0
POINT
  5
45E
330
455
100
AcDbEntity
  8
DEFPOINTS
 62
     0
100
AcDbPoint
 10
-361.0
 20
318.7499771118164
 30
0.0
  0
POINT
  5
45F
330
455
100
AcDbEntity
  8
DEFPOINTS
 62
     0
100
AcDbPoint
 10
-374.0
 20
318.7499771118164
 30
0.0
  0
ENDBLK
  5
457
330
455
100
AcDbEntity
  8
0
100
AcDbBlockEnd
  0
BLOCK
  5
462
330
461
100
AcDbEntity
  8
0
100
AcDbBlockBegin
  2
*D31
 70
     1
 10
0.0
 20
0.0
 30
0.0
  3
*D31
  1

  0
LINE
  5
464
330
461
100
AcDbEntity
  8
0
 62
     0
100
AcDbLine
 10
-395.0
 20
374.361029663086
 30
0.0
 11
-395.0
 21
397.2656860351562
 31
0.0
  0
LINE
  5
465
330
461
100
AcDbEntity
  8
0
 62
     0
100
AcDbLine
 10
-392.0
 20
395.9956893920898
 30
0.0
 11
-366.0
 21
395.9956893920898
 31
0.0
  0
INSERT
  5
466
330
461
100
AcDbEntity
  8
0
 62
     0
100
AcDbBlockReference
  2
_OPEN30
 10
-395.0
 20
395.9956893920898
 30
0.0
 41
3.0
 42
3.0
 43
3.0
 50
180.0
  0
INSERT
  5
467
330
461
100
AcDbEntity
  8
0
 62
     0
100
AcDbBlockReference
  2
_OPEN30
 10
-363.0
 20
395.9956893920898
 30
0.0
 41
3.0
 42
3.0
 43
3.0
  0
MTEXT
  5
468
330
461
100
AcDbEntity
  8
0
 62
     0
100
AcDbMText
 10
-378.999
 20
398.6364393920899
 30
0.0
 40
3.5
 41
0.0
 71
     5
 72
     1
  1
32
  0
POINT
  5
469
330
461
100
AcDbEntity
  8
DEFPOINTS
 62
     0
100
AcDbPoint
 10
-395.0
 20
371.8210296630859
 30
0.0
  0
POINT
  5
46A
330
461
100
AcDbEntity
  8
DEFPOINTS
 62
     0
100
AcDbPoint
 10
-363.0
 20
368.5
 30
0.0
  0
POINT
  5
46B
330
461
100
AcDbEntity
  8
DEFPOINTS
 62
     0
100
AcDbPoint
 10
-363.0
 20
395.9956893920898
 30
0.0
  0
ENDBLK
  5
463
330
461
100
AcDbEntity
  8
0
100
AcDbBlockEnd
  0
BLOCK
  5
46E
330
46D
100
AcDbEntity
  8
0
100
AcDbBlockBegin
  2
*D32
 70
     1
 10
0.0
 20
0.0
 30
0.0
  3
*D32
  1

  0
LINE
  5
470
330
46D
100
AcDbEntity
  8
0
 62
     0
100
AcDbLine
 10
-393.75
 20
373.0443106079102
 30
0.0
 11
-393.75
 21
376.6274719238281
 31
0.0
  0
LINE
  5
471
330
46D
100
AcDbEntity
  8
0
 62
     0
100
AcDbLine
 10
-378.25
 20
373.0443106079102
 30
0.0
 11
-378.25
 21
376.6274719238281
 31
0.0
  0
LINE
  5
472
330
46D
100
AcDbEntity
  8
0
 62
     0
100
AcDbLine
 10
-390.75
 20
375.3574752807617
 30
0.0
 11
-381.25
 21
375.3574752807617
 31
0.0
  0
INSERT
  5
473
330
46D
100
AcDbEntity
  8
0
 62
     0
100
AcDbBlockReference
  2
_OPEN30
 10
-393.75
 20
375.3574752807617
 30
0.0
 41
3.0
 42
3.0
 43
3.0
 50
180.0
  0
INSERT
  5
474
330
46D
100
AcDbEntity
  8
0
 62
     0
100
AcDbBlockReference
  2
_OPEN30
 10
-378.25
 20
375.3574752807617
 30
0.0
 41
3.0
 42
3.0
 43
3.0
  0
MTEXT
  5
475
330
46D
100
AcDbEntity
  8
0
 62
     0
100
AcDbMText
 10
-385.999
 20
378.0052252807617
 30
0.0
 40
3.5
 41
0.0
 71
     5
 72
     1
  1
\U+220515.5
  0
POINT
  5
476
330
46D
100
AcDbEntity
  8
DEFPOINTS
 62
     0
100
AcDbPoint
 10
-393.75
 20
370.5043106079102
 30
0.0
  0
POINT
  5
477
330
46D
100
AcDbEntity
  8
DEFPOINTS
 62
     0
100
AcDbPoint
 10
-378.25
 20
370.5043106079102
 30
0.0
  0
POINT
  5
478
330
46D
100
AcDbEntity
  8
DEFPOINTS
 62
     0
100
AcDbPoint
 10
-378.25
 20
375.3574752807617
 30
0.0
  0
ENDBLK
  5
46F
330
46D
100
AcDbEntity
  8
0
100
AcDbBlockEnd
  0
BLOCK
  5
47B
330
47A
100
AcDbEntity
  8
0
100
AcDbBlockBegin
  2
*D33
 70
     1
 10
0.0
 20
0.0
 30
0.0
  3
*D33
  1

  0
LINE
  5
47D
330
47A
100
AcDbEntity
  8
0
 62
     0
100
AcDbLine
 10
-386.0
 20
383.6737966918946
 30
0.0
 11
-386.0
 21
386.2699966430664
 31
0.0
  0
LINE
  5
47E
330
47A
100
AcDbEntity
  8
0
 62
     0
100
AcDbLine
 10
-383.0
 20
385.0
 30
0.0
 11
-366.0
 21
385.0
 31
0.0
  0
INSERT
  5
47F
330
47A
100
AcDbEntity
  8
0
 62
     0
100
AcDbBlockReference
  2
_OPEN30
 10
-386.0
 20
385.0
 30
0.0
 41
3.0
 42
3.0
 43
3.0
 50
180.0
  0
INSERT
  5
480
330
47A
100
AcDbEntity
  8
0
 62
     0
100
AcDbBlockReference
  2
_OPEN30
 10
-363.0
 20
385.0
 30
0.0
 41
3.0
 42
3.0
 43
3.0
  0
MTEXT
  5
481
330
47A
100
AcDbEntity
  8
0
 62
     0
100
AcDbMText
 10
-374.499
 20
387.64075
 30
0.0
 40
3.5
 41
0.0
 71
     5
 72
     1
  1
23
  0
POINT
  5
482
330
47A
100
AcDbEntity
  8
DEFPOINTS
 62
     0
100
AcDbPoint
 10
-386.0
 20
381.1337966918945
 30
0.0
  0
POINT
  5
483
330
47A
100
AcDbEntity
  8
DEFPOINTS
 62
     0
100
AcDbPoint
 10
-363.0
 20
368.5
 30
0.0
  0
POINT
  5
484
330
47A
100
AcDbEntity
  8
DEFPOINTS
 62
     0
100
AcDbPoint
 10
-363.0
 20
385.0
 30
0.0
  0
ENDBLK
  5
47C
330
47A
100
AcDbEntity
  8
0
100
AcDbBlockEnd
  0
BLOCK
  5
487
330
486
100
AcDbEntity
  8
0
100
AcDbBlockBegin
  2
*D34
 70
     1
 10
0.0
 20
0.0
 30
0.0
  3
*D34
  1

  0
LINE
  5
489
330
486
100
AcDbEntity
  8
0
 62
     0
100
AcDbLine
 10
-396.29
 20
359.5043106079102
 30
0.0
 11
-401.198439453125
 21
359.5043106079102
 31
0.0
  0
LINE
  5
48A
330
486
100
AcDbEntity
  8
0
 62
     0
100
AcDbLine
 10
-399.9284504394532
 20
367.5
 30
0.0
 11
-399.9284504394532
 21
362.5043106079102
 31
0.0
  0
INSERT
  5
48B
330
486
100
AcDbEntity
  8
0
 62
     0
100
AcDbBlockReference
  2
_OPEN30
 10
-399.9284504394532
 20
370.5
 30
0.0
 41
3.0
 42
3.0
 43
3.0
 50
90.0
  0
INSERT
  5
48C
330
486
100
AcDbEntity
  8
0
 62
     0
100
AcDbBlockReference
  2
_OPEN30
 10
-399.9284504394532
 20
359.5043106079102
 30
0.0
 41
3.0
 42
3.0
 43
3.0
 50
270.0
  0
MTEXT
  5
48D
330
486
100
AcDbEntity
  8
0
 62
     0
100
AcDbMText
 10
-402.5534504394532
 20
365.0031514892578
 30
0.0
 40
3.5
 41
0.0
 71
     5
 72
     1
  1
11
 11
0.0
 21
1.0
 31
0.0
  0
POINT
  5
48E
330
486
100
AcDbEntity
  8
DEFPOINTS
 62
     0
100
AcDbPoint
 10
-362.0
 20
370.5
 30
0.0
  0
POINT
  5
48F
330
486
100
AcDbEntity
  8
DEFPOINTS
 62
     0
100
AcDbPoint
 10
-393.75
 20
359.5043106079102
 30
0.0
  0
POINT
  5
490
330
486
100
AcDbEntity
  8
DEFPOINTS
 62
     0
100
AcDbPoint
 10
-399.9304504394531
 20
359.5043106079102
 30
0.0
  0
ENDBLK
  5
488
330
486
100
AcDbEntity
  8
0
100
AcDbBlockEnd
  0
BLOCK
  5
493
330
492
100
AcDbEntity
  8
0
100
AcDbBlockBegin
  2
*D35
 70
     1
 10
0.0
 20
0.0
 30
0.0
  3
*D35
  1

  0
LINE
  5
495
330
492
100
AcDbEntity
  8
0
 62
     0
100
AcDbLine
 10
-391.54
 20
352.5043106079102
 30
0.0
 11
-401.198439453125
 21
352.5043106079102
 31
0.0
  0
LINE
  5
496
330
492
100
AcDbEntity
  8
0
 62
     0
100
AcDbLine
 10
-399.9284504394532
 20
359.5043106079102
 30
0.0
 11
-399.9284504394532
 21
352.5043106079102
 31
0.0
  0
LINE
  5
497
330
492
100
AcDbEntity
  8
0
 62
     0
100
AcDbLine
 10
-399.9284504394532
 20
362.5043106079102
 30
0.0
 11
-399.9284504394532
 21
365.5043106079102
 31
0.0
  0
LINE
  5
498
330
492
100
AcDbEntity
  8
0
 62
     0
100
AcDbLine
 10
-399.9284504394532
 20
349.5043106079102
 30
0.0
 11
-399.9284504394532
 21
346.5043106079102
 31
0.0
  0
INSERT
  5
499
330
492
100
AcDbEntity
  8
0
 62
     0
100
AcDbBlockReference
  2
_OPEN30
 10
-399.9284504394532
 20
359.5043106079102
 30
0.0
 41
3.0
 42
3.0
 43
3.0
 50
270.0
  0
INSERT
  5
49A
330
492
100
AcDbEntity
  8
0
 62
     0
100
AcDbBlockReference
  2
_OPEN30
 10
-399.9284504394532
 20
352.5043106079102
 30
0.0
 41
3.0
 42
3.0
 43
3.0
 50
90.0
  0
MTEXT
  5
49B
330
492
100
AcDbEntity
  8
0
 62
     0
100
AcDbMText
 10
-402.5587004394532
 20
356.0053106079101
 30
0.0
 40
3.5
 41
0.0
 71
     5
 72
     1
  1
7
 11
0.0
 21
1.0
 31
0.0
  0
POINT
  5
49C
330
492
100
AcDbEntity
  8
DEFPOINTS
 62
     0
100
AcDbPoint
 10
-393.75
 20
359.5043106079102
 30
0.0
  0
POINT
  5
49D
330
492
100
AcDbEntity
  8
DEFPOINTS
 62
     0
100
AcDbPoint
 10
-389.0
 20
352.5043106079102
 30
0.0
  0
POINT
  5
49E
330
492
100
AcDbEntity
  8
DEFPOINTS
 62
     0
100
AcDbPoint
 10
-399.9304504394531
 20
352.5043106079102
 30
0.0
  0
ENDBLK
  5
494
330
492
100
AcDbEntity
  8
0
100
AcDbBlockEnd
  0
BLOCK
  5
4A6
330
49F
100
AcDbEntity
  8
0
100
AcDbBlockBegin
  2
SYM0004
 70
     0
 10
0.0
 20
0.0
 30
0.0
  3
SYM0004
  1

  0
LINE
  5
4A0
330
49F
100
AcDbEntity
  8
0
  6
CONTINUOUS
 62
     7
100
AcDbLine
 10
0.0
 20
0.0
 30
0.0
 11
-6.562277239289926
 21
-9.278468772315648
 31
0.0
  0
LINE
  5
4A1
330
49F
100
AcDbEntity
  8
0
  6
CONTINUOUS
 62
     7
100
AcDbLine
 10
0.0
 20
0.0
 30
0.0
 11
-1.095563623319151
 21
-2.966435630196713
 31
0.0
  0
LINE
  5
4A2
330
49F
100
AcDbEntity
  8
0
  6
CONTINUOUS
 62
     7
100
AcDbLine
 10
0.0
 20
0.0
 30
0.0
 11
-2.432003744238102
 21
-2.021226802922513
 31
0.0
  0
LINE
  5
4A3
330
49F
100
AcDbEntity
  8
0
  6
CONTINUOUS
 62
     7
100
AcDbLine
 10
-6.56227723928987
 20
-9.278468772315705
 30
0.0
 11
-21.56337723928988
 21
-9.278468772315705
 31
0.0
  0
MTEXT
  5
4A4
330
49F
100
AcDbEntity
  8
0
 62
     7
100
AcDbMText
 10
-7.338801440525117
 20
-8.403473403192265
 30
0.0
 40
3.5
 41
0.0
 71
     9
 72
     1
  1
{\W1;3-M6}
  0
ENDBLK
  5
4A7
330
49F
100
AcDbEntity
  8
0
100
AcDbBlockEnd
  0
BLOCK
  5
4AE
330
4A8
100
AcDbEntity
  8
0
100
AcDbBlockBegin
  2
SYM0005
 70
     0
 10
0.0
 20
0.0
 30
0.0
  3
SYM0005
  1

  0
LINE
  5
4A9
330
4A8
100
AcDbEntity
  8
0
  6
CONTINUOUS
 62
     7
100
AcDbLine
 10
0.0
 20
0.0
 30
0.0
 11
-19.43136269680281
 21
24.33097515712734
 31
0.0
  0
CIRCLE
  5
4AA
330
4A8
100
AcDbEntity
  8
0
  6
CONTINUOUS
 62
     7
100
AcDbCircle
 10
0.0
 20
0.0
 30
0.0
 40
0.4
  0
LINE
  5
4AB
330
4A8
100
AcDbEntity
  8
0
  6
CONTINUOUS
 62
     7
100
AcDbLine
 10
-19.43136269680275
 20
24.33097515712723
 30
0.0
 11
-51.93246269680276
 21
24.33097515712723
 31
0.0
  0
MTEXT
  5
4AC
102
{ACAD_XDICTIONARY
360
651
102
}
330
4A8
100
AcDbEntity
  8
0
 62
     7
100
AcDbMText
 10
-17.15550007975168
 20
26.08098515796627
 30
0.0
 40
3.5
 41
33.48
 71
     9
 72
     1
  1
{\fＭＳ Ｐゴシック|b0|i0|c0|p0;\W0.83333x;\U+30B0\U+30EA\U+30FC\U+30B9\U+30CB\U+30C3\U+30D7\U+30EB}\P{\fＭＳ Ｐゴシック|b0|i0|c0|p0;\W0.83333x;\U+FF08\U+5186\U+5468\U+7B49\U+5206\U+FF13\U+30F6\U+6240\U+FF09}
1001
ACAD
1000
MTEXTBEGIN
1070
    44
1040
0.7875
1000
MTEXTEND
  0
ENDBLK
  5
4AF
330
4A8
100
AcDbEntity
  8
0
100
AcDbBlockEnd
  0
BLOCK
  5
4B6
330
4B0
100
AcDbEntity
  8
0
100
AcDbBlockBegin
  2
SYM0006
 70
     0
 10
0.0
 20
0.0
 30
0.0
  3
SYM0006
  1

  0
LINE
  5
4B1
330
4B0
100
AcDbEntity
  8
0
  6
CONTINUOUS
 62
     7
100
AcDbLine
 10
0.0
 20
0.0
 30
0.0
 11
-30.81022597141737
 21
7.02778005027119
 31
0.0
  0
CIRCLE
  5
4B2
330
4B0
100
AcDbEntity
  8
0
  6
CONTINUOUS
 62
     7
100
AcDbCircle
 10
0.0
 20
0.0
 30
0.0
 40
0.4
  0
LINE
  5
4B3
330
4B0
100
AcDbEntity
  8
0
  6
CONTINUOUS
 62
     7
100
AcDbLine
 10
-30.81022597141734
 20
7.027780050271133
 30
0.0
 11
-64.1178874428561
 21
7.027780050271133
 31
0.0
  0
MTEXT
  5
4B4
102
{ACAD_XDICTIONARY
360
653
102
}
330
4B0
100
AcDbEntity
  8
0
 62
     7
100
AcDbMText
 10
-29.1178874428561
 20
8.777781394061265
 30
0.0
 40
3.5
 41
33.48
 71
     9
 72
     1
  1
{\fＭＳ Ｐゴシック|b0|i0|c0|p0;\W0.83333x;\U+30B0\U+30EA\U+30FC\U+30B9\U+30CB\U+30C3\U+30D7\U+30EB}\P{\fＭＳ Ｐゴシック|b0|i0|c0|p0;\W0.83333x;\U+FF08\U+5186\U+5468\U+7B49\U+5206\U+FF13\U+30F6\U+6240\U+FF09}
1001
ACAD
1000
MTEXTBEGIN
1070
    44
1040
0.7875
1000
MTEXTEND
  0
ENDBLK
  5
4B7
330
4B0
100
AcDbEntity
  8
0
100
AcDbBlockEnd
  0
BLOCK
  5
4BA
330
4B9
100
AcDbEntity
  8
0
100
AcDbBlockBegin
  2
*D39
 70
     1
 10
0.0
 20
0.0
 30
0.0
  3
*D39
  1

  0
MTEXT
  5
4BF
330
4B9
100
AcDbEntity
  8
0
 62
     0
100
AcDbMText
 10
-343.64075
 20
286.001
 30
0.0
 40
3.5
 41
0.0
 71
     5
 72
     1
  1
\U+220546
 11
0.0
 21
1.0
 31
0.0
  0
POINT
  5
4C0
330
4B9
100
AcDbEntity
  8
DEFPOINTS
 62
     0
100
AcDbPoint
 10
-364.4999970392237
 20
263.0
 30
0.0
  0
POINT
  5
4C1
330
4B9
100
AcDbEntity
  8
DEFPOINTS
 62
     0
100
AcDbPoint
 10
-364.4999970392237
 20
309.0
 30
0.0
  0
POINT
  5
4C2
330
4B9
100
AcDbEntity
  8
DEFPOINTS
 62
     0
100
AcDbPoint
 10
-341.0
 20
309.0
 30
0.0
  0
LINE
  5
4C3
330
4B9
100
AcDbEntity
  8
0
  6
CONTINUOUS
 62
     7
100
AcDbLine
 10
-361.9599970392237
 20
263.0
 30
0.0
 11
-339.73
 21
263.0
 31
0.0
  0
LINE
  5
4C4
330
4B9
100
AcDbEntity
  8
0
  6
CONTINUOUS
 62
     7
100
AcDbLine
 10
-341.0
 20
263.0
 30
0.0
 11
-341.0
 21
297.0
 31
0.0
  0
LINE
  5
4C5
330
4B9
100
AcDbEntity
  8
0
  6
CONTINUOUS
 62
     7
100
AcDbLine
 10
-341.0
 20
263.0
 30
0.0
 11
-341.8184576843
 21
266.0545256620056
 31
0.0
  0
LINE
  5
4C6
330
4B9
100
AcDbEntity
  8
0
  6
CONTINUOUS
 62
     7
100
AcDbLine
 10
-341.0
 20
263.0
 30
0.0
 11
-340.1815423157
 21
266.0545256620056
 31
0.0
  0
ENDBLK
  5
4BB
330
4B9
100
AcDbEntity
  8
0
100
AcDbBlockEnd
  0
BLOCK
  5
4C9
330
4C8
100
AcDbEntity
  8
0
100
AcDbBlockBegin
  2
*D40
 70
     1
 10
0.0
 20
0.0
 30
0.0
  3
*D40
  1

  0
LINE
  5
4CB
330
4C8
100
AcDbEntity
  8
0
 62
     0
100
AcDbLine
 10
-446.54
 20
216.0
 30
0.0
 11
-507.2689890136719
 21
216.0
 31
0.0
  0
LINE
  5
4CC
330
4C8
100
AcDbEntity
  8
0
 62
     0
100
AcDbLine
 10
-446.54
 20
356.0
 30
0.0
 11
-507.2689890136719
 21
356.0
 31
0.0
  0
LINE
  5
4CD
330
4C8
100
AcDbEntity
  8
0
 62
     0
100
AcDbLine
 10
-505.999
 20
219.0
 30
0.0
 11
-505.999
 21
353.0
 31
0.0
  0
INSERT
  5
4CE
330
4C8
100
AcDbEntity
  8
0
 62
     0
100
AcDbBlockReference
  2
_OPEN30
 10
-505.999
 20
216.0
 30
0.0
 41
3.0
 42
3.0
 43
3.0
 50
270.0
  0
INSERT
  5
4CF
330
4C8
100
AcDbEntity
  8
0
 62
     0
100
AcDbBlockReference
  2
_OPEN30
 10
-505.999
 20
356.0
 30
0.0
 41
3.0
 42
3.0
 43
3.0
 50
90.0
  0
MTEXT
  5
4D0
330
4C8
100
AcDbEntity
  8
0
 62
     0
100
AcDbMText
 10
-508.63975
 20
286.001
 30
0.0
 40
3.5
 41
0.0
 71
     5
 72
     1
  1
\U+2205140H6
 11
0.0
 21
1.0
 31
0.0
  0
POINT
  5
4D1
330
4C8
100
AcDbEntity
  8
DEFPOINTS
 62
     0
100
AcDbPoint
 10
-444.0
 20
216.0
 30
0.0
  0
POINT
  5
4D2
330
4C8
100
AcDbEntity
  8
DEFPOINTS
 62
     0
100
AcDbPoint
 10
-444.0
 20
356.0
 30
0.0
  0
POINT
  5
4D3
330
4C8
100
AcDbEntity
  8
DEFPOINTS
 62
     0
100
AcDbPoint
 10
-506.0
 20
356.0
 30
0.0
  0
ENDBLK
  5
4CA
330
4C8
100
AcDbEntity
  8
0
100
AcDbBlockEnd
  0
BLOCK
  5
4D6
330
4D5
100
AcDbEntity
  8
0
100
AcDbBlockBegin
  2
*D41
 70
     1
 10
0.0
 20
0.0
 30
0.0
  3
*D41
  1

  0
LINE
  5
4D8
330
4D5
100
AcDbEntity
  8
0
 62
     0
100
AcDbLine
 10
-444.54
 20
370.5
 30
0.0
 11
-518.2679890136719
 21
370.5
 31
0.0
  0
LINE
  5
4D9
330
4D5
100
AcDbEntity
  8
0
 62
     0
100
AcDbLine
 10
-444.54
 20
201.5
 30
0.0
 11
-518.2679890136719
 21
201.5
 31
0.0
  0
LINE
  5
4DA
330
4D5
100
AcDbEntity
  8
0
 62
     0
100
AcDbLine
 10
-516.998
 20
367.5
 30
0.0
 11
-516.998
 21
204.5
 31
0.0
  0
INSERT
  5
4DB
330
4D5
100
AcDbEntity
  8
0
 62
     0
100
AcDbBlockReference
  2
_OPEN30
 10
-516.998
 20
370.5
 30
0.0
 41
3.0
 42
3.0
 43
3.0
 50
90.0
  0
INSERT
  5
4DC
330
4D5
100
AcDbEntity
  8
0
 62
     0
100
AcDbBlockReference
  2
_OPEN30
 10
-516.998
 20
201.5
 30
0.0
 41
3.0
 42
3.0
 43
3.0
 50
270.0
  0
MTEXT
  5
4DD
330
4D5
100
AcDbEntity
  8
0
 62
     0
100
AcDbMText
 10
-519.6387500000001
 20
286.001
 30
0.0
 40
3.5
 41
0.0
 71
     5
 72
     1
  1
\U+2205169
 11
0.0
 21
1.0
 31
0.0
  0
POINT
  5
4DE
330
4D5
100
AcDbEntity
  8
DEFPOINTS
 62
     0
100
AcDbPoint
 10
-442.0
 20
370.5
 30
0.0
  0
POINT
  5
4DF
330
4D5
100
AcDbEntity
  8
DEFPOINTS
 62
     0
100
AcDbPoint
 10
-442.0
 20
201.5
 30
0.0
  0
POINT
  5
4E0
330
4D5
100
AcDbEntity
  8
DEFPOINTS
 62
     0
100
AcDbPoint
 10
-517.0
 20
201.5
 30
0.0
  0
ENDBLK
  5
4D7
330
4D5
100
AcDbEntity
  8
0
100
AcDbBlockEnd
  0
BLOCK
  5
4E3
330
4E2
100
AcDbEntity
  8
0
100
AcDbBlockBegin
  2
*D42
 70
     1
 10
0.0
 20
0.0
 30
0.0
  3
*D42
  1

  0
LINE
  5
4E5
330
4E2
100
AcDbEntity
  8
0
 62
     0
100
AcDbLine
 10
-461.54
 20
233.5999984741211
 30
0.0
 11
-496.2679890136719
 21
233.5999984741211
 31
0.0
  0
LINE
  5
4E6
330
4E2
100
AcDbEntity
  8
0
 62
     0
100
AcDbLine
 10
-494.998
 20
338.4000015258789
 30
0.0
 11
-494.998
 21
236.5999984741211
 31
0.0
  0
INSERT
  5
4E7
330
4E2
100
AcDbEntity
  8
0
 62
     0
100
AcDbBlockReference
  2
_OPEN30
 10
-494.998
 20
233.5999984741211
 30
0.0
 41
3.0
 42
3.0
 43
3.0
 50
270.0
  0
MTEXT
  5
4E8
330
4E2
100
AcDbEntity
  8
0
 62
     0
100
AcDbMText
 10
-497.64575
 20
286.001
 30
0.0
 40
3.5
 41
0.0
 71
     5
 72
     1
  1
\U+2205104.8
 11
-5.423990191368089E-16
 21
1.0
 31
0.0
  0
POINT
  5
4E9
330
4E2
100
AcDbEntity
  8
DEFPOINTS
 62
     0
100
AcDbPoint
 10
-476.6539916992188
 20
338.4000015258789
 30
0.0
  0
POINT
  5
4EA
330
4E2
100
AcDbEntity
  8
DEFPOINTS
 62
     0
100
AcDbPoint
 10
-459.0
 20
233.5999984741211
 30
0.0
  0
POINT
  5
4EB
330
4E2
100
AcDbEntity
  8
DEFPOINTS
 62
     0
100
AcDbPoint
 10
-495.0
 20
233.5999984741211
 30
0.0
  0
ENDBLK
  5
4E4
330
4E2
100
AcDbEntity
  8
0
100
AcDbBlockEnd
  0
BLOCK
  5
4F3
330
4EC
100
AcDbEntity
  8
0
100
AcDbBlockBegin
  2
SYM0007
 70
     0
 10
0.0
 20
0.0
 30
0.0
  3
SYM0007
  1

  0
LINE
  5
4ED
330
4EC
100
AcDbEntity
  8
0
  6
CONTINUOUS
 62
     7
100
AcDbLine
 10
0.0
 20
0.0
 30
0.0
 11
-30.24312286043801
 21
-37.86316368389765
 31
0.0
  0
LINE
  5
4EE
330
4EC
100
AcDbEntity
  8
0
  6
CONTINUOUS
 62
     7
100
AcDbLine
 10
0.0
 20
0.0
 30
0.0
 11
-1.266825888370306
 21
-2.897438898302312
 31
0.0
  0
LINE
  5
4EF
330
4EC
100
AcDbEntity
  8
0
  6
CONTINUOUS
 62
     7
100
AcDbLine
 10
0.0
 20
0.0
 30
0.0
 11
-2.545822850543288
 21
-1.875842747804882
 31
0.0
  0
LINE
  5
4F0
330
4EC
100
AcDbEntity
  8
0
  6
CONTINUOUS
 62
     7
100
AcDbLine
 10
-30.24312286043801
 20
-37.86316368389765
 30
0.0
 11
-49.78996116767792
 21
-37.86316368389765
 31
0.0
  0
MTEXT
  5
4F1
330
4EC
100
AcDbEntity
  8
0
 62
     7
100
AcDbMText
 10
-31.78996116767792
 20
-36.98815963698888
 30
0.0
 40
3.5
 41
0.0
 71
     9
 72
     1
  1
{\W1;6-M10}
  0
ENDBLK
  5
4F4
330
4EC
100
AcDbEntity
  8
0
100
AcDbBlockEnd
  0
BLOCK
  5
4F7
330
4F6
100
AcDbEntity
  8
0
100
AcDbBlockBegin
  2
*D44
 70
     1
 10
0.0
 20
0.0
 30
0.0
  3
*D44
  1

  0
LINE
  5
4F9
330
4F6
100
AcDbEntity
  8
0
 62
     0
100
AcDbLine
 10
-439.0
 20
322.0
 30
0.0
 11
-466.1406506347656
 21
322.0
 31
0.0
  0
LINE
  5
4FA
330
4F6
100
AcDbEntity
  8
0
 62
     0
100
AcDbLine
 10
-431.0
 20
322.0
 30
0.0
 11
-436.0
 21
322.0
 31
0.0
  0
INSERT
  5
4FB
330
4F6
100
AcDbEntity
  8
0
 62
     0
100
AcDbBlockReference
  2
_OPEN30
 10
-428.0
 20
322.0
 30
0.0
 41
3.0
 42
3.0
 43
3.0
  0
INSERT
  5
4FC
330
4F6
100
AcDbEntity
  8
0
 62
     0
100
AcDbBlockReference
  2
_OPEN30
 10
-439.0
 20
322.0
 30
0.0
 41
3.0
 42
3.0
 43
3.0
 50
180.0
  0
MTEXT
  5
4FD
330
4F6
100
AcDbEntity
  8
0
 62
     0
100
AcDbMText
 10
-455.9784006347656
 20
327.5416666666667
 30
0.0
 40
3.5
 41
0.0
 71
     5
 72
     1
  1
MAX 11\PMIN -1
  0
POINT
  5
4FE
330
4F6
100
AcDbEntity
  8
DEFPOINTS
 62
     0
100
AcDbPoint
 10
-428.0
 20
286.0
 30
0.0
  0
POINT
  5
4FF
330
4F6
100
AcDbEntity
  8
DEFPOINTS
 62
     0
100
AcDbPoint
 10
-439.0
 20
310.8786087036133
 30
0.0
  0
POINT
  5
500
330
4F6
100
AcDbEntity
  8
DEFPOINTS
 62
     0
100
AcDbPoint
 10
-439.0
 20
322.0
 30
0.0
  0
ENDBLK
  5
4F8
330
4F6
100
AcDbEntity
  8
0
100
AcDbBlockEnd
  0
BLOCK
  5
503
330
502
100
AcDbEntity
  8
0
100
AcDbBlockBegin
  2
*D45
 70
     1
 10
0.0
 20
0.0
 30
0.0
  3
*D45
  1

  0
LINE
  5
505
330
502
100
AcDbEntity
  8
0
 62
     0
100
AcDbLine
 10
-439.0
 20
213.46
 30
0.0
 11
-439.0
 21
174.7310033569336
 31
0.0
  0
LINE
  5
506
330
502
100
AcDbEntity
  8
0
 62
     0
100
AcDbLine
 10
-454.0
 20
226.0599984741211
 30
0.0
 11
-454.0
 21
174.7310033569336
 31
0.0
  0
LINE
  5
507
330
502
100
AcDbEntity
  8
0
 62
     0
100
AcDbLine
 10
-442.0
 20
176.001
 30
0.0
 11
-451.0
 21
176.001
 31
0.0
  0
INSERT
  5
508
330
502
100
AcDbEntity
  8
0
 62
     0
100
AcDbBlockReference
  2
_OPEN30
 10
-439.0
 20
176.001
 30
0.0
 41
3.0
 42
3.0
 43
3.0
  0
INSERT
  5
509
330
502
100
AcDbEntity
  8
0
 62
     0
100
AcDbBlockReference
  2
_OPEN30
 10
-454.0
 20
176.001
 30
0.0
 41
3.0
 42
3.0
 43
3.0
 50
180.0
  0
MTEXT
  5
50A
330
502
100
AcDbEntity
  8
0
 62
     0
100
AcDbMText
 10
-448.1971271972657
 20
178.64175
 30
0.0
 40
3.5
 41
0.0
 71
     5
 72
     1
  1
15
  0
POINT
  5
50B
330
502
100
AcDbEntity
  8
DEFPOINTS
 62
     0
100
AcDbPoint
 10
-439.0
 20
216.0
 30
0.0
  0
POINT
  5
50C
330
502
100
AcDbEntity
  8
DEFPOINTS
 62
     0
100
AcDbPoint
 10
-454.0
 20
228.5999984741211
 30
0.0
  0
POINT
  5
50D
330
502
100
AcDbEntity
  8
DEFPOINTS
 62
     0
100
AcDbPoint
 10
-454.0
 20
176.0
 30
0.0
  0
ENDBLK
  5
504
330
502
100
AcDbEntity
  8
0
100
AcDbBlockEnd
  0
BLOCK
  5
510
330
50F
100
AcDbEntity
  8
0
100
AcDbBlockBegin
  2
*D46
 70
     1
 10
0.0
 20
0.0
 30
0.0
  3
*D46
  1

  0
LINE
  5
512
330
50F
100
AcDbEntity
  8
0
 62
     0
100
AcDbLine
 10
-425.0
 20
266.2097459564209
 30
0.0
 11
-412.0
 21
266.2097459564209
 31
0.0
  0
INSERT
  5
513
330
50F
100
AcDbEntity
  8
0
 62
     0
100
AcDbBlockReference
  2
_OPEN30
 10
-428.0
 20
266.2097459564209
 30
0.0
 41
3.0
 42
3.0
 43
3.0
 50
180.0
  0
INSERT
  5
514
330
50F
100
AcDbEntity
  8
0
 62
     0
100
AcDbBlockReference
  2
_OPEN30
 10
-409.0
 20
266.2097459564209
 30
0.0
 41
3.0
 42
3.0
 43
3.0
  0
MTEXT
  5
515
330
50F
100
AcDbEntity
  8
0
 62
     0
100
AcDbMText
 10
-418.499
 20
268.8504959564209
 30
0.0
 40
3.5
 41
0.0
 71
     5
 72
     1
  1
19
  0
POINT
  5
516
330
50F
100
AcDbEntity
  8
DEFPOINTS
 62
     0
100
AcDbPoint
 10
-428.0
 20
286.0
 30
0.0
  0
POINT
  5
517
330
50F
100
AcDbEntity
  8
DEFPOINTS
 62
     0
100
AcDbPoint
 10
-409.0
 20
286.0
 30
0.0
  0
POINT
  5
518
330
50F
100
AcDbEntity
  8
DEFPOINTS
 62
     0
100
AcDbPoint
 10
-409.0
 20
266.2087459564209
 30
0.0
  0
ENDBLK
  5
511
330
50F
100
AcDbEntity
  8
0
100
AcDbBlockEnd
  0
BLOCK
  5
51B
330
51A
100
AcDbEntity
  8
0
100
AcDbBlockBegin
  2
*D47
 70
     1
 10
0.0
 20
0.0
 30
0.0
  3
*D47
  1

  0
LINE
  5
51D
330
51A
100
AcDbEntity
  8
0
 62
     0
100
AcDbLine
 10
-444.0
 20
200.96
 30
0.0
 11
-444.0
 21
163.7310033569336
 31
0.0
  0
LINE
  5
51E
330
51A
100
AcDbEntity
  8
0
 62
     0
100
AcDbLine
 10
-363.0
 20
200.96
 30
0.0
 11
-363.0
 21
163.7310033569336
 31
0.0
  0
LINE
  5
51F
330
51A
100
AcDbEntity
  8
0
 62
     0
100
AcDbLine
 10
-441.0
 20
165.001
 30
0.0
 11
-366.0
 21
165.001
 31
0.0
  0
INSERT
  5
520
330
51A
100
AcDbEntity
  8
0
 62
     0
100
AcDbBlockReference
  2
_OPEN30
 10
-444.0
 20
165.001
 30
0.0
 41
3.0
 42
3.0
 43
3.0
 50
180.0
  0
INSERT
  5
521
330
51A
100
AcDbEntity
  8
0
 62
     0
100
AcDbBlockReference
  2
_OPEN30
 10
-363.0
 20
165.001
 30
0.0
 41
3.0
 42
3.0
 43
3.0
  0
MTEXT
  5
522
330
51A
100
AcDbEntity
  8
0
 62
     0
100
AcDbMText
 10
-403.499
 20
167.64175
 30
0.0
 40
3.5
 41
0.0
 71
     5
 72
     1
  1
81
  0
POINT
  5
523
330
51A
100
AcDbEntity
  8
DEFPOINTS
 62
     0
100
AcDbPoint
 10
-444.0
 20
203.5
 30
0.0
  0
POINT
  5
524
330
51A
100
AcDbEntity
  8
DEFPOINTS
 62
     0
100
AcDbPoint
 10
-363.0
 20
203.5
 30
0.0
  0
POINT
  5
525
330
51A
100
AcDbEntity
  8
DEFPOINTS
 62
     0
100
AcDbPoint
 10
-363.0
 20
165.0
 30
0.0
  0
ENDBLK
  5
51C
330
51A
100
AcDbEntity
  8
0
100
AcDbBlockEnd
  0
BLOCK
  5
528
330
527
100
AcDbEntity
  8
0
100
AcDbBlockBegin
  2
*D48
 70
     1
 10
0.0
 20
0.0
 30
0.0
  3
*D48
  1

  0
MTEXT
  5
52F
330
527
100
AcDbEntity
  8
0
 62
     0
100
AcDbMText
 10
-419.68575
 20
324.626
 30
0.0
 40
3.5
 41
0.0
 71
     5
 72
     1
  1
1
  0
POINT
  5
530
330
527
100
AcDbEntity
  8
DEFPOINTS
 62
     0
100
AcDbPoint
 10
-428.0
 20
315.0
 30
0.0
  0
POINT
  5
531
330
527
100
AcDbEntity
  8
DEFPOINTS
 62
     0
100
AcDbPoint
 10
-427.0
 20
331.5
 30
0.0
  0
POINT
  5
532
330
527
100
AcDbEntity
  8
DEFPOINTS
 62
     0
100
AcDbPoint
 10
-427.0
 20
322.0
 30
0.0
  0
LINE
  5
533
330
527
100
AcDbEntity
  8
0
  6
CONTINUOUS
 62
     7
100
AcDbLine
 10
-428.0
 20
317.54
 30
0.0
 11
-428.0
 21
323.27
 31
0.0
  0
LINE
  5
534
330
527
100
AcDbEntity
  8
0
  6
CONTINUOUS
 62
     7
100
AcDbLine
 10
-428.0
 20
322.0
 30
0.0
 11
-420.65
 21
322.0
 31
0.0
  0
LINE
  5
535
330
527
100
AcDbEntity
  8
0
  6
CONTINUOUS
 62
     7
100
AcDbLine
 10
-427.0
 20
322.0
 30
0.0
 11
-423.9454743379944
 21
322.8184576843
 31
0.0
  0
LINE
  5
536
330
527
100
AcDbEntity
  8
0
  6
CONTINUOUS
 62
     7
100
AcDbLine
 10
-427.0
 20
322.0
 30
0.0
 11
-423.9454743379944
 21
321.1815423157
 31
0.0
  0
LINE
  5
537
330
527
100
AcDbEntity
  8
0
  6
CONTINUOUS
 62
     7
100
AcDbLine
 10
-427.0
 20
322.0
 30
0.0
 11
-421.2020256713533
 21
322.0
 31
0.0
  0
ENDBLK
  5
529
330
527
100
AcDbEntity
  8
0
100
AcDbBlockEnd
  0
BLOCK
  5
53A
330
539
100
AcDbEntity
  8
0
100
AcDbBlockBegin
  2
*D49
 70
     1
 10
0.0
 20
0.0
 30
0.0
  3
*D49
  1

  0
POINT
  5
53F
330
539
100
AcDbEntity
  8
DEFPOINTS
 62
     0
100
AcDbPoint
 10
-114.8679662160871
 20
308.1470860030585
 30
0.0
  0
POINT
  5
540
330
539
100
AcDbEntity
  8
DEFPOINTS
 62
     0
100
AcDbPoint
 10
-149.1320337839129
 20
263.8529139969415
 30
0.0
  0
LINE
  5
541
330
539
100
AcDbEntity
  8
0
  6
CONTINUOUS
 62
     7
100
AcDbLine
 10
-114.8679662160871
 20
308.1470860030585
 30
0.0
 11
-149.1320337839129
 21
263.8529139969415
 31
0.0
  0
LINE
  5
542
330
539
100
AcDbEntity
  8
0
  6
CONTINUOUS
 62
     7
100
AcDbLine
 10
-114.8679662160871
 20
308.1470860030585
 30
0.0
 11
-116.0895299343462
 21
305.2302757447328
 31
0.0
  0
LINE
  5
543
330
539
100
AcDbEntity
  8
0
  6
CONTINUOUS
 62
     7
100
AcDbLine
 10
-114.8679662160871
 20
308.1470860030585
 30
0.0
 11
-117.384276557493
 21
306.2318360803135
 31
0.0
  0
LINE
  5
544
330
539
100
AcDbEntity
  8
0
  6
CONTINUOUS
 62
     7
100
AcDbLine
 10
-149.1320337839129
 20
263.8529139969415
 30
0.0
 11
-147.9104700656539
 21
266.7697242552672
 31
0.0
  0
LINE
  5
545
330
539
100
AcDbEntity
  8
0
  6
CONTINUOUS
 62
     7
100
AcDbLine
 10
-149.1320337839129
 20
263.8529139969415
 30
0.0
 11
-146.615723442507
 21
265.7681639196865
 31
0.0
  0
MTEXT
  5
546
330
539
100
AcDbEntity
  8
0
 62
     7
100
AcDbMText
 10
-142.9027230660896
 20
272.7807279212844
 30
0.0
 40
3.5
 41
0.0
 71
     8
 72
     1
  1
\W1;\U+220556
 11
0.6115270401858314
 21
0.7912235329674899
 31
0.0
  0
ENDBLK
  5
53B
330
539
100
AcDbEntity
  8
0
100
AcDbBlockEnd
  0
BLOCK
  5
54E
330
547
100
AcDbEntity
  8
0
100
AcDbBlockBegin
  2
SYM0008
 70
     0
 10
0.0
 20
0.0
 30
0.0
  3
SYM0008
  1

  0
LINE
  5
548
330
547
100
AcDbEntity
  8
0
  6
CONTINUOUS
 62
     7
100
AcDbLine
 10
0.0
 20
0.0
 30
0.0
 11
-22.72955218752472
 21
-70.81283337130645
 31
0.0
  0
LINE
  5
549
330
547
100
AcDbEntity
  8
0
  6
CONTINUOUS
 62
     7
100
AcDbLine
 10
0.0
 20
0.0
 30
0.0
 11
-0.154235480445038
 21
-3.158514115436645
 31
0.0
  0
LINE
  5
54A
330
547
100
AcDbEntity
  8
0
  6
CONTINUOUS
 62
     7
100
AcDbLine
 10
0.0
 20
0.0
 30
0.0
 11
-1.712828901795092
 21
-2.658235722056276
 31
0.0
  0
LINE
  5
54B
330
547
100
AcDbEntity
  8
0
  6
CONTINUOUS
 62
     7
100
AcDbLine
 10
-22.72955218752475
 20
-70.81283337130645
 30
0.0
 11
-51.73065218752475
 21
-70.81283337130645
 31
0.0
  0
MTEXT
  5
54C
330
547
100
AcDbEntity
  8
0
 62
     7
100
AcDbMText
 10
-23.56866172704423
 20
-69.93783337130648
 30
0.0
 40
3.5
 41
0.0
 71
     9
 72
     1
  1
{\W0.833333;３－Ｍ４　深サ５}
  0
ENDBLK
  5
54F
330
547
100
AcDbEntity
  8
0
100
AcDbBlockEnd
  0
BLOCK
  5
552
330
551
100
AcDbEntity
  8
0
100
AcDbBlockBegin
  2
*D51
 70
     1
 10
0.0
 20
0.0
 30
0.0
  3
*D51
  1

  0
LINE
  5
554
330
551
100
AcDbEntity
  8
0
 62
     0
100
AcDbLine
 10
-430.54
 20
296.0
 30
0.0
 11
-463.268
 21
296.0
 31
0.0
  0
LINE
  5
555
330
551
100
AcDbEntity
  8
0
 62
     0
100
AcDbLine
 10
-430.54
 20
276.0
 30
0.0
 11
-463.268
 21
276.0
 31
0.0
  0
LINE
  5
556
330
551
100
AcDbEntity
  8
0
 62
     0
100
AcDbLine
 10
-461.998
 20
293.0
 30
0.0
 11
-461.998
 21
279.0
 31
0.0
  0
INSERT
  5
557
330
551
100
AcDbEntity
  8
0
 62
     0
100
AcDbBlockReference
  2
_OPEN30
 10
-461.998
 20
296.0
 30
0.0
 41
3.0
 42
3.0
 43
3.0
 50
90.0
  0
INSERT
  5
558
330
551
100
AcDbEntity
  8
0
 62
     0
100
AcDbBlockReference
  2
_OPEN30
 10
-461.998
 20
276.0
 30
0.0
 41
3.0
 42
3.0
 43
3.0
 50
270.0
  0
MTEXT
  5
559
330
551
100
AcDbEntity
  8
0
 62
     0
100
AcDbMText
 10
-464.6387500000001
 20
286.001
 30
0.0
 40
3.5
 41
0.0
 71
     5
 72
     1
  1
\U+220520
 11
0.0
 21
1.0
 31
0.0
  0
POINT
  5
55A
330
551
100
AcDbEntity
  8
DEFPOINTS
 62
     0
100
AcDbPoint
 10
-428.0
 20
296.0
 30
0.0
  0
POINT
  5
55B
330
551
100
AcDbEntity
  8
DEFPOINTS
 62
     0
100
AcDbPoint
 10
-428.0
 20
276.0
 30
0.0
  0
POINT
  5
55C
330
551
100
AcDbEntity
  8
DEFPOINTS
 62
     0
100
AcDbPoint
 10
-462.0
 20
276.0
 30
0.0
  0
ENDBLK
  5
553
330
551
100
AcDbEntity
  8
0
100
AcDbBlockEnd
  0
BLOCK
  5
55F
330
55E
100
AcDbEntity
  8
0
100
AcDbBlockBegin
  2
*D52
 70
     1
 10
0.0
 20
0.0
 30
0.0
  3
*D52
  1

  0
LINE
  5
561
330
55E
100
AcDbEntity
  8
0
 62
     0
100
AcDbLine
 10
-120.46
 20
230.0
 30
0.0
 11
-31.73000000000001
 21
230.0
 31
0.0
  0
LINE
  5
562
330
55E
100
AcDbEntity
  8
0
 62
     0
100
AcDbLine
 10
-40.46
 20
286.0
 30
0.0
 11
-31.73
 21
286.0
 31
0.0
  0
LINE
  5
563
330
55E
100
AcDbEntity
  8
0
 62
     0
100
AcDbLine
 10
-33.00000000000001
 20
233.0
 30
0.0
 11
-33.0
 21
283.0
 31
0.0
  0
INSERT
  5
564
330
55E
100
AcDbEntity
  8
0
 62
     0
100
AcDbBlockReference
  2
_OPEN30
 10
-33.00000000000001
 20
230.0
 30
0.0
 41
3.0
 42
3.0
 43
3.0
 50
270.0
  0
INSERT
  5
565
330
55E
100
AcDbEntity
  8
0
 62
     0
100
AcDbBlockReference
  2
_OPEN30
 10
-33.0
 20
286.0
 30
0.0
 41
3.0
 42
3.0
 43
3.0
 50
90.0
  0
MTEXT
  5
566
330
55E
100
AcDbEntity
  8
0
 62
     0
100
AcDbMText
 10
-35.64075000000003
 20
258.001
 30
0.0
 40
3.5
 41
0.0
 71
     5
 72
     1
  1
56
 11
1.268826313857322E-16
 21
1.0
 31
0.0
  0
POINT
  5
567
330
55E
100
AcDbEntity
  8
DEFPOINTS
 62
     0
100
AcDbPoint
 10
-123.0
 20
230.0
 30
0.0
  0
POINT
  5
568
330
55E
100
AcDbEntity
  8
DEFPOINTS
 62
     0
100
AcDbPoint
 10
-43.0
 20
286.0
 30
0.0
  0
POINT
  5
569
330
55E
100
AcDbEntity
  8
DEFPOINTS
 62
     0
100
AcDbPoint
 10
-33.0
 20
286.0
 30
0.0
  0
ENDBLK
  5
560
330
55E
100
AcDbEntity
  8
0
100
AcDbBlockEnd
  0
BLOCK
  5
56C
330
56B
100
AcDbEntity
  8
0
100
AcDbBlockBegin
  2
*D53
 70
     1
 10
0.0
 20
0.0
 30
0.0
  3
*D53
  1

  0
LINE
  5
56E
330
56B
100
AcDbEntity
  8
0
 62
     0
100
AcDbLine
 10
-120.46
 20
215.0
 30
0.0
 11
-31.729
 21
215.0
 31
0.0
  0
LINE
  5
56F
330
56B
100
AcDbEntity
  8
0
 62
     0
100
AcDbLine
 10
-32.999
 20
227.0
 30
0.0
 11
-32.999
 21
218.0
 31
0.0
  0
INSERT
  5
570
330
56B
100
AcDbEntity
  8
0
 62
     0
100
AcDbBlockReference
  2
_OPEN30
 10
-32.999
 20
230.0
 30
0.0
 41
3.0
 42
3.0
 43
3.0
 50
90.00000000000001
  0
INSERT
  5
571
330
56B
100
AcDbEntity
  8
0
 62
     0
100
AcDbBlockReference
  2
_OPEN30
 10
-32.999
 20
215.0
 30
0.0
 41
3.0
 42
3.0
 43
3.0
 50
270.0
  0
MTEXT
  5
572
330
56B
100
AcDbEntity
  8
0
 62
     0
100
AcDbMText
 10
-35.63975
 20
222.501
 30
0.0
 40
3.5
 41
0.0
 71
     5
 72
     1
  1
15
 11
-4.736951571733992E-16
 21
1.0
 31
0.0
  0
POINT
  5
573
330
56B
100
AcDbEntity
  8
DEFPOINTS
 62
     0
100
AcDbPoint
 10
-123.0
 20
230.0
 30
0.0
  0
POINT
  5
574
330
56B
100
AcDbEntity
  8
DEFPOINTS
 62
     0
100
AcDbPoint
 10
-123.0
 20
215.0
 30
0.0
  0
POINT
  5
575
330
56B
100
AcDbEntity
  8
DEFPOINTS
 62
     0
100
AcDbPoint
 10
-33.0
 20
215.0
 30
0.0
  0
ENDBLK
  5
56D
330
56B
100
AcDbEntity
  8
0
100
AcDbBlockEnd
  0
BLOCK
  5
57D
330
576
100
AcDbEntity
  8
0
100
AcDbBlockBegin
  2
SYM0009
 70
     0
 10
0.0
 20
0.0
 30
0.0
  3
SYM0009
  1

  0
LINE
  5
577
330
576
100
AcDbEntity
  8
0
  6
CONTINUOUS
 62
     7
100
AcDbLine
 10
0.0
 20
0.0
 30
0.0
 11
35.1950906287698
 21
-25.74665270143393
 31
0.0
  0
LINE
  5
578
330
576
100
AcDbEntity
  8
0
  6
CONTINUOUS
 62
     7
100
AcDbLine
 10
0.0
 20
0.0
 30
0.0
 11
2.948526090127416
 21
-1.142888400797943
 31
0.0
  0
LINE
  5
579
330
576
100
AcDbEntity
  8
0
  6
CONTINUOUS
 62
     7
100
AcDbLine
 10
0.0
 20
0.0
 30
0.0
 11
1.982054297514907
 21
-2.464033433730805
 31
0.0
  0
LINE
  5
57A
330
576
100
AcDbEntity
  8
0
  6
CONTINUOUS
 62
     7
100
AcDbLine
 10
35.19509062876982
 20
-25.74665270143393
 30
0.0
 11
65.6065157970951
 21
-25.74665270143393
 31
0.0
  0
MTEXT
  5
57B
330
576
100
AcDbEntity
  8
0
 62
     7
100
AcDbMText
 10
37.2315157970951
 20
-24.87165270143393
 30
0.0
 40
3.5
 41
0.0
 71
     7
 72
     1
  1
{\W0.833333;６－Ｍ８{\H0.5x;\S　;}深サ１６}
  0
ENDBLK
  5
57E
330
576
100
AcDbEntity
  8
0
100
AcDbBlockEnd
  0
BLOCK
  5
586
330
57F
100
AcDbEntity
  8
0
100
AcDbBlockBegin
  2
SYM0010
 70
     0
 10
0.0
 20
0.0
 30
0.0
  3
SYM0010
  1

  0
LINE
  5
580
330
57F
100
AcDbEntity
  8
0
  6
CONTINUOUS
 62
     7
100
AcDbLine
 10
0.0
 20
0.0
 30
0.0
 11
-22.5
 21
8.000000000000057
 31
0.0
  0
LINE
  5
581
330
57F
100
AcDbEntity
  8
0
  6
CONTINUOUS
 62
     7
100
AcDbLine
 10
0.0
 20
0.0
 30
0.0
 11
-3.152210187383162
 21
0.252132773352287
 31
0.0
  0
LINE
  5
582
330
57F
100
AcDbEntity
  8
0
  6
CONTINUOUS
 62
     7
100
AcDbLine
 10
0.0
 20
0.0
 30
0.0
 11
-2.603827713769419
 21
1.794458480390858
 31
0.0
  0
LINE
  5
583
330
57F
100
AcDbEntity
  8
0
  6
CONTINUOUS
 62
     7
100
AcDbLine
 10
-22.5
 20
8.000000000000057
 30
0.0
 11
-58.50110000000001
 21
8.000000000000057
 31
0.0
  0
MTEXT
  5
584
330
57F
100
AcDbEntity
  8
0
 62
     7
100
AcDbMText
 10
-23.00099999999998
 20
8.875000000000057
 30
0.0
 40
3.5
 41
0.0
 71
     9
 72
     1
  1
{\W0.833333;（ＭＡＸ{\H0.5x;\S　;}Ｍ５５×２）}
  0
ENDBLK
  5
587
330
57F
100
AcDbEntity
  8
0
100
AcDbBlockEnd
  0
BLOCK
  5
58F
330
588
100
AcDbEntity
  8
0
100
AcDbBlockBegin
  2
SYM0011
 70
     0
 10
0.0
 20
0.0
 30
0.0
  3
SYM0011
  1

  0
LINE
  5
589
330
588
100
AcDbEntity
  8
0
  6
CONTINUOUS
 62
     7
100
AcDbLine
 10
0.0
 20
0.0
 30
0.0
 11
-20.00000715255726
 21
-27.61999735672211
 31
0.0
  0
LINE
  5
58A
330
588
100
AcDbEntity
  8
0
  6
CONTINUOUS
 62
     7
100
AcDbLine
 10
0.0
 20
0.0
 30
0.0
 11
-1.128558167283927
 21
-2.954040701124057
 31
0.0
  0
LINE
  5
58B
330
588
100
AcDbEntity
  8
0
  6
CONTINUOUS
 62
     7
100
AcDbLine
 10
0.0
 20
0.0
 30
0.0
 11
-2.454380392963117
 21
-1.993995207486449
 31
0.0
  0
LINE
  5
58C
330
588
100
AcDbEntity
  8
0
  6
CONTINUOUS
 62
     7
100
AcDbLine
 10
-20.00000715255726
 20
-27.61999735672217
 30
0.0
 11
18.20169387090823
 21
-27.61999735672217
 31
0.0
  0
MTEXT
  5
58D
330
588
100
AcDbEntity
  8
0
 62
     7
100
AcDbMText
 10
-17.17330612909177
 20
-26.74499735672217
 30
0.0
 40
3.5
 41
0.0
 71
     7
 72
     1
  1
{\W0.833333;２－Ｍ１０　深サ１８}
  0
ENDBLK
  5
590
330
588
100
AcDbEntity
  8
0
100
AcDbBlockEnd
  0
BLOCK
  5
63D
330
636
100
AcDbEntity
  8
0
100
AcDbBlockBegin
  2
$X0
 70
     0
 10
0.0
 20
0.0
 30
0.0
  3
$X0
  1

  0
LINE
  5
637
330
636
100
AcDbEntity
  8
0
  6
CONTINUOUS
 62
     7
100
AcDbLine
 10
-0.061887898966539
 20
-1.498722752199846
 30
0.0
 11
1.498722628421056
 21
0.061890896411924
 31
0.0
  0
LINE
  5
638
330
636
100
AcDbEntity
  8
0
  6
CONTINUOUS
 62
     7
100
AcDbLine
 10
-0.698714932392285
 20
-1.32732718018282
 30
0.0
 11
1.327325782750286
 21
0.698717587045238
 31
0.0
  0
LINE
  5
639
330
636
100
AcDbEntity
  8
0
  6
CONTINUOUS
 62
     7
100
AcDbLine
 10
-1.146656821762683
 20
-0.967046086339778
 30
0.0
 11
0.967043793024203
 21
1.14665875585257
 31
0.0
  0
LINE
  5
63A
330
636
100
AcDbEntity
  8
0
  6
CONTINUOUS
 62
     7
100
AcDbLine
 10
-1.432557514845364
 20
-0.444723472126306
 30
0.0
 11
0.444720607010389
 21
1.432558404289445
 31
0.0
  0
LINE
  5
63B
330
636
100
AcDbEntity
  8
0
  6
CONTINUOUS
 62
     7
100
AcDbLine
 10
-1.462425988983341
 20
0.33363187309682
 30
0.0
 11
-0.333634797948122
 21
1.46242532171668
 31
0.0
  0
ENDBLK
  5
63E
330
636
100
AcDbEntity
  8
0
100
AcDbBlockEnd
  0
ENDSEC
  0
SECTION
  2
ENTITIES
  0
LINE
  5
72
330
1F
100
AcDbEntity
  8
0
  6
CONTINUOUS
 62
     7
100
AcDbLine
 10
-220.0
 20
82.5
 30
0.0
 11
-136.0
 21
82.5
 31
0.0
  0
LINE
  5
73
330
1F
100
AcDbEntity
  8
0
  6
CONTINUOUS
 62
     7
100
AcDbLine
 10
-220.0
 20
130.5
 30
0.0
 11
-220.0
 21
82.5
 31
0.0
  0
LINE
  5
74
330
1F
100
AcDbEntity
  8
0
  6
CONTINUOUS
 62
     7
100
AcDbLine
 10
-206.0
 20
130.5
 30
0.0
 11
-206.0
 21
82.5
 31
0.0
  0
LINE
  5
75
330
1F
100
AcDbEntity
  8
0
  6
CONTINUOUS
 62
     7
100
AcDbLine
 10
-192.0
 20
130.5
 30
0.0
 11
-192.0
 21
82.5
 31
0.0
  0
LINE
  5
76
330
1F
100
AcDbEntity
  8
0
  6
CONTINUOUS
 62
     7
100
AcDbLine
 10
-178.0
 20
130.5
 30
0.0
 11
-178.0
 21
82.5
 31
0.0
  0
LINE
  5
77
330
1F
100
AcDbEntity
  8
0
  6
CONTINUOUS
 62
     7
100
AcDbLine
 10
-220.0
 20
114.5
 30
0.0
 11
-136.0
 21
114.5
 31
0.0
  0
LINE
  5
78
330
1F
100
AcDbEntity
  8
0
  6
CONTINUOUS
 62
     7
100
AcDbLine
 10
-220.0
 20
90.5
 30
0.0
 11
-136.0
 21
90.5
 31
0.0
  0
LINE
  5
79
330
1F
100
AcDbEntity
  8
0
  6
CONTINUOUS
 62
     7
100
AcDbLine
 10
-220.0
 20
98.5
 30
0.0
 11
-136.0
 21
98.5
 31
0.0
  0
LINE
  5
7A
330
1F
100
AcDbEntity
  8
0
  6
CONTINUOUS
 62
     7
100
AcDbLine
 10
-220.0
 20
106.5
 30
0.0
 11
-136.0
 21
106.5
 31
0.0
  0
LINE
  5
7B
330
1F
100
AcDbEntity
  8
0
  6
CONTINUOUS
 62
     7
100
AcDbLine
 10
-164.0
 20
130.5
 30
0.0
 11
-164.0
 21
82.5
 31
0.0
  0
LINE
  5
7C
330
1F
100
AcDbEntity
  8
0
  6
CONTINUOUS
 62
     7
100
AcDbLine
 10
-220.0
 20
122.5
 30
0.0
 11
-136.0
 21
122.5
 31
0.0
  0
LINE
  5
7D
330
1F
100
AcDbEntity
  8
0
  6
CONTINUOUS
 62
     7
100
AcDbLine
 10
-220.0
 20
130.5
 30
0.0
 11
-136.0
 21
130.5
 31
0.0
  0
LINE
  5
7E
330
1F
100
AcDbEntity
  8
0
  6
CONTINUOUS
 62
     7
100
AcDbLine
 10
-150.0
 20
130.5
 30
0.0
 11
-150.0
 21
82.5
 31
0.0
  0
LINE
  5
7F
330
1F
100
AcDbEntity
  8
0
  6
CONTINUOUS
 62
     7
100
AcDbLine
 10
-136.0
 20
130.5
 30
0.0
 11
-136.0
 21
82.5
 31
0.0
  0
LINE
  5
80
330
1F
100
AcDbEntity
  8
0
  6
CONTINUOUS
 62
     7
100
AcDbLine
 10
-444.0
 20
216.0
 30
0.0
 11
-439.0
 21
216.0
 31
0.0
  0
LINE
  5
81
330
1F
100
AcDbEntity
  8
0
  6
CENTER
 62
     7
100
AcDbLine
 10
-42.5
 20
286.0
 30
0.0
 11
-221.5
 21
286.0
 31
0.0
  0
LINE
  5
82
330
1F
100
AcDbEntity
  8
0
  6
CONTINUOUS
 62
     7
100
AcDbLine
 10
-439.0
 20
356.0
 30
0.0
 11
-439.0
 21
238.5999984741211
 31
0.0
  0
LINE
  5
83
330
1F
100
AcDbEntity
  8
0
  6
CONTINUOUS
 62
     7
100
AcDbLine
 10
-443.9999986010785
 20
203.500005753053
 30
0.0
 11
-441.9999963593771
 21
201.5000036799391
 31
0.0
  0
LINE
  5
84
330
1F
100
AcDbEntity
  8
0
  6
CONTINUOUS
 62
     7
100
AcDbLine
 10
-442.0
 20
201.5
 30
0.0
 11
-365.0
 21
201.5
 31
0.0
  0
LINE
  5
85
330
1F
100
AcDbEntity
  8
0
  6
CONTINUOUS
 62
     7
100
AcDbLine
 10
-364.9999942211342
 20
201.50000153045
 30
0.0
 11
-362.9999921480204
 21
203.5000037721514
 31
0.0
  0
LINE
  5
86
330
1F
100
AcDbEntity
  8
0
  6
CONTINUOUS
 62
     7
100
AcDbLine
 10
-444.0
 20
356.0
 30
0.0
 11
-439.0
 21
356.0
 31
0.0
  0
LINE
  5
87
330
1F
100
AcDbEntity
  8
0
  6
CONTINUOUS
 62
     7
100
AcDbLine
 10
-442.0000034821949
 20
370.5000133473883
 30
0.0
 11
-444.0000055553087
 21
368.500011105687
 31
0.0
  0
LINE
  5
88
330
1F
100
AcDbEntity
  8
0
  6
CONTINUOUS
 62
     7
100
AcDbLine
 10
-374.0
 20
242.3499984741211
 30
0.0
 11
-363.0
 21
242.3499984741211
 31
0.0
  0
LINE
  5
89
330
1F
100
AcDbEntity
  8
0
  6
CONTINUOUS
 62
     7
100
AcDbLine
 10
-374.0
 20
224.8499984741211
 30
0.0
 11
-363.0
 21
224.8499984741211
 31
0.0
  0
LINE
  5
8A
330
1F
100
AcDbEntity
  8
0
  6
CONTINUOUS
 62
     7
100
AcDbLine
 10
-374.0
 20
242.3499984741211
 30
0.0
 11
-374.0
 21
224.8499984741211
 31
0.0
  0
LINE
  5
8B
330
1F
100
AcDbEntity
  8
0
  6
CONTINUOUS
 62
     7
100
AcDbLine
 10
-393.7913208007812
 20
239.5999984741211
 30
0.0
 11
-374.0
 21
239.5999984741211
 31
0.0
  0
LINE
  5
8C
330
1F
100
AcDbEntity
  8
0
  6
CONTINUOUS
 62
     7
100
AcDbLine
 10
-368.0
 20
251.0
 30
0.0
 11
-363.0
 21
251.0
 31
0.0
  0
LINE
  5
8D
330
1F
100
AcDbEntity
  8
0
  6
CONTINUOUS
 62
     7
100
AcDbLine
 10
-454.0
 20
237.8499984741211
 30
0.0
 11
-428.1708626735247
 21
237.8499984741211
 31
0.0
  0
LINE
  5
8E
330
1F
100
AcDbEntity
  8
0
  6
CONTINUOUS
 62
     7
100
AcDbLine
 10
-427.0
 20
240.5
 30
0.0
 11
-416.0
 21
240.5
 31
0.0
  0
LINE
  5
8F
330
1F
100
AcDbEntity
  8
0
  6
CONTINUOUS
 62
     7
100
AcDbLine
 10
-368.0
 20
261.5
 30
0.0
 11
-368.0
 21
258.8500003814697
 31
0.0
  0
LINE
  5
90
330
1F
100
AcDbEntity
  8
0
  6
CONTINUOUS
 62
     7
100
AcDbLine
 10
-427.0
 20
256.0
 30
0.0
 11
-427.0
 21
240.5
 31
0.0
  0
LINE
  5
91
330
1F
100
AcDbEntity
  8
0
  6
CONTINUOUS
 62
     7
100
AcDbLine
 10
-116.0
 20
370.1360321044922
 30
0.0
 11
-116.0
 21
314.5
 31
0.0
  0
LINE
  5
92
330
1F
100
AcDbEntity
  8
0
  6
CONTINUOUS
 62
     7
100
AcDbLine
 10
-148.0
 20
370.1360321044922
 30
0.0
 11
-148.0
 21
314.5
 31
0.0
  0
LINE
  5
93
330
1F
100
AcDbEntity
  8
0
  6
CENTER
 62
     7
100
AcDbLine
 10
-209.5092732909187
 20
241.2499993976125
 30
0.0
 11
-54.49072670908134
 21
330.7500006023875
 31
0.0
  0
LINE
  5
94
330
1F
100
AcDbEntity
  8
0
  6
CENTER
 62
     7
100
AcDbLine
 10
-54.49072670908131
 20
241.2499993976125
 30
0.0
 11
-209.5092732909187
 21
330.7500006023876
 31
0.0
  0
LINE
  5
95
330
1F
100
AcDbEntity
  8
0
  6
CONTINUOUS
 62
     7
100
AcDbLine
 10
-416.0
 20
257.25
 30
0.0
 11
-416.0
 21
249.3499984741211
 31
0.0
  0
LINE
  5
96
330
1F
100
AcDbEntity
  8
0
  6
CONTINUOUS
 62
     7
100
AcDbLine
 10
-368.0
 20
314.5
 30
0.0
 11
-368.0
 21
310.5
 31
0.0
  0
LINE
  5
97
330
1F
100
AcDbEntity
  8
0
  6
CONTINUOUS
 62
     7
100
AcDbLine
 10
-368.0
 20
314.5
 30
0.0
 11
-367.0
 21
314.5
 31
0.0
  0
LINE
  5
98
330
1F
100
AcDbEntity
  8
0
  6
CONTINUOUS
 62
     7
100
AcDbLine
 10
-405.0
 20
261.5
 30
0.0
 11
-368.0
 21
261.5
 31
0.0
  0
LINE
  5
99
330
1F
100
AcDbEntity
  8
0
  6
CONTINUOUS
 62
     7
100
AcDbLine
 10
-427.0
 20
316.0
 30
0.0
 11
-427.0
 21
331.5
 31
0.0
  0
LINE
  5
9A
330
1F
100
AcDbEntity
  8
0
  6
CONTINUOUS
 62
     7
100
AcDbLine
 10
-401.0
 20
310.5
 30
0.0
 11
-401.0
 21
261.5
 31
0.0
  0
LINE
  5
9B
330
1F
100
AcDbEntity
  8
0
  6
CONTINUOUS
 62
     7
100
AcDbLine
 10
-417.5
 20
318.75
 30
0.0
 11
-417.5
 21
331.5
 31
0.0
  0
LINE
  5
9C
330
1F
100
AcDbEntity
  8
0
  6
CONTINUOUS
 62
     7
100
AcDbLine
 10
-368.0
 20
255.1499996185303
 30
0.0
 11
-368.0
 21
251.0
 31
0.0
  0
LINE
  5
9D
330
1F
100
AcDbEntity
  8
0
  6
CONTINUOUS
 62
     7
100
AcDbLine
 10
-400.999996062237
 20
309.7500027423412
 30
0.0
 11
-399.7009532300016
 21
309.0
 31
0.0
  0
LINE
  5
9E
330
1F
100
AcDbEntity
  8
0
  6
CONTINUOUS
 62
     7
100
AcDbLine
 10
-405.0
 20
310.5
 30
0.0
 11
-368.0
 21
310.5
 31
0.0
  0
LINE
  5
9F
330
1F
100
AcDbEntity
  8
0
  6
CONTINUOUS
 62
     7
100
AcDbLine
 10
-454.0
 20
229.3499984741211
 30
0.0
 11
-422.0
 21
229.3499984741211
 31
0.0
  0
LINE
  5
A0
330
1F
100
AcDbEntity
  8
0
  6
CONTINUOUS
 62
     7
100
AcDbLine
 10
-421.0
 20
253.25
 30
0.0
 11
-416.0
 21
253.25
 31
0.0
  0
LINE
  5
A1
330
1F
100
AcDbEntity
  8
0
  6
CONTINUOUS
 62
     7
100
AcDbLine
 10
-399.7009532300015
 20
299.0
 30
0.0
 11
-399.7009532300015
 21
309.0
 31
0.0
  0
LINE
  5
A2
330
1F
100
AcDbEntity
  8
0
  6
CONTINUOUS
 62
     7
100
AcDbLine
 10
-366.9999915443062
 20
314.4999976964563
 30
0.0
 11
-362.9999891563288
 21
312.1905951995487
 31
0.0
  0
LINE
  5
A3
330
1F
100
AcDbEntity
  8
0
  6
CONTINUOUS
 62
     7
100
AcDbLine
 10
-393.9974365234375
 20
238.5999984741211
 30
0.0
 11
-374.0
 21
238.5999984741211
 31
0.0
  0
LINE
  5
A4
330
1F
100
AcDbEntity
  8
0
  6
CONTINUOUS
 62
     7
100
AcDbLine
 10
-439.0
 20
335.0
 30
0.0
 11
-418.0
 21
335.0
 31
0.0
  0
LINE
  5
A5
330
1F
100
AcDbEntity
  8
0
  6
CONTINUOUS
 62
     7
100
AcDbLine
 10
-444.0
 20
368.5
 30
0.0
 11
-444.0
 21
238.5999984741211
 31
0.0
  0
LINE
  5
A6
330
1F
100
AcDbEntity
  8
0
  6
CONTINUOUS
 62
     7
100
AcDbLine
 10
-427.0
 20
256.0
 30
0.0
 11
-421.0
 21
256.0
 31
0.0
  0
LINE
  5
A7
330
1F
100
AcDbEntity
  8
0
  6
CONTINUOUS
 62
     7
100
AcDbLine
 10
-413.0
 20
258.3999996185303
 30
0.0
 11
-409.0
 21
258.3999996185303
 31
0.0
  0
LINE
  5
A8
330
1F
100
AcDbEntity
  8
0
  6
CONTINUOUS
 62
     7
100
AcDbLine
 10
-408.4999929177359
 20
257.2500012863055
 30
0.0
 11
-404.9999856852465
 21
258.1878254056145
 31
0.0
  0
LINE
  5
A9
330
1F
100
AcDbEntity
  8
0
  6
CONTINUOUS
 62
     7
100
AcDbLine
 10
-416.0
 20
257.25
 30
0.0
 11
-408.5
 21
257.25
 31
0.0
  0
LINE
  5
AA
330
1F
100
AcDbEntity
  8
0
  6
CONTINUOUS
 62
     7
100
AcDbLine
 10
-439.0
 20
216.0
 30
0.0
 11
-439.0
 21
228.5999984741211
 31
0.0
  0
LINE
  5
AB
330
1F
100
AcDbEntity
  8
0
  6
CONTINUOUS
 62
     7
100
AcDbLine
 10
-439.0
 20
227.5999984741211
 30
0.0
 11
-418.059814453125
 21
227.5999984741211
 31
0.0
  0
LINE
  5
AC
330
1F
100
AcDbEntity
  8
0
  6
CONTINUOUS
 62
     7
100
AcDbLine
 10
-428.0000063981187
 20
257.0000010863697
 30
0.0
 11
-427.0000053194149
 21
256.000000007666
 31
0.0
  0
LINE
  5
AD
330
1F
100
AcDbEntity
  8
0
  6
CONTINUOUS
 62
     7
100
AcDbLine
 10
-421.0
 20
253.25
 30
0.0
 11
-421.0
 21
256.0
 31
0.0
  0
LINE
  5
AE
330
1F
100
AcDbEntity
  8
0
  6
CONTINUOUS
 62
     7
100
AcDbLine
 10
-409.0
 20
313.6000003814697
 30
0.0
 11
-409.0
 21
258.3999996185303
 31
0.0
  0
LINE
  5
AF
330
1F
100
AcDbEntity
  8
0
  6
CONTINUOUS
 62
     7
100
AcDbLine
 10
-405.0
 20
313.8121776580811
 30
0.0
 11
-405.0
 21
258.1878223419189
 31
0.0
  0
LINE
  5
B0
330
1F
100
AcDbEntity
  8
0
  6
CONTINUOUS
 62
     7
100
AcDbLine
 10
-413.0
 20
313.6000003814697
 30
0.0
 11
-413.0
 21
258.3999996185303
 31
0.0
  0
LINE
  5
B1
330
1F
100
AcDbEntity
  8
0
  6
CONTINUOUS
 62
     7
100
AcDbLine
 10
-428.0
 20
315.0
 30
0.0
 11
-428.0
 21
257.0
 31
0.0
  0
LINE
  5
B2
330
1F
100
AcDbEntity
  8
0
  6
CONTINUOUS
 62
     7
100
AcDbLine
 10
-416.0
 20
244.6500015258789
 30
0.0
 11
-416.0
 21
240.5
 31
0.0
  0
LINE
  5
B3
330
1F
100
AcDbEntity
  8
0
  6
CONTINUOUS
 62
     7
100
AcDbLine
 10
-421.0
 20
318.75
 30
0.0
 11
-416.0
 21
318.75
 31
0.0
  0
LINE
  5
B4
330
1F
100
AcDbEntity
  8
0
  6
CONTINUOUS
 62
     7
100
AcDbLine
 10
-427.0
 20
316.0
 30
0.0
 11
-421.0
 21
316.0
 31
0.0
  0
LINE
  5
B5
330
1F
100
AcDbEntity
  8
0
  6
CONTINUOUS
 62
     7
100
AcDbLine
 10
-413.0
 20
313.6000003814697
 30
0.0
 11
-409.0
 21
313.6000003814697
 31
0.0
  0
LINE
  5
B6
330
1F
100
AcDbEntity
  8
0
  6
CONTINUOUS
 62
     7
100
AcDbLine
 10
-408.4999929177359
 20
314.7499987136947
 30
0.0
 11
-404.9999856852465
 21
313.8121745943856
 31
0.0
  0
LINE
  5
B7
330
1F
100
AcDbEntity
  8
0
  6
CONTINUOUS
 62
     7
100
AcDbLine
 10
-416.0
 20
314.75
 30
0.0
 11
-408.5
 21
314.75
 31
0.0
  0
LINE
  5
B8
330
1F
100
AcDbEntity
  8
0
  6
CONTINUOUS
 62
     7
100
AcDbLine
 10
-410.0
 20
314.75
 30
0.0
 11
-410.0
 21
313.6000003814697
 31
0.0
  0
LINE
  5
B9
330
1F
100
AcDbEntity
  8
0
  6
CONTINUOUS
 62
     7
100
AcDbLine
 10
-428.0000063981187
 20
314.9999989136303
 30
0.0
 11
-427.0000053194149
 21
315.9999999923342
 31
0.0
  0
LINE
  5
BA
330
1F
100
AcDbEntity
  8
0
  6
CONTINUOUS
 62
     7
100
AcDbLine
 10
-416.0
 20
318.75
 30
0.0
 11
-416.0
 21
314.75
 31
0.0
  0
LINE
  5
BB
330
1F
100
AcDbEntity
  8
0
  6
CONTINUOUS
 62
     7
100
AcDbLine
 10
-421.0
 20
318.75
 30
0.0
 11
-421.0
 21
316.0
 31
0.0
  0
LINE
  5
BC
330
1F
100
AcDbEntity
  8
0
  6
CONTINUOUS
 62
     7
100
AcDbLine
 10
-420.0
 20
240.5
 30
0.0
 11
-420.0
 21
239.0
 31
0.0
  0
LINE
  5
BD
330
1F
100
AcDbEntity
  8
0
  6
CONTINUOUS
 62
     7
100
AcDbLine
 10
-454.0
 20
228.5999984741211
 30
0.0
 11
-418.6170043945312
 21
228.5999984741211
 31
0.0
  0
LINE
  5
BE
330
1F
100
AcDbEntity
  8
0
  6
CONTINUOUS
 62
     7
100
AcDbLine
 10
-454.0
 20
238.5999984741211
 30
0.0
 11
-428.5830993652344
 21
238.5999984741211
 31
0.0
  0
LINE
  5
BF
330
1F
100
AcDbEntity
  8
0
  6
CONTINUOUS
 62
     7
100
AcDbLine
 10
-368.0
 20
318.0
 30
0.0
 11
-368.0
 21
314.5
 31
0.0
  0
LINE
  5
C0
330
1F
100
AcDbEntity
  8
0
  6
CONTINUOUS
 62
     7
100
AcDbLine
 10
-363.0
 20
318.0
 30
0.0
 11
-363.0
 21
203.5
 31
0.0
  0
LINE
  5
C1
330
1F
100
AcDbEntity
  8
0
  6
CONTINUOUS
 62
     7
100
AcDbLine
 10
-119.0
 20
318.0
 30
0.0
 11
-116.0
 21
318.0
 31
0.0
  0
LINE
  5
C2
330
1F
100
AcDbEntity
  8
0
  6
CONTINUOUS
 62
     7
100
AcDbLine
 10
-148.0
 20
318.0
 30
0.0
 11
-145.0
 21
318.0
 31
0.0
  0
LINE
  5
C3
330
1F
100
AcDbEntity
  8
0
  6
CONTINUOUS
 62
     7
100
AcDbLine
 10
-364.0
 20
241.5999984741211
 30
0.0
 11
-364.0
 21
225.5999984741211
 31
0.0
  0
LINE
  5
C4
330
1F
100
AcDbEntity
  8
0
  6
CONTINUOUS
 62
     7
100
AcDbLine
 10
-374.0
 20
225.5999984741211
 30
0.0
 11
-364.0
 21
225.5999984741211
 31
0.0
  0
LINE
  5
C5
330
1F
100
AcDbEntity
  8
0
  6
CONTINUOUS
 62
     7
100
AcDbLine
 10
-374.0
 20
241.5999984741211
 30
0.0
 11
-364.0
 21
241.5999984741211
 31
0.0
  0
LINE
  5
C6
330
1F
100
AcDbEntity
  8
0
  6
CONTINUOUS
 62
     7
100
AcDbLine
 10
-286.995245429737
 20
225.3809653109155
 30
0.0
 11
-274.8708898311576
 21
232.3809654051437
 31
0.0
  0
LINE
  5
C7
330
1F
100
AcDbEntity
  8
0
  6
CONTINUOUS
 62
     7
100
AcDbLine
 10
-261.9952450932076
 20
182.0796953159888
 30
0.0
 11
-249.8708894946282
 21
189.079695410217
 31
0.0
  0
LINE
  5
C8
330
1F
100
AcDbEntity
  8
0
  6
CONTINUOUS
 62
     7
100
AcDbLine
 10
-270.3708897705823
 20
224.5867368060569
 30
0.0
 11
-255.6484579723072
 21
233.0867369204768
 31
0.0
  0
LINE
  5
C9
330
1F
100
AcDbEntity
  8
0
  6
CONTINUOUS
 62
     7
100
AcDbLine
 10
-254.3708895552035
 20
196.8739240093038
 30
0.0
 11
-239.6484577569284
 21
205.3739241237238
 31
0.0
  0
LINE
  5
CA
330
1F
100
AcDbEntity
  8
0
  6
CONTINUOUS
 62
     7
100
AcDbLine
 10
-274.8708907848319
 20
232.3809670569561
 30
0.0
 11
-270.3708897705823
 21
224.5867368060569
 31
0.0
  0
LINE
  5
CB
330
1F
100
AcDbEntity
  8
0
  6
CONTINUOUS
 62
     7
100
AcDbLine
 10
-271.3195830588044
 20
258.2299213218075
 30
0.0
 11
-256.5144843258801
 21
232.5867385655587
 31
0.0
  0
LINE
  5
CC
330
1F
100
AcDbEntity
  8
0
  6
CENTER
 62
     7
100
AcDbLine
 10
-277.619218873884
 20
201.926703275013
 30
0.0
 11
-239.854229265531
 21
223.7303305826756
 31
0.0
  0
LINE
  5
CD
330
1F
100
AcDbEntity
  8
0
  6
CONTINUOUS
 62
     7
100
AcDbLine
 10
-256.0138388008378
 20
203.7195954720801
 30
0.0
 11
-265.2638389253537
 21
219.741065370203
 31
0.0
  0
LINE
  5
CE
330
1F
100
AcDbEntity
  8
0
  6
CONTINUOUS
 62
     7
100
AcDbLine
 10
-250.6484536964162
 20
224.4264756581741
 30
0.0
 11
-250.2824278949364
 21
225.7925025347283
 31
0.0
  0
LINE
  5
CF
330
1F
100
AcDbEntity
  8
0
  6
CONTINUOUS
 62
     7
100
AcDbLine
 10
-256.7106357042911
 20
220.9264828743774
 30
0.0
 11
-247.1843563054072
 21
226.4264829484138
 31
0.0
  0
LINE
  5
D0
330
1F
100
AcDbEntity
  8
0
  6
CONTINUOUS
 62
     7
100
AcDbLine
 10
-255.6484610464213
 20
233.0867316789149
 30
0.0
 11
-254.2824341698671
 21
232.7207058774351
 31
0.0
  0
LINE
  5
D1
330
1F
100
AcDbEntity
  8
0
  6
CONTINUOUS
 62
     7
100
AcDbLine
 10
-256.7106357042911
 20
220.9264828743774
 30
0.0
 11
-258.3356357261655
 21
223.7410654240476
 31
0.0
  0
LINE
  5
D2
330
1F
100
AcDbEntity
  8
0
  6
CONTINUOUS
 62
     7
100
AcDbLine
 10
-250.2824329886706
 20
225.7925091540268
 30
0.0
 11
-254.2824330425152
 21
232.720712353215
 31
0.0
  0
LINE
  5
D3
330
1F
100
AcDbEntity
  8
0
  6
CONTINUOUS
 62
     7
100
AcDbLine
 10
-244.6484747490534
 20
214.0341748579295
 30
0.0
 11
-243.2824478724991
 21
213.6681490564498
 31
0.0
  0
LINE
  5
D4
330
1F
100
AcDbEntity
  8
0
  6
CONTINUOUS
 62
     7
100
AcDbLine
 10
-239.6484654244157
 20
205.3739262066179
 30
0.0
 11
-239.2824415975685
 21
206.7399457137429
 31
0.0
  0
LINE
  5
D5
330
1F
100
AcDbEntity
  8
0
  6
CONTINUOUS
 62
     7
100
AcDbLine
 10
-250.710635623524
 20
210.5341780755951
 30
0.0
 11
-241.1843562246402
 21
216.0341781496315
 31
0.0
  0
LINE
  5
D6
330
1F
100
AcDbEntity
  8
0
  6
CONTINUOUS
 62
     7
100
AcDbLine
 10
-250.710635623524
 20
210.534178075595
 30
0.0
 11
-249.0856356016496
 21
207.7195955259248
 31
0.0
  0
LINE
  5
D7
330
1F
100
AcDbEntity
  8
0
  6
CONTINUOUS
 62
     7
100
AcDbLine
 10
-243.2824328944423
 20
213.6681535554474
 30
0.0
 11
-239.2824328405976
 21
206.7399503562591
 31
0.0
  0
LINE
  5
D8
330
1F
100
AcDbEntity
  8
0
  6
CONTINUOUS
 62
     7
100
AcDbLine
 10
-240.5144836336641
 20
204.8739249428995
 30
0.0
 11
-234.6476532057212
 21
194.7122767446949
 31
0.0
  0
LINE
  5
D9
330
1F
100
AcDbEntity
  8
0
  6
CONTINUOUS
 62
     7
100
AcDbLine
 10
-254.3708895552035
 20
196.8739240093039
 30
0.0
 11
-249.8708904483025
 21
189.0796970620295
 31
0.0
  0
LINE
  5
DA
330
1F
100
AcDbEntity
  8
0
  6
CONTINUOUS
 62
     7
100
AcDbLine
 10
-253.7907626061902
 20
205.8691145421957
 30
0.0
 11
-249.4606356066975
 21
208.3691145758486
 31
0.0
  0
LINE
  5
DB
330
1F
100
AcDbEntity
  8
0
  6
CONTINUOUS
 62
     7
100
AcDbLine
 10
-247.1843567822443
 20
226.4264837743201
 30
0.0
 11
-241.1843567014773
 21
216.0341789755377
 31
0.0
  0
LINE
  5
DC
330
1F
100
AcDbEntity
  8
0
  6
CONTINUOUS
 62
     7
100
AcDbLine
 10
-263.2058266803672
 20
217.1764836498041
 30
0.0
 11
-257.2058265996001
 21
206.7841788510217
 31
0.0
  0
LINE
  5
DD
330
1F
100
AcDbEntity
  8
0
  6
DASHED
 62
     7
100
AcDbLine
 10
-262.7058261967994
 20
216.3104574239995
 30
0.0
 11
-246.6843562986766
 21
225.5604575485153
 31
0.0
  0
LINE
  5
DE
330
1F
100
AcDbEntity
  8
0
  6
CONTINUOUS
 62
     7
100
AcDbLine
 10
-262.2907627206102
 20
220.5915463404708
 30
0.0
 11
-257.9606357211176
 21
223.0915463741237
 31
0.0
  0
LINE
  5
DF
330
1F
100
AcDbEntity
  8
0
  6
DASHED
 62
     7
100
AcDbLine
 10
-257.7058261294936
 20
207.6502034250141
 30
0.0
 11
-241.6843562313708
 21
216.90020354953
 31
0.0
  0
LINE
  5
E0
330
1F
100
AcDbEntity
  8
0
  6
CONTINUOUS
 62
     7
100
AcDbLine
 10
-262.2907652762959
 20
220.5915460434694
 30
0.0
 11
-263.2058296816863
 21
217.1764788257419
 31
0.0
  0
LINE
  5
E1
330
1F
100
AcDbEntity
  8
0
  6
CONTINUOUS
 62
     7
100
AcDbLine
 10
-257.2058337216711
 20
206.7841816183823
 30
0.0
 11
-253.7907665039437
 21
205.8691172129919
 31
0.0
  0
LINE
  5
E2
330
1F
100
AcDbEntity
  8
0
  6
DASHED
 62
     7
100
AcDbLine
 10
-258.0808261345415
 20
208.2997224749381
 30
0.0
 11
-242.0593562364187
 21
217.5497225994539
 31
0.0
  0
LINE
  5
E3
330
1F
100
AcDbEntity
  8
0
  6
DASHED
 62
     7
100
AcDbLine
 10
-262.3308261917516
 20
215.6609383740756
 30
0.0
 11
-246.3093562936287
 21
224.9109384985914
 31
0.0
  0
LINE
  5
E4
330
1F
100
AcDbEntity
  8
0
  6
CONTINUOUS
 62
     7
100
AcDbLine
 10
-255.2372875137627
 20
232.9765585464789
 30
0.0
 11
-250.5382813698812
 21
224.8376413062769
 31
0.0
  0
LINE
  5
E5
330
1F
100
AcDbEntity
  8
0
  6
CONTINUOUS
 62
     7
100
AcDbLine
 10
-239.5382907585515
 20
205.7850990266327
 30
0.0
 11
-244.2372969024331
 21
213.9240162668348
 31
0.0
  0
LINE
  5
E6
330
1F
100
AcDbEntity
  8
0
  6
CONTINUOUS
 62
     7
100
AcDbLine
 10
-212.8639343496086
 20
257.7883935945429
 30
0.0
 11
-164.6817240047976
 21
285.6064062065548
 31
0.0
  0
LINE
  5
E7
330
1F
100
AcDbEntity
  8
0
  6
CONTINUOUS
 62
     7
100
AcDbLine
 10
-196.8639341342297
 20
230.0755807977898
 30
0.0
 11
-148.6817237894188
 21
257.8935934098017
 31
0.0
  0
LINE
  5
E8
330
1F
100
AcDbEntity
  8
0
  6
CONTINUOUS
 62
     7
100
AcDbLine
 10
-208.1791463318095
 20
248.9461518306566
 30
0.0
 11
-162.7128128371366
 21
275.1961521840124
 31
0.0
  0
LINE
  5
E9
330
1F
100
AcDbEntity
  8
0
  6
CONTINUOUS
 62
     7
100
AcDbLine
 10
-129.5000002384186
 20
305.25
 30
0.0
 11
-134.5000002384186
 21
305.25
 31
0.0
  0
LINE
  5
EA
330
1F
100
AcDbEntity
  8
0
  6
CONTINUOUS
 62
     7
100
AcDbLine
 10
-119.0000009536743
 20
371.25
 30
0.0
 11
-145.0000009536743
 21
371.25
 31
0.0
  0
LINE
  5
EB
330
1F
100
AcDbEntity
  8
0
  6
CONTINUOUS
 62
     7
100
AcDbLine
 10
-145.0
 20
371.25
 30
0.0
 11
-145.0
 21
311.3121776580811
 31
0.0
  0
LINE
  5
EC
330
1F
100
AcDbEntity
  8
0
  6
CONTINUOUS
 62
     7
100
AcDbLine
 10
-119.0
 20
371.25
 30
0.0
 11
-119.0
 21
311.3121776580811
 31
0.0
  0
LINE
  5
ED
330
1F
100
AcDbEntity
  8
0
  6
CONTINUOUS
 62
     7
100
AcDbLine
 10
-129.4999998545907
 20
305.250000205588
 30
0.0
 11
-119.0000001933996
 21
311.3121779452731
 31
0.0
  0
LINE
  5
EE
330
1F
100
AcDbEntity
  8
0
  6
CONTINUOUS
 62
     7
100
AcDbLine
 10
-144.9999998066004
 20
311.3121779452731
 30
0.0
 11
-134.5000001454092
 21
305.250000205588
 31
0.0
  0
LINE
  5
EF
330
1F
100
AcDbEntity
  8
0
  6
CONTINUOUS
 62
     7
100
AcDbLine
 10
-152.3162498474121
 20
314.5
 30
0.0
 11
-145.0
 21
314.5
 31
0.0
  0
LINE
  5
F0
330
1F
100
AcDbEntity
  8
0
  6
CONTINUOUS
 62
     7
100
AcDbLine
 10
-119.0
 20
314.5
 30
0.0
 11
-111.6837501525879
 21
314.5
 31
0.0
  0
LINE
  5
F1
330
1F
100
AcDbEntity
  8
0
  6
CONTINUOUS
 62
     7
100
AcDbLine
 10
-155.2175025939941
 20
312.190601348877
 30
0.0
 11
-145.0
 21
312.190601348877
 31
0.0
  0
LINE
  5
F2
330
1F
100
AcDbEntity
  8
0
  6
CONTINUOUS
 62
     7
100
AcDbLine
 10
-119.0
 20
312.190601348877
 30
0.0
 11
-108.7824974060059
 21
312.190601348877
 31
0.0
  0
LINE
  5
F3
330
1F
100
AcDbEntity
  8
0
  6
CONTINUOUS
 62
     7
100
AcDbLine
 10
-168.9376495535395
 20
259.4778858088506
 30
0.0
 11
-173.4376493756962
 21
267.2721139949843
 31
0.0
  0
LINE
  5
F4
330
1F
100
AcDbEntity
  8
0
  6
DASHED
 62
     7
100
AcDbLine
 10
-198.1145641613829
 20
238.0137843799085
 30
0.0
 11
-199.3645639397908
 21
240.1788474667017
 31
0.0
  0
LINE
  5
F5
330
1F
100
AcDbEntity
  8
0
  6
DASHED
 62
     7
100
AcDbLine
 10
-198.1145636845457
 20
238.0137835540023
 30
0.0
 11
-170.4017508877927
 21
254.013783769381
 31
0.0
  0
LINE
  5
F6
330
1F
100
AcDbEntity
  8
0
  6
DASHED
 62
     7
100
AcDbLine
 10
-206.6145637989657
 20
252.7362153522773
 30
0.0
 11
-178.9017510022127
 21
268.7362155676561
 31
0.0
  0
LINE
  5
F7
330
1F
100
AcDbEntity
  8
0
  6
DASHED
 62
     7
100
AcDbLine
 10
-178.9017506411765
 20
268.7362145456517
 30
0.0
 11
-175.4866871608472
 21
267.8211509309597
 31
0.0
  0
LINE
  5
F8
330
1F
100
AcDbEntity
  8
0
  6
CONTINUOUS
 62
     7
100
AcDbLine
 10
-168.9376489918525
 20
259.4778866691383
 30
0.0
 11
-169.4866867657411
 21
257.4288500548266
 31
0.0
  0
LINE
  5
F9
330
1F
100
AcDbEntity
  8
0
  6
CONTINUOUS
 62
     7
100
AcDbLine
 10
-199.3645639397908
 20
240.1788474667017
 30
0.0
 11
-205.3645640205579
 21
250.5711522654841
 31
0.0
  0
LINE
  5
FA
330
1F
100
AcDbEntity
  8
0
  6
DASHED
 62
     7
100
AcDbLine
 10
-205.3645640205579
 20
250.5711522654841
 30
0.0
 11
-206.6145642758029
 21
252.7362161781835
 31
0.0
  0
LINE
  5
FB
330
1F
100
AcDbEntity
  8
0
  6
DASHED
 62
     7
100
AcDbLine
 10
-169.4866867657411
 20
257.4288500548266
 30
0.0
 11
-170.4017513677494
 21
254.0137828897827
 31
0.0
  0
LINE
  5
FC
330
1F
100
AcDbEntity
  8
0
  6
CONTINUOUS
 62
     7
100
AcDbLine
 10
-175.4866871608472
 20
267.8211509309597
 30
0.0
 11
-173.4376468618209
 21
267.2721121697547
 31
0.0
  0
LINE
  5
FD
330
1F
100
AcDbEntity
  8
0
  6
CENTER
 62
     7
100
AcDbLine
 10
-190.4363599984244
 20
240.714744682093
 30
0.0
 11
-200.4363601330361
 21
258.0352526800636
 31
0.0
  0
LINE
  5
FE
330
1F
100
AcDbEntity
  8
0
  6
CENTER
 62
     7
100
AcDbLine
 10
-173.1158529541281
 20
250.7147464685171
 30
0.0
 11
-183.1158530887399
 21
268.0352544664878
 31
0.0
  0
LINE
  5
FF
330
1F
100
AcDbEntity
  8
0
  6
CONTINUOUS
 62
     7
100
AcDbLine
 10
-143.0729745534797
 20
252.7977521806745
 30
0.0
 11
-166.2904774600087
 21
293.0116461178924
 31
0.0
  0
LINE
  5
100
330
1F
100
AcDbEntity
  8
0
  6
CONTINUOUS
 62
     7
100
AcDbLine
 10
-146.5235988366618
 20
254.1556114096348
 30
0.0
 11
-166.8398489575545
 21
289.3443882067219
 31
0.0
  0
LINE
  5
101
330
1F
100
AcDbEntity
  8
0
  6
CENTER
 62
     7
100
AcDbLine
 10
-142.0033565663655
 20
248.6669653610025
 30
0.0
 11
-149.120880362344
 21
222.1040051529669
 31
0.0
  0
LINE
  5
102
330
1F
100
AcDbEntity
  8
0
  6
CONTINUOUS
 62
     7
100
AcDbLine
 10
-149.0
 20
356.6999969482422
 30
0.0
 11
-154.0
 21
356.6999969482422
 31
0.0
  0
LINE
  5
103
330
1F
100
AcDbEntity
  8
0
  6
CONTINUOUS
 62
     7
100
AcDbLine
 10
-149.0
 20
355.3000030517578
 30
0.0
 11
-154.0
 21
355.3000030517578
 31
0.0
  0
LINE
  5
104
330
1F
100
AcDbEntity
  8
0
  6
CONTINUOUS
 62
     7
100
AcDbLine
 10
-149.0
 20
357.4000015258789
 30
0.0
 11
-154.0
 21
357.4000015258789
 31
0.0
  0
LINE
  5
105
330
1F
100
AcDbEntity
  8
0
  6
CONTINUOUS
 62
     7
100
AcDbLine
 10
-149.0
 20
354.5999984741211
 30
0.0
 11
-154.0
 21
354.5999984741211
 31
0.0
  0
LINE
  5
106
330
1F
100
AcDbEntity
  8
0
  6
CONTINUOUS
 62
     7
100
AcDbLine
 10
-154.0
 20
356.6999969482422
 30
0.0
 11
-154.0
 21
355.3000030517578
 31
0.0
  0
LINE
  5
107
330
1F
100
AcDbEntity
  8
0
  6
CENTER
 62
     7
100
AcDbLine
 10
-148.6068534851074
 20
357.3499984741211
 30
0.0
 11
-146.8972387313843
 21
357.3499984741211
 31
0.0
  0
LINE
  5
108
330
1F
100
AcDbEntity
  8
0
  6
DASHED
 62
     7
100
AcDbLine
 10
-147.9999999721541
 20
356.8499991029289
 30
0.0
 11
-147.7113246600407
 21
357.3499994014261
 31
0.0
  0
LINE
  5
109
330
1F
100
AcDbEntity
  8
0
  6
DASHED
 62
     7
100
AcDbLine
 10
-148.0000027263321
 20
357.8500045094771
 30
0.0
 11
-147.71132550687
 21
357.3500009073551
 31
0.0
  0
LINE
  5
10A
330
1F
100
AcDbEntity
  8
0
  6
CONTINUOUS
 62
     7
100
AcDbLine
 10
-256.0138388008379
 20
203.7195954720801
 30
0.0
 11
-249.0856356016496
 21
207.7195955259248
 31
0.0
  0
LINE
  5
10B
330
1F
100
AcDbEntity
  8
0
  6
CONTINUOUS
 62
     7
100
AcDbLine
 10
-265.2638389253537
 20
219.741065370203
 30
0.0
 11
-258.3356357261654
 21
223.7410654240476
 31
0.0
  0
LINE
  5
10C
330
1F
100
AcDbEntity
  8
0
  6
CONTINUOUS
 62
     7
100
AcDbLine
 10
-117.000000674385
 20
370.4999962123181
 30
0.0
 11
-107.0000004649149
 21
366.8602936630834
 31
0.0
  0
LINE
  5
10D
330
1F
100
AcDbEntity
  8
0
  6
CONTINUOUS
 62
     7
100
AcDbLine
 10
-147.0
 20
370.5
 30
0.0
 11
-145.0
 21
370.5
 31
0.0
  0
LINE
  5
10E
330
1F
100
AcDbEntity
  8
0
  6
CONTINUOUS
 62
     7
100
AcDbLine
 10
-146.999999325615
 20
370.499996212318
 30
0.0
 11
-156.999999535085
 21
366.8602936630834
 31
0.0
  0
LINE
  5
10F
330
1F
100
AcDbEntity
  8
0
  6
CONTINUOUS
 62
     7
100
AcDbLine
 10
-145.0
 20
369.0
 30
0.0
 11
-148.0
 21
369.0
 31
0.0
  0
LINE
  5
110
330
1F
100
AcDbEntity
  8
0
  6
CONTINUOUS
 62
     7
100
AcDbLine
 10
-119.0
 20
370.5
 30
0.0
 11
-117.0
 21
370.5
 31
0.0
  0
LINE
  5
111
330
1F
100
AcDbEntity
  8
0
  6
CENTER
 62
     7
100
AcDbLine
 10
-132.0
 20
375.5
 30
0.0
 11
-132.0
 21
196.5
 31
0.0
  0
LINE
  5
112
330
1F
100
AcDbEntity
  8
0
  6
CONTINUOUS
 62
     7
100
AcDbLine
 10
-427.6247253417969
 20
237.0
 30
0.0
 11
-394.0856628417969
 21
237.0
 31
0.0
  0
LINE
  5
113
330
1F
100
AcDbEntity
  8
0
  6
CONTINUOUS
 62
     7
100
AcDbLine
 10
-119.0
 20
369.0
 30
0.0
 11
-116.0
 21
369.0
 31
0.0
  0
LINE
  5
114
330
1F
100
AcDbEntity
  8
0
  6
DASHED
 62
     7
100
AcDbLine
 10
-209.8041463536839
 20
251.7607343803269
 30
0.0
 11
-171.9155351081231
 21
273.63573467479
 31
0.0
  0
LINE
  5
115
330
1F
100
AcDbEntity
  8
0
  6
DASHED
 62
     7
100
AcDbLine
 10
-200.5541462291681
 20
235.739264482204
 30
0.0
 11
-162.6655349836073
 21
257.6142647766671
 31
0.0
  0
LINE
  5
116
330
1F
100
AcDbEntity
  8
0
  6
CENTER
 62
     7
100
AcDbLine
 10
-121.9966434336346
 20
248.6669653610025
 30
0.0
 11
-114.879119637656
 21
222.1040051529669
 31
0.0
  0
LINE
  5
117
330
1F
100
AcDbEntity
  8
0
  6
CONTINUOUS
 62
     7
100
AcDbLine
 10
-97.1601510424455
 20
289.3443882067219
 30
0.0
 11
-100.8182760153942
 21
283.0083300068592
 31
0.0
  0
LINE
  5
118
330
1F
100
AcDbEntity
  8
0
  6
CONTINUOUS
 62
     7
100
AcDbLine
 10
-113.8182761903895
 20
260.4916696094974
 30
0.0
 11
-117.4764011633382
 21
254.1556114096347
 31
0.0
  0
LINE
  5
119
330
1F
100
AcDbEntity
  8
0
  6
CONTINUOUS
 62
     7
100
AcDbLine
 10
-97.70952253999133
 20
293.0116461178924
 30
0.0
 11
-102.8182739057582
 21
284.1630293479643
 31
0.0
  0
LINE
  5
11A
330
1F
100
AcDbEntity
  8
0
  6
CONTINUOUS
 62
     7
100
AcDbLine
 10
-115.8182740807534
 20
261.6463689506025
 30
0.0
 11
-120.9270254465203
 21
252.7977521806744
 31
0.0
  0
LINE
  5
11B
330
1F
100
AcDbEntity
  8
0
  6
CONTINUOUS
 62
     7
100
AcDbLine
 10
-444.0
 20
228.5999984741211
 30
0.0
 11
-444.0
 21
203.5
 31
0.0
  0
LINE
  5
11C
330
1F
100
AcDbEntity
  8
0
  6
CONTINUOUS
 62
     7
100
AcDbLine
 10
-107.0000019073486
 20
366.8602981567383
 30
0.0
 11
-107.0000019073486
 21
366.7171020507812
 31
0.0
  0
LINE
  5
11D
330
1F
100
AcDbEntity
  8
0
  6
CONTINUOUS
 62
     7
100
AcDbLine
 10
-156.9999980926514
 20
366.8602981567383
 30
0.0
 11
-156.9999980926514
 21
366.7171020507812
 31
0.0
  0
LINE
  5
11E
330
1F
100
AcDbEntity
  8
0
  6
CENTER
 62
     7
100
AcDbLine
 10
-401.5
 20
247.0
 30
0.0
 11
-429.5
 21
247.0
 31
0.0
  0
LINE
  5
11F
330
1F
100
AcDbEntity
  8
0
  6
CONTINUOUS
 62
     7
100
AcDbLine
 10
-420.5
 20
252.6500015258789
 30
0.0
 11
-420.5
 21
241.3499984741211
 31
0.0
  0
LINE
  5
120
330
1F
100
AcDbEntity
  8
0
  6
CONTINUOUS
 62
     7
100
AcDbLine
 10
-404.5
 20
249.3499984741211
 30
0.0
 11
-418.5
 21
249.3499984741211
 31
0.0
  0
LINE
  5
121
330
1F
100
AcDbEntity
  8
0
  6
CONTINUOUS
 62
     7
100
AcDbLine
 10
-404.5
 20
244.6500015258789
 30
0.0
 11
-418.5
 21
244.6500015258789
 31
0.0
  0
LINE
  5
122
330
1F
100
AcDbEntity
  8
0
  6
CONTINUOUS
 62
     7
100
AcDbLine
 10
-404.5
 20
250.0
 30
0.0
 11
-420.5
 21
250.0
 31
0.0
  0
LINE
  5
123
330
1F
100
AcDbEntity
  8
0
  6
CONTINUOUS
 62
     7
100
AcDbLine
 10
-404.5
 20
244.0
 30
0.0
 11
-420.5
 21
244.0
 31
0.0
  0
LINE
  5
124
330
1F
100
AcDbEntity
  8
0
  6
CONTINUOUS
 62
     7
100
AcDbLine
 10
-418.5
 20
250.0
 30
0.0
 11
-418.5
 21
244.0
 31
0.0
  0
LINE
  5
125
330
1F
100
AcDbEntity
  8
0
  6
CONTINUOUS
 62
     7
100
AcDbLine
 10
-404.5
 20
250.0
 30
0.0
 11
-404.5
 21
244.0
 31
0.0
  0
LINE
  5
126
330
1F
100
AcDbEntity
  8
0
  6
CONTINUOUS
 62
     7
100
AcDbLine
 10
-426.5
 20
252.0
 30
0.0
 11
-426.5
 21
242.0
 31
0.0
  0
LINE
  5
127
330
1F
100
AcDbEntity
  8
0
  6
CONTINUOUS
 62
     7
100
AcDbLine
 10
-420.5
 20
252.0
 30
0.0
 11
-426.5
 21
252.0
 31
0.0
  0
LINE
  5
128
330
1F
100
AcDbEntity
  8
0
  6
CONTINUOUS
 62
     7
100
AcDbLine
 10
-420.5
 20
242.0
 30
0.0
 11
-426.5
 21
242.0
 31
0.0
  0
LINE
  5
129
330
1F
100
AcDbEntity
  8
0
  6
CONTINUOUS
 62
     7
100
AcDbLine
 10
-420.5
 20
241.3499984741211
 30
0.0
 11
-427.0
 21
241.3499984741211
 31
0.0
  0
LINE
  5
12A
330
1F
100
AcDbEntity
  8
0
  6
CONTINUOUS
 62
     7
100
AcDbLine
 10
-420.5
 20
252.6500015258789
 30
0.0
 11
-427.0
 21
252.6500015258789
 31
0.0
  0
LINE
  5
12B
330
1F
100
AcDbEntity
  8
0
  6
CONTINUOUS
 62
     7
100
AcDbLine
 10
-416.0
 20
250.6500015258789
 30
0.0
 11
-420.5
 21
250.6500015258789
 31
0.0
  0
LINE
  5
12C
330
1F
100
AcDbEntity
  8
0
  6
CONTINUOUS
 62
     7
100
AcDbLine
 10
-416.0
 20
243.3499984741211
 30
0.0
 11
-420.5
 21
243.3499984741211
 31
0.0
  0
LINE
  5
12D
330
1F
100
AcDbEntity
  8
0
  6
CONTINUOUS
 62
     7
100
AcDbLine
 10
-427.0
 20
331.5
 30
0.0
 11
-417.5
 21
331.5
 31
0.0
  0
LINE
  5
12E
330
1F
100
AcDbEntity
  8
0
  6
CONTINUOUS
 62
     7
100
AcDbLine
 10
-366.5
 20
262.25
 30
0.0
 11
-366.5
 21
251.75
 31
0.0
  0
LINE
  5
12F
330
1F
100
AcDbEntity
  8
0
  6
CENTER
 62
     7
100
AcDbLine
 10
-379.5
 20
257.0
 30
0.0
 11
-360.1000061035156
 21
257.0
 31
0.0
  0
LINE
  5
130
330
1F
100
AcDbEntity
  8
0
  6
CONTINUOUS
 62
     7
100
AcDbLine
 10
-363.1000061035156
 20
259.0
 30
0.0
 11
-363.1000061035156
 21
255.0
 31
0.0
  0
LINE
  5
131
330
1F
100
AcDbEntity
  8
0
  6
CONTINUOUS
 62
     7
100
AcDbLine
 10
-366.5
 20
261.75
 30
0.0
 11
-366.0
 21
261.75
 31
0.0
  0
LINE
  5
132
330
1F
100
AcDbEntity
  8
0
  6
CONTINUOUS
 62
     7
100
AcDbLine
 10
-376.5
 20
259.5
 30
0.0
 11
-366.5
 21
259.5
 31
0.0
  0
LINE
  5
133
330
1F
100
AcDbEntity
  8
0
  6
CONTINUOUS
 62
     7
100
AcDbLine
 10
-376.5
 20
259.5
 30
0.0
 11
-376.5
 21
254.5
 31
0.0
  0
LINE
  5
134
330
1F
100
AcDbEntity
  8
0
  6
CONTINUOUS
 62
     7
100
AcDbLine
 10
-367.8999938964844
 20
259.5
 30
0.0
 11
-367.8999938964844
 21
254.5
 31
0.0
  0
LINE
  5
135
330
1F
100
AcDbEntity
  8
0
  6
CONTINUOUS
 62
     7
100
AcDbLine
 10
-366.5
 20
252.25
 30
0.0
 11
-366.0
 21
252.25
 31
0.0
  0
LINE
  5
136
330
1F
100
AcDbEntity
  8
0
  6
CONTINUOUS
 62
     7
100
AcDbLine
 10
-376.5
 20
254.5
 30
0.0
 11
-366.5
 21
254.5
 31
0.0
  0
LINE
  5
137
330
1F
100
AcDbEntity
  8
0
  6
CONTINUOUS
 62
     7
100
AcDbLine
 10
-376.5
 20
258.8500003814697
 30
0.0
 11
-367.8999938964844
 21
258.8500003814697
 31
0.0
  0
LINE
  5
138
330
1F
100
AcDbEntity
  8
0
  6
CONTINUOUS
 62
     7
100
AcDbLine
 10
-376.5
 20
255.1499996185303
 30
0.0
 11
-367.8999938964844
 21
255.1499996185303
 31
0.0
  0
LINE
  5
139
330
1F
100
AcDbEntity
  8
0
  6
CONTINUOUS
 62
     7
100
AcDbLine
 10
-368.0
 20
260.1499996185303
 30
0.0
 11
-366.5
 21
260.1499996185303
 31
0.0
  0
LINE
  5
13A
330
1F
100
AcDbEntity
  8
0
  6
CONTINUOUS
 62
     7
100
AcDbLine
 10
-368.0
 20
253.8499984741211
 30
0.0
 11
-366.5
 21
253.8499984741211
 31
0.0
  0
LINE
  5
13B
330
1F
100
AcDbEntity
  8
0
  6
CONTINUOUS
 62
     7
100
AcDbLine
 10
-366.5
 20
262.25
 30
0.0
 11
-364.25
 21
262.25
 31
0.0
  0
LINE
  5
13C
330
1F
100
AcDbEntity
  8
0
  6
CONTINUOUS
 62
     7
100
AcDbLine
 10
-366.5
 20
251.75
 30
0.0
 11
-363.0
 21
251.75
 31
0.0
  0
LINE
  5
13D
330
1F
100
AcDbEntity
  8
0
  6
CONTINUOUS
 62
     7
100
AcDbLine
 10
-394.6090393066406
 20
227.5999984741211
 30
0.0
 11
-374.0
 21
227.5999984741211
 31
0.0
  0
LINE
  5
13E
330
1F
100
AcDbEntity
  8
0
  6
CONTINUOUS
 62
     7
100
AcDbLine
 10
-394.0794372558594
 20
228.5999984741211
 30
0.0
 11
-374.0
 21
228.5999984741211
 31
0.0
  0
LINE
  5
13F
330
1F
100
AcDbEntity
  8
0
  6
CONTINUOUS
 62
     7
100
AcDbLine
 10
-145.0
 20
318.75
 30
0.0
 11
-147.0
 21
318.75
 31
0.0
  0
LINE
  5
140
330
1F
100
AcDbEntity
  8
0
  6
CONTINUOUS
 62
     7
100
AcDbLine
 10
-145.0
 20
320.25
 30
0.0
 11
-147.0
 21
320.25
 31
0.0
  0
LINE
  5
141
330
1F
100
AcDbEntity
  8
0
  6
CONTINUOUS
 62
     7
100
AcDbLine
 10
-145.0
 20
319.5
 30
0.0
 11
-148.0
 21
319.5
 31
0.0
  0
LINE
  5
142
330
1F
100
AcDbEntity
  8
0
  6
CONTINUOUS
 62
     7
100
AcDbLine
 10
-145.0
 20
321.0
 30
0.0
 11
-148.0
 21
321.0
 31
0.0
  0
LINE
  5
143
330
1F
100
AcDbEntity
  8
0
  6
CONTINUOUS
 62
     7
100
AcDbLine
 10
-145.0
 20
368.25
 30
0.0
 11
-147.0
 21
368.25
 31
0.0
  0
LINE
  5
144
330
1F
100
AcDbEntity
  8
0
  6
CONTINUOUS
 62
     7
100
AcDbLine
 10
-145.0
 20
366.75
 30
0.0
 11
-147.0
 21
366.75
 31
0.0
  0
LINE
  5
145
330
1F
100
AcDbEntity
  8
0
  6
CONTINUOUS
 62
     7
100
AcDbLine
 10
-145.0
 20
367.5
 30
0.0
 11
-148.0
 21
367.5
 31
0.0
  0
LINE
  5
146
330
1F
100
AcDbEntity
  8
0
  6
CONTINUOUS
 62
     7
100
AcDbLine
 10
-145.0
 20
366.0
 30
0.0
 11
-148.0
 21
366.0
 31
0.0
  0
LINE
  5
147
330
1F
100
AcDbEntity
  8
0
  6
CONTINUOUS
 62
     7
100
AcDbLine
 10
-119.0
 20
366.75
 30
0.0
 11
-117.0
 21
366.75
 31
0.0
  0
LINE
  5
148
330
1F
100
AcDbEntity
  8
0
  6
CONTINUOUS
 62
     7
100
AcDbLine
 10
-119.0
 20
367.5
 30
0.0
 11
-116.0
 21
367.5
 31
0.0
  0
LINE
  5
149
330
1F
100
AcDbEntity
  8
0
  6
CONTINUOUS
 62
     7
100
AcDbLine
 10
-119.0
 20
319.5
 30
0.0
 11
-116.0
 21
319.5
 31
0.0
  0
LINE
  5
14A
330
1F
100
AcDbEntity
  8
0
  6
CONTINUOUS
 62
     7
100
AcDbLine
 10
-119.0
 20
321.0
 30
0.0
 11
-116.0
 21
321.0
 31
0.0
  0
LINE
  5
14B
330
1F
100
AcDbEntity
  8
0
  6
CONTINUOUS
 62
     7
100
AcDbLine
 10
-119.0
 20
368.25
 30
0.0
 11
-117.0
 21
368.25
 31
0.0
  0
LINE
  5
14C
330
1F
100
AcDbEntity
  8
0
  6
CONTINUOUS
 62
     7
100
AcDbLine
 10
-119.0
 20
320.25
 30
0.0
 11
-117.0
 21
320.25
 31
0.0
  0
LINE
  5
14D
330
1F
100
AcDbEntity
  8
0
  6
CONTINUOUS
 62
     7
100
AcDbLine
 10
-119.0
 20
318.75
 30
0.0
 11
-117.0
 21
318.75
 31
0.0
  0
LINE
  5
14E
330
1F
100
AcDbEntity
  8
0
  6
CONTINUOUS
 62
     7
100
AcDbLine
 10
-119.0
 20
366.0
 30
0.0
 11
-116.0
 21
366.0
 31
0.0
  0
LINE
  5
14F
330
1F
100
AcDbEntity
  8
0
  6
CENTER
 62
     7
100
AcDbLine
 10
-145.7499980926514
 20
359.25
 30
0.0
 11
-118.2499980926514
 21
359.25
 31
0.0
  0
LINE
  5
150
330
1F
100
AcDbEntity
  8
0
  6
CENTER
 62
     7
100
AcDbLine
 10
-145.75
 20
339.25
 30
0.0
 11
-118.25
 21
339.25
 31
0.0
  0
LINE
  5
151
330
1F
100
AcDbEntity
  8
0
  6
CONTINUOUS
 62
     7
100
AcDbLine
 10
-67.13605925852082
 20
230.0755769830925
 30
0.0
 11
-115.3182762105812
 21
257.8935934098017
 31
0.0
  0
LINE
  5
152
330
1F
100
AcDbEntity
  8
0
  6
CONTINUOUS
 62
     7
100
AcDbLine
 10
-51.13605904314198
 20
257.7883897798455
 30
0.0
 11
-99.31827599520241
 21
285.6064062065548
 31
0.0
  0
LINE
  5
153
330
1F
100
AcDbEntity
  8
0
  6
CONTINUOUS
 62
     7
100
AcDbLine
 10
-110.7871872907446
 20
258.7416695859403
 30
0.0
 11
-112.2871873109363
 21
256.1435933862447
 31
0.0
  0
LINE
  5
154
330
1F
100
AcDbEntity
  8
0
  6
CONTINUOUS
 62
     7
100
AcDbLine
 10
-96.28718709555757
 20
283.8564061829977
 30
0.0
 11
-97.78718711574932
 21
281.2583299833021
 31
0.0
  0
LINE
  5
155
330
1F
100
AcDbEntity
  8
0
  6
CONTINUOUS
 62
     7
100
AcDbLine
 10
-116.5790109495704
 20
274.2099365771664
 30
0.0
 11
-114.0790109159175
 21
278.5400635766591
 31
0.0
  0
LINE
  5
156
330
1F
100
AcDbEntity
  8
0
  6
CONTINUOUS
 62
     7
100
AcDbLine
 10
-64.67133426931056
 20
232.1166700534427
 30
0.0
 11
-51.67133409431531
 21
254.6333304508045
 31
0.0
  0
LINE
  5
157
330
1F
100
AcDbEntity
  8
0
  6
CONTINUOUS
 62
     7
100
AcDbLine
 10
-51.67133457115247
 20
254.6333296248984
 30
0.0
 11
-103.57901113386
 21
284.6022411992747
 31
0.0
  0
LINE
  5
158
330
1F
100
AcDbEntity
  8
0
  6
CONTINUOUS
 62
     7
100
AcDbLine
 10
-64.67133474614772
 20
232.1166692275365
 30
0.0
 11
-116.5790113088553
 21
262.0855808019127
 31
0.0
  0
LINE
  5
159
330
1F
100
AcDbEntity
  8
0
  6
CENTER
 62
     7
100
AcDbLine
 10
-61.68864031856128
 20
261.2828471037769
 30
0.0
 11
-75.43864050365242
 21
237.4671486065673
 31
0.0
  0
LINE
  5
15A
330
1F
100
AcDbEntity
  8
0
  6
CONTINUOUS
 62
     7
100
AcDbLine
 10
-116.5790109634399
 20
274.2099361419678
 30
0.0
 11
-116.5790109634399
 21
262.0855808258057
 31
0.0
  0
LINE
  5
15B
330
1F
100
AcDbEntity
  8
0
  6
CONTINUOUS
 62
     7
100
AcDbLine
 10
-103.5790109492549
 20
284.6022415508374
 30
0.0
 11
-114.0790106104461
 21
278.5400638111523
 31
0.0
  0
LINE
  5
15C
330
1F
100
AcDbEntity
  8
0
  6
CONTINUOUS
 62
     7
100
AcDbLine
 10
-66.3208569389501
 20
230.7596206890616
 30
0.0
 11
-74.4729319897831
 21
223.9192178352896
 31
0.0
  0
LINE
  5
15D
330
1F
100
AcDbEntity
  8
0
  6
CONTINUOUS
 62
     7
100
AcDbLine
 10
-51.32085360761522
 20
256.7403804297434
 30
0.0
 11
-52.3208536210764
 21
255.0083296299463
 31
0.0
  0
LINE
  5
15E
330
1F
100
AcDbEntity
  8
0
  6
CONTINUOUS
 62
     7
100
AcDbLine
 10
-51.32085704956985
 20
256.7403822233736
 30
0.0
 11
-49.47293179608958
 21
267.2204877139617
 31
0.0
  0
LINE
  5
15F
330
1F
100
AcDbEntity
  8
0
  6
CONTINUOUS
 62
     7
100
AcDbLine
 10
-53.6198917209242
 20
255.7583296400422
 30
0.0
 11
-52.11989170073245
 21
258.3564058397378
 31
0.0
  0
LINE
  5
160
330
1F
100
AcDbEntity
  8
0
  6
CONTINUOUS
 62
     7
100
AcDbLine
 10
-65.32085379607166
 20
232.4916692325845
 30
0.0
 11
-66.32085380953284
 21
230.7596184327874
 31
0.0
  0
LINE
  5
161
330
1F
100
AcDbEntity
  8
0
  6
CONTINUOUS
 62
     7
100
AcDbLine
 10
-55.56844887069586
 20
256.883329655186
 30
0.0
 11
-54.56844885723469
 21
258.6153804549831
 31
0.0
  0
LINE
  5
162
330
1F
100
AcDbEntity
  8
0
  6
CONTINUOUS
 62
     7
100
AcDbLine
 10
-54.91892982077196
 20
256.5083296501381
 30
0.0
 11
-53.41892980058022
 21
259.1064058498337
 31
0.0
  0
LINE
  5
163
330
1F
100
AcDbEntity
  8
0
  6
CONTINUOUS
 62
     7
100
AcDbLine
 10
-69.21796809561503
 20
234.7416692628721
 30
0.0
 11
-70.7179681158068
 21
232.1435930631765
 31
0.0
  0
LINE
  5
164
330
1F
100
AcDbEntity
  8
0
  6
CONTINUOUS
 62
     7
100
AcDbLine
 10
-66.61989189591947
 20
233.2416692426804
 30
0.0
 11
-68.11989191611123
 21
230.6435930429848
 31
0.0
  0
LINE
  5
165
330
1F
100
AcDbEntity
  8
0
  6
CONTINUOUS
 62
     7
100
AcDbLine
 10
-96.48814901590153
 20
280.5083299732063
 30
0.0
 11
-94.98814899570978
 21
283.1064061729019
 31
0.0
  0
LINE
  5
166
330
1F
100
AcDbEntity
  8
0
  6
CONTINUOUS
 62
     7
100
AcDbLine
 10
-95.18911091605372
 20
279.7583299631103
 30
0.0
 11
-93.68911089586197
 21
282.356406162806
 31
0.0
  0
LINE
  5
167
330
1F
100
AcDbEntity
  8
0
  6
CONTINUOUS
 62
     7
100
AcDbLine
 10
-54.26941077084805
 20
256.1333296450901
 30
0.0
 11
-53.26941075738688
 21
257.8653804448872
 31
0.0
  0
LINE
  5
168
330
1F
100
AcDbEntity
  8
0
  6
CONTINUOUS
 62
     7
100
AcDbLine
 10
-95.83862996597766
 20
280.1333299681584
 30
0.0
 11
-94.83862995251648
 21
281.8653807679554
 31
0.0
  0
LINE
  5
169
330
1F
100
AcDbEntity
  8
0
  6
CONTINUOUS
 62
     7
100
AcDbLine
 10
-68.56844904569112
 20
234.3666692578242
 30
0.0
 11
-69.5684490591523
 21
232.6346184580271
 31
0.0
  0
LINE
  5
16A
330
1F
100
AcDbEntity
  8
0
  6
CONTINUOUS
 62
     7
100
AcDbLine
 10
-67.91892999576723
 20
233.9916692527763
 30
0.0
 11
-69.41893001595899
 21
231.3935930530807
 31
0.0
  0
LINE
  5
16B
330
1F
100
AcDbEntity
  8
0
  6
CONTINUOUS
 62
     7
100
AcDbLine
 10
-109.4881491908968
 20
257.9916695758444
 30
0.0
 11
-110.9881492110886
 21
255.3935933761488
 31
0.0
  0
LINE
  5
16C
330
1F
100
AcDbEntity
  8
0
  6
CONTINUOUS
 62
     7
100
AcDbLine
 10
-110.1376682408207
 20
258.3666695808923
 30
0.0
 11
-111.1376682542818
 21
256.6346187810953
 31
0.0
  0
LINE
  5
16D
330
1F
100
AcDbEntity
  8
0
  6
CONTINUOUS
 62
     7
100
AcDbLine
 10
-108.8386301409729
 20
257.6166695707965
 30
0.0
 11
-109.8386301544341
 21
255.8846187709994
 31
0.0
  0
LINE
  5
16E
330
1F
100
AcDbEntity
  8
0
  6
CONTINUOUS
 62
     7
100
AcDbLine
 10
-67.26941094584332
 20
233.6166692477283
 30
0.0
 11
-68.2694109593045
 21
231.8846184479312
 31
0.0
  0
LINE
  5
16F
330
1F
100
AcDbEntity
  8
0
  6
CONTINUOUS
 62
     7
100
AcDbLine
 10
-108.189111091049
 20
257.2416695657485
 30
0.0
 11
-109.6891111112407
 21
254.6435933660529
 31
0.0
  0
LINE
  5
170
330
1F
100
AcDbEntity
  8
0
  6
CONTINUOUS
 62
     7
100
AcDbLine
 10
-74.47292716748652
 20
223.9192170317427
 30
0.0
 11
-74.59693863241188
 21
223.990815085685
 31
0.0
  0
LINE
  5
171
330
1F
100
AcDbEntity
  8
0
  6
CONTINUOUS
 62
     7
100
AcDbLine
 10
-49.47292873830581
 20
267.2204837230445
 30
0.0
 11
-49.59694020323117
 21
267.2920817769868
 31
0.0
  0
LINE
  5
172
330
1F
100
AcDbEntity
  8
0
  6
CONTINUOUS
 62
     7
100
AcDbLine
 10
-97.1376680658254
 20
280.8833299782542
 30
0.0
 11
-96.13766805236422
 21
282.6153807780512
 31
0.0
  0
LINE
  5
173
330
1F
100
AcDbEntity
  8
0
  6
CONTINUOUS
 62
     7
100
AcDbLine
 10
-56.21796792061977
 20
257.2583296602339
 30
0.0
 11
-54.71796790042802
 21
259.8564058599296
 31
0.0
  0
LINE
  5
174
330
1F
100
AcDbEntity
  8
0
  6
CENTER
 62
     7
100
AcDbLine
 10
-79.00914736285759
 20
271.2828488902011
 30
0.0
 11
-92.75914754794873
 21
247.4671503929914
 31
0.0
  0
LINE
  5
175
330
1F
100
AcDbEntity
  8
0
  6
CONTINUOUS
 62
     7
100
AcDbLine
 10
-204.2820320322661
 20
251.1961518609442
 30
0.0
 11
-209.282032099572
 21
259.8564058599296
 31
0.0
  0
LINE
  5
176
330
1F
100
AcDbEntity
  8
0
  6
CONTINUOUS
 62
     7
100
AcDbLine
 10
-163.862331893791
 20
275.687177578863
 30
0.0
 11
-167.8623319476357
 21
282.6153807780512
 31
0.0
  0
LINE
  5
177
330
1F
100
AcDbEntity
  8
0
  6
CONTINUOUS
 62
     7
100
AcDbLine
 10
-214.5270712616941
 20
267.2204837230445
 30
0.0
 11
-214.4030597967688
 21
267.2920817769868
 31
0.0
  0
LINE
  5
178
330
1F
100
AcDbEntity
  8
0
  6
CONTINUOUS
 62
     7
100
AcDbLine
 10
-165.1613699936388
 20
274.9371775687671
 30
0.0
 11
-169.1613700474835
 21
281.8653807679554
 31
0.0
  0
LINE
  5
179
330
1F
100
AcDbEntity
  8
0
  6
CONTINUOUS
 62
     7
100
AcDbLine
 10
-206.7305891887684
 20
250.9371772456989
 30
0.0
 11
-210.7305892426131
 21
257.8653804448872
 31
0.0
  0
LINE
  5
17A
330
1F
100
AcDbEntity
  8
0
  6
CONTINUOUS
 62
     7
100
AcDbLine
 10
-165.3108890368322
 20
273.6961521638206
 30
0.0
 11
-170.3108891041381
 21
282.356406162806
 31
0.0
  0
LINE
  5
17B
330
1F
100
AcDbEntity
  8
0
  6
CONTINUOUS
 62
     7
100
AcDbLine
 10
-164.0118509369843
 20
274.4461521739165
 30
0.0
 11
-169.0118510042902
 21
283.1064061729019
 31
0.0
  0
LINE
  5
17C
330
1F
100
AcDbEntity
  8
0
  6
CONTINUOUS
 62
     7
100
AcDbLine
 10
-205.5810701321139
 20
250.4461518508483
 30
0.0
 11
-210.5810701994198
 21
259.1064058498337
 31
0.0
  0
LINE
  5
17D
330
1F
100
AcDbEntity
  8
0
  6
CONTINUOUS
 62
     7
100
AcDbLine
 10
-205.4315510889206
 20
251.6871772557948
 30
0.0
 11
-209.4315511427653
 21
258.6153804549831
 31
0.0
  0
LINE
  5
17E
330
1F
100
AcDbEntity
  8
0
  6
CONTINUOUS
 62
     7
100
AcDbLine
 10
-195.8801080838888
 20
230.6435930429848
 30
0.0
 11
-200.8801081511946
 21
239.3038470419701
 31
0.0
  0
LINE
  5
17F
330
1F
100
AcDbEntity
  8
0
  6
CONTINUOUS
 62
     7
100
AcDbLine
 10
-212.6791429504302
 20
256.7403822233735
 30
0.0
 11
-214.5270682039104
 21
267.2204877139616
 31
0.0
  0
LINE
  5
180
330
1F
100
AcDbEntity
  8
0
  6
CONTINUOUS
 62
     7
100
AcDbLine
 10
-212.6791463923848
 20
256.7403804297434
 30
0.0
 11
-197.6791461904672
 21
230.7596184327874
 31
0.0
  0
LINE
  5
181
330
1F
100
AcDbEntity
  8
0
  6
CONTINUOUS
 62
     7
100
AcDbLine
 10
-167.7128129044424
 20
283.8564061829977
 30
0.0
 11
-162.7128128371365
 21
275.1961521840124
 31
0.0
  0
LINE
  5
182
330
1F
100
AcDbEntity
  8
0
  6
CONTINUOUS
 62
     7
100
AcDbLine
 10
-189.5270728325135
 20
223.9192170317427
 30
0.0
 11
-189.4030613675882
 21
223.990815085685
 31
0.0
  0
LINE
  5
183
330
1F
100
AcDbEntity
  8
0
  6
CONTINUOUS
 62
     7
100
AcDbLine
 10
-197.6791430610499
 20
230.7596206890616
 30
0.0
 11
-189.5270680102169
 21
223.9192178352896
 31
0.0
  0
LINE
  5
184
330
1F
100
AcDbEntity
  8
0
  6
CONTINUOUS
 62
     7
100
AcDbLine
 10
-202.1791462510425
 20
238.5538470318743
 30
0.0
 11
-156.7128127563695
 21
264.8038473852301
 31
0.0
  0
LINE
  5
185
330
1F
100
AcDbEntity
  8
0
  6
CONTINUOUS
 62
     7
100
AcDbLine
 10
-198.2820319514991
 20
240.8038470621618
 30
0.0
 11
-193.2820318841932
 21
232.1435930631765
 31
0.0
  0
LINE
  5
186
330
1F
100
AcDbEntity
  8
0
  6
CONTINUOUS
 62
     7
100
AcDbLine
 10
-156.8623317995628
 20
263.5628219802835
 30
0.0
 11
-152.8623317457181
 21
256.6346187810952
 31
0.0
  0
LINE
  5
187
330
1F
100
AcDbEntity
  8
0
  6
CONTINUOUS
 62
     7
100
AcDbLine
 10
-158.1613698994106
 20
262.8128219701877
 30
0.0
 11
-154.1613698455659
 21
255.8846187709994
 31
0.0
  0
LINE
  5
188
330
1F
100
AcDbEntity
  8
0
  6
CONTINUOUS
 62
     7
100
AcDbLine
 10
-199.7305890945402
 20
238.8128216471194
 30
0.0
 11
-195.7305890406955
 21
231.8846184479312
 31
0.0
  0
LINE
  5
189
330
1F
100
AcDbEntity
  8
0
  6
CONTINUOUS
 62
     7
100
AcDbLine
 10
-159.3108889560651
 20
263.3038473650382
 30
0.0
 11
-154.3108888887593
 21
254.6435933660529
 31
0.0
  0
LINE
  5
18A
330
1F
100
AcDbEntity
  8
0
  6
CONTINUOUS
 62
     7
100
AcDbLine
 10
-158.0118508562173
 20
264.0538473751341
 30
0.0
 11
-153.0118507889114
 21
255.3935933761488
 31
0.0
  0
LINE
  5
18B
330
1F
100
AcDbEntity
  8
0
  6
CONTINUOUS
 62
     7
100
AcDbLine
 10
-199.5810700513468
 20
240.0538470520659
 30
0.0
 11
-194.581069984041
 21
231.3935930530807
 31
0.0
  0
LINE
  5
18C
330
1F
100
AcDbEntity
  8
0
  6
CONTINUOUS
 62
     7
100
AcDbLine
 10
-198.4315509946924
 20
239.5628216572154
 30
0.0
 11
-194.4315509408477
 21
232.6346184580271
 31
0.0
  0
LINE
  5
18D
330
1F
100
AcDbEntity
  8
0
  6
CONTINUOUS
 62
     7
100
AcDbLine
 10
-151.7128126890636
 20
256.1435933862447
 30
0.0
 11
-156.7128127563695
 21
264.80384738523
 31
0.0
  0
LINE
  5
18E
330
1F
100
AcDbEntity
  8
0
  6
CONTINUOUS
 62
     7
100
AcDbLine
 10
-206.8801082319617
 20
249.6961518407525
 30
0.0
 11
-211.8801082992676
 21
258.3564058397378
 31
0.0
  0
LINE
  5
18F
330
1F
100
AcDbEntity
  8
0
  6
CENTER
 62
     7
100
AcDbLine
 10
-94.66696536100243
 20
296.0033565663655
 30
0.0
 11
-68.10400515296689
 21
303.1208803623441
 31
0.0
  0
LINE
  5
190
330
1F
100
AcDbEntity
  8
0
  6
CENTER
 62
     7
100
AcDbLine
 10
-104.6703218281806
 20
313.3296781718194
 30
0.0
 11
-85.22488534555053
 21
332.7751146544495
 31
0.0
  0
LINE
  5
191
330
1F
100
AcDbEntity
  8
0
  6
CENTER
 62
     7
100
AcDbLine
 10
-159.3296781718194
 20
313.3296781718194
 30
0.0
 11
-178.7751146544495
 21
332.7751146544495
 31
0.0
  0
LINE
  5
192
330
1F
100
AcDbEntity
  8
0
  6
CENTER
 62
     7
100
AcDbLine
 10
-169.3330346389976
 20
296.0033565663655
 30
0.0
 11
-195.8959948470331
 21
303.1208803623441
 31
0.0
  0
LINE
  5
193
330
1F
100
AcDbEntity
  8
0
  6
CONTINUOUS
 62
     7
100
AcDbLine
 10
-363.0
 20
368.5
 30
0.0
 11
-363.0
 21
328.3989562988281
 31
0.0
  0
LINE
  5
194
330
1F
100
AcDbEntity
  8
0
  6
CONTINUOUS
 62
     7
100
AcDbLine
 10
-442.0
 20
370.5
 30
0.0
 11
-362.0
 21
370.5
 31
0.0
  0
LINE
  5
195
330
1F
100
AcDbEntity
  8
0
  6
CONTINUOUS
 62
     7
100
AcDbLine
 10
-364.9999942211342
 20
370.49999846955
 30
0.0
 11
-362.9999921480204
 21
368.4999962278487
 31
0.0
  0
LINE
  5
196
330
1F
100
AcDbEntity
  8
0
  6
CONTINUOUS
 62
     7
100
AcDbLine
 10
-361.0
 20
368.4232177734375
 30
0.0
 11
-361.0
 21
368.0767822265625
 31
0.0
  0
LINE
  5
197
330
1F
100
AcDbEntity
  8
0
  6
CONTINUOUS
 62
     7
100
AcDbLine
 10
-368.0
 20
318.0
 30
0.0
 11
-361.6990051269531
 21
318.0
 31
0.0
  0
LINE
  5
198
330
1F
100
AcDbEntity
  8
0
  6
PHANTOM
 62
     7
100
AcDbLine
 10
-361.6990051269531
 20
366.1732177734375
 30
0.0
 11
-361.6990051269531
 21
320.8267860412598
 31
0.0
  0
LINE
  5
199
330
1F
100
AcDbEntity
  8
0
  6
CONTINUOUS
 62
     7
100
AcDbLine
 10
-361.6990010101744
 20
320.8267851423688
 30
0.0
 11
-360.9999936618706
 21
320.4232130544167
 31
0.0
  0
LINE
  5
19A
330
1F
100
AcDbEntity
  8
0
  6
CONTINUOUS
 62
     7
100
AcDbLine
 10
-361.6989837574607
 20
319.6732145705425
 30
0.0
 11
-360.9999896236559
 21
320.0767790291
 31
0.0
  0
LINE
  5
19B
330
1F
100
AcDbEntity
  8
0
  6
CONTINUOUS
 62
     7
100
AcDbLine
 10
-361.6989990283199
 20
319.326788595233
 30
0.0
 11
-360.9999916800162
 21
318.923216507281
 31
0.0
  0
LINE
  5
19C
330
1F
100
AcDbEntity
  8
0
  6
CONTINUOUS
 62
     7
100
AcDbLine
 10
-361.6989819246178
 20
318.1732114161573
 30
0.0
 11
-360.999987790813
 21
318.5767758747148
 31
0.0
  0
LINE
  5
19D
330
1F
100
AcDbEntity
  8
0
  6
CONTINUOUS
 62
     7
100
AcDbLine
 10
-361.6990051269531
 20
318.1732177734375
 30
0.0
 11
-361.6990051269531
 21
317.826789855957
 31
0.0
  0
LINE
  5
19E
330
1F
100
AcDbEntity
  8
0
  6
CONTINUOUS
 62
     7
100
AcDbLine
 10
-361.6990051269531
 20
319.6732177734375
 30
0.0
 11
-361.6990051269531
 21
319.3267822265625
 31
0.0
  0
LINE
  5
19F
330
1F
100
AcDbEntity
  8
0
  6
CONTINUOUS
 62
     7
100
AcDbLine
 10
-361.0
 20
318.9232177734375
 30
0.0
 11
-361.0
 21
318.5767822265625
 31
0.0
  0
LINE
  5
1A0
330
1F
100
AcDbEntity
  8
0
  6
CONTINUOUS
 62
     7
100
AcDbLine
 10
-361.0
 20
320.4232177734375
 30
0.0
 11
-361.0
 21
320.0767822265625
 31
0.0
  0
LINE
  5
1A1
330
1F
100
AcDbEntity
  8
0
  6
CONTINUOUS
 62
     7
100
AcDbLine
 10
-361.6989890026696
 20
367.6732230093742
 30
0.0
 11
-360.9999948688647
 21
368.0767874679316
 31
0.0
  0
LINE
  5
1A2
330
1F
100
AcDbEntity
  8
0
  6
CONTINUOUS
 62
     7
100
AcDbLine
 10
-361.6990014870116
 20
368.8267836703263
 30
0.0
 11
-360.9999941387078
 21
368.4232115823742
 31
0.0
  0
LINE
  5
1A3
330
1F
100
AcDbEntity
  8
0
  6
CONTINUOUS
 62
     7
100
AcDbLine
 10
-361.6989832061178
 20
369.1732129492605
 30
0.0
 11
-360.9999890723129
 21
369.5767774078179
 31
0.0
  0
LINE
  5
1A4
330
1F
100
AcDbEntity
  8
0
  6
CONTINUOUS
 62
     7
100
AcDbLine
 10
-361.6990015615173
 20
370.3267835210867
 30
0.0
 11
-360.9999942132136
 21
369.9232114331346
 31
0.0
  0
LINE
  5
1A5
330
1F
100
AcDbEntity
  8
0
  6
CONTINUOUS
 62
     7
100
AcDbLine
 10
-361.6990051269531
 20
368.8267822265625
 30
0.0
 11
-361.6990051269531
 21
369.1732177734375
 31
0.0
  0
LINE
  5
1A6
330
1F
100
AcDbEntity
  8
0
  6
CONTINUOUS
 62
     7
100
AcDbLine
 10
-361.0
 20
369.5767822265625
 30
0.0
 11
-361.0
 21
369.9232177734375
 31
0.0
  0
LINE
  5
1A7
330
1F
100
AcDbEntity
  8
0
  6
CONTINUOUS
 62
     7
100
AcDbLine
 10
-361.6990051269531
 20
370.6732177734375
 30
0.0
 11
-361.6990051269531
 21
370.3267822265625
 31
0.0
  0
LINE
  5
1A8
330
1F
100
AcDbEntity
  8
0
  6
PHANTOM
 62
     7
100
AcDbLine
 10
-361.0
 20
366.576789855957
 30
0.0
 11
-361.0
 21
320.4232139587402
 31
0.0
  0
LINE
  5
1A9
330
1F
100
AcDbEntity
  8
0
  6
CENTER
 62
     7
100
AcDbLine
 10
-368.0
 20
339.25
 30
0.0
 11
-328.6990051269531
 21
339.25
 31
0.0
  0
LINE
  5
1AA
330
1F
100
AcDbEntity
  8
0
  6
CENTER
 62
     7
100
AcDbLine
 10
-368.0
 20
359.25
 30
0.0
 11
-328.6990051269531
 21
359.25
 31
0.0
  0
LINE
  5
1AB
330
1F
100
AcDbEntity
  8
0
  6
CONTINUOUS
 62
     7
100
AcDbLine
 10
-358.0
 20
367.25
 30
0.0
 11
-358.0
 21
331.25
 31
0.0
  0
LINE
  5
1AC
330
1F
100
AcDbEntity
  8
0
  6
CONTINUOUS
 62
     7
100
AcDbLine
 10
-361.0
 20
367.25
 30
0.0
 11
-358.0
 21
367.25
 31
0.0
  0
LINE
  5
1AD
330
1F
100
AcDbEntity
  8
0
  6
CONTINUOUS
 62
     7
100
AcDbLine
 10
-361.0
 20
331.25
 30
0.0
 11
-358.0
 21
331.25
 31
0.0
  0
LINE
  5
1AE
330
1F
100
AcDbEntity
  8
0
  6
CONTINUOUS
 62
     7
100
AcDbLine
 10
-333.6990051269531
 20
371.25
 30
0.0
 11
-333.6990051269531
 21
305.25
 31
0.0
  0
LINE
  5
1AF
330
1F
100
AcDbEntity
  8
0
  6
CONTINUOUS
 62
     7
100
AcDbLine
 10
-361.0
 20
371.25
 30
0.0
 11
-333.6990051269531
 21
371.25
 31
0.0
  0
LINE
  5
1B0
330
1F
100
AcDbEntity
  8
0
  6
CONTINUOUS
 62
     7
100
AcDbLine
 10
-359.6990051269531
 20
305.25
 30
0.0
 11
-333.6990051269531
 21
305.25
 31
0.0
  0
LINE
  5
1B1
330
1F
100
AcDbEntity
  8
0
  6
CONTINUOUS
 62
     7
100
AcDbLine
 10
-361.0
 20
317.25
 30
0.0
 11
-359.6990051269531
 21
317.25
 31
0.0
  0
LINE
  5
1B2
330
1F
100
AcDbEntity
  8
0
  6
CONTINUOUS
 62
     7
100
AcDbLine
 10
-359.6990051269531
 20
317.25
 30
0.0
 11
-359.6990051269531
 21
305.25
 31
0.0
  0
LINE
  5
1B3
330
1F
100
AcDbEntity
  8
0
  6
CONTINUOUS
 62
     7
100
AcDbLine
 10
-360.9999909051558
 20
371.076780562203
 30
0.0
 11
-361.6989850389606
 21
370.6732161036455
 31
0.0
  0
LINE
  5
1B4
330
1F
100
AcDbEntity
  8
0
  6
CONTINUOUS
 62
     7
100
AcDbLine
 10
-361.0
 20
371.0767822265625
 30
0.0
 11
-361.0
 21
371.25
 31
0.0
  0
LINE
  5
1B5
330
1F
100
AcDbEntity
  8
0
  6
CONTINUOUS
 62
     7
100
AcDbLine
 10
-349.6990051269531
 20
368.0
 30
0.0
 11
-349.6990051269531
 21
350.5
 31
0.0
  0
LINE
  5
1B6
330
1F
100
AcDbEntity
  8
0
  6
CONTINUOUS
 62
     7
100
AcDbLine
 10
-349.6990051269531
 20
368.0
 30
0.0
 11
-333.6990051269531
 21
368.0
 31
0.0
  0
LINE
  5
1B7
330
1F
100
AcDbEntity
  8
0
  6
CONTINUOUS
 62
     7
100
AcDbLine
 10
-349.6990051269531
 20
350.5
 30
0.0
 11
-333.6990051269531
 21
350.5
 31
0.0
  0
LINE
  5
1B8
330
1F
100
AcDbEntity
  8
0
  6
CONTINUOUS
 62
     7
100
AcDbLine
 10
-358.0
 20
354.25
 30
0.0
 11
-349.6990051269531
 21
354.25
 31
0.0
  0
LINE
  5
1B9
330
1F
100
AcDbEntity
  8
0
  6
CONTINUOUS
 62
     7
100
AcDbLine
 10
-358.0
 20
355.0
 30
0.0
 11
-352.6990051269531
 21
355.0
 31
0.0
  0
LINE
  5
1BA
330
1F
100
AcDbEntity
  8
0
  6
CONTINUOUS
 62
     7
100
AcDbLine
 10
-358.0
 20
363.5
 30
0.0
 11
-352.6990051269531
 21
363.5
 31
0.0
  0
LINE
  5
1BB
330
1F
100
AcDbEntity
  8
0
  6
CONTINUOUS
 62
     7
100
AcDbLine
 10
-358.0
 20
364.25
 30
0.0
 11
-349.6990051269531
 21
364.25
 31
0.0
  0
LINE
  5
1BC
330
1F
100
AcDbEntity
  8
0
  6
CONTINUOUS
 62
     7
100
AcDbLine
 10
-349.6990051269531
 20
367.25
 30
0.0
 11
-339.6990051269531
 21
367.25
 31
0.0
  0
LINE
  5
1BD
330
1F
100
AcDbEntity
  8
0
  6
CONTINUOUS
 62
     7
100
AcDbLine
 10
-352.6990051269531
 20
364.25
 30
0.0
 11
-352.6990051269531
 21
354.25
 31
0.0
  0
LINE
  5
1BE
330
1F
100
AcDbEntity
  8
0
  6
CONTINUOUS
 62
     7
100
AcDbLine
 10
-349.6990051269531
 20
351.25
 30
0.0
 11
-339.6990051269531
 21
351.25
 31
0.0
  0
LINE
  5
1BF
330
1F
100
AcDbEntity
  8
0
  6
CONTINUOUS
 62
     7
100
AcDbLine
 10
-339.6990051269531
 20
367.25
 30
0.0
 11
-339.6990051269531
 21
351.25
 31
0.0
  0
LINE
  5
1C0
330
1F
100
AcDbEntity
  8
0
  6
CONTINUOUS
 62
     7
100
AcDbLine
 10
-349.6990051269531
 20
330.5
 30
0.0
 11
-333.6990051269531
 21
330.5
 31
0.0
  0
LINE
  5
1C1
330
1F
100
AcDbEntity
  8
0
  6
CONTINUOUS
 62
     7
100
AcDbLine
 10
-349.6990051269531
 20
348.0
 30
0.0
 11
-333.6990051269531
 21
348.0
 31
0.0
  0
LINE
  5
1C2
330
1F
100
AcDbEntity
  8
0
  6
CONTINUOUS
 62
     7
100
AcDbLine
 10
-349.6990051269531
 20
348.0
 30
0.0
 11
-349.6990051269531
 21
330.5
 31
0.0
  0
LINE
  5
1C3
330
1F
100
AcDbEntity
  8
0
  6
CONTINUOUS
 62
     7
100
AcDbLine
 10
-358.0
 20
334.25
 30
0.0
 11
-349.6990051269531
 21
334.25
 31
0.0
  0
LINE
  5
1C4
330
1F
100
AcDbEntity
  8
0
  6
CONTINUOUS
 62
     7
100
AcDbLine
 10
-358.0
 20
335.0
 30
0.0
 11
-352.6990051269531
 21
335.0
 31
0.0
  0
LINE
  5
1C5
330
1F
100
AcDbEntity
  8
0
  6
CONTINUOUS
 62
     7
100
AcDbLine
 10
-358.0
 20
343.5
 30
0.0
 11
-352.6990051269531
 21
343.5
 31
0.0
  0
LINE
  5
1C6
330
1F
100
AcDbEntity
  8
0
  6
CONTINUOUS
 62
     7
100
AcDbLine
 10
-358.0
 20
344.25
 30
0.0
 11
-349.6990051269531
 21
344.25
 31
0.0
  0
LINE
  5
1C7
330
1F
100
AcDbEntity
  8
0
  6
CONTINUOUS
 62
     7
100
AcDbLine
 10
-349.6990051269531
 20
347.25
 30
0.0
 11
-339.6990051269531
 21
347.25
 31
0.0
  0
LINE
  5
1C8
330
1F
100
AcDbEntity
  8
0
  6
CONTINUOUS
 62
     7
100
AcDbLine
 10
-352.6990051269531
 20
344.25
 30
0.0
 11
-352.6990051269531
 21
334.25
 31
0.0
  0
LINE
  5
1C9
330
1F
100
AcDbEntity
  8
0
  6
CONTINUOUS
 62
     7
100
AcDbLine
 10
-349.6990051269531
 20
331.25
 30
0.0
 11
-339.6990051269531
 21
331.25
 31
0.0
  0
LINE
  5
1CA
330
1F
100
AcDbEntity
  8
0
  6
CONTINUOUS
 62
     7
100
AcDbLine
 10
-339.6990051269531
 20
347.25
 30
0.0
 11
-339.6990051269531
 21
331.25
 31
0.0
  0
LINE
  5
1CB
330
1F
100
AcDbEntity
  8
0
  6
CENTER
 62
     7
100
AcDbLine
 10
-363.3106079101562
 20
357.3499984741211
 30
0.0
 11
-361.4931793212891
 21
357.3499984741211
 31
0.0
  0
LINE
  5
1CC
330
1F
100
AcDbEntity
  8
0
  6
CENTER
 62
     7
100
AcDbLine
 10
-362.5
 20
358.1972122192383
 30
0.0
 11
-362.5
 21
356.6103591918945
 31
0.0
  0
LINE
  5
1CD
330
1F
100
AcDbEntity
  8
0
  6
CONTINUOUS
 62
     7
100
AcDbLine
 10
-362.0
 20
369.0
 30
0.0
 11
-362.0
 21
370.5
 31
0.0
  0
LINE
  5
1CE
330
1F
100
AcDbEntity
  8
0
  6
CONTINUOUS
 62
     7
100
AcDbLine
 10
-362.0
 20
369.0
 30
0.0
 11
-361.6990051269531
 21
369.0
 31
0.0
  0
LINE
  5
1CF
330
1F
100
AcDbEntity
  8
0
  6
CONTINUOUS
 62
     7
100
AcDbLine
 10
-356.6990051269531
 20
371.25
 30
0.0
 11
-356.6990051269531
 21
364.25
 31
0.0
  0
LINE
  5
1D0
330
1F
100
AcDbEntity
  8
0
  6
CONTINUOUS
 62
     7
100
AcDbLine
 10
-356.6990051269531
 20
354.25
 30
0.0
 11
-356.6990051269531
 21
344.25
 31
0.0
  0
LINE
  5
1D1
330
1F
100
AcDbEntity
  8
0
  6
CONTINUOUS
 62
     7
100
AcDbLine
 10
-356.6990051269531
 20
334.25
 30
0.0
 11
-356.6990051269531
 21
305.25
 31
0.0
  0
LINE
  5
1D2
330
1F
100
AcDbEntity
  8
0
  6
CONTINUOUS
 62
     7
100
AcDbLine
 10
-361.0
 20
366.923225402832
 30
0.0
 11
-361.0
 21
366.576789855957
 31
0.0
  0
LINE
  5
1D3
330
1F
100
AcDbEntity
  8
0
  6
CONTINUOUS
 62
     7
100
AcDbLine
 10
-361.6990051269531
 20
367.673225402832
 30
0.0
 11
-361.6990051269531
 21
367.326789855957
 31
0.0
  0
LINE
  5
1D4
330
1F
100
AcDbEntity
  8
0
  6
CONTINUOUS
 62
     7
100
AcDbLine
 10
-361.6989871698266
 20
366.173219854989
 30
0.0
 11
-360.9999798215229
 21
366.5767919429411
 31
0.0
  0
LINE
  5
1D5
330
1F
100
AcDbEntity
  8
0
  6
CONTINUOUS
 62
     7
100
AcDbLine
 10
-361.6989975978084
 20
367.3267904268153
 30
0.0
 11
-361.0000034640036
 21
366.9232259682578
 31
0.0
  0
LINE
  5
1D6
330
1F
100
AcDbEntity
  8
0
  6
PHANTOM
 62
     7
100
AcDbLine
 10
-395.0
 20
371.8210296630859
 30
0.0
 11
-395.0
 21
370.5
 31
0.0
  0
LINE
  5
1D7
330
1F
100
AcDbEntity
  8
0
  6
CONTINUOUS
 62
     7
100
AcDbLine
 10
-356.6990051269531
 20
344.9000015258789
 30
0.0
 11
-349.6990051269531
 21
344.9000015258789
 31
0.0
  0
LINE
  5
1D8
330
1F
100
AcDbEntity
  8
0
  6
CONTINUOUS
 62
     7
100
AcDbLine
 10
-356.6990051269531
 20
333.5999984741211
 30
0.0
 11
-349.6990051269531
 21
333.5999984741211
 31
0.0
  0
LINE
  5
1D9
330
1F
100
AcDbEntity
  8
0
  6
CONTINUOUS
 62
     7
100
AcDbLine
 10
-356.6990051269531
 20
353.5999984741211
 30
0.0
 11
-349.6990051269531
 21
353.5999984741211
 31
0.0
  0
LINE
  5
1DA
330
1F
100
AcDbEntity
  8
0
  6
CONTINUOUS
 62
     7
100
AcDbLine
 10
-356.6990051269531
 20
364.9000015258789
 30
0.0
 11
-349.6990051269531
 21
364.9000015258789
 31
0.0
  0
LINE
  5
1DB
330
1F
100
AcDbEntity
  8
0
  6
CONTINUOUS
 62
     7
100
AcDbLine
 10
-361.6990008611627
 20
317.826785440848
 30
0.0
 11
-360.999993512859
 21
317.4232133528959
 31
0.0
  0
LINE
  5
1DC
330
1F
100
AcDbEntity
  8
0
  6
CONTINUOUS
 62
     7
100
AcDbLine
 10
-361.0
 20
317.4232177734375
 30
0.0
 11
-361.0
 21
317.25
 31
0.0
  0
LINE
  5
1DD
330
1F
100
AcDbEntity
  8
0
  6
PHANTOM
 62
     7
100
AcDbLine
 10
-395.0
 20
371.8210296630859
 30
0.0
 11
-362.0
 21
371.8210296630859
 31
0.0
  0
LINE
  5
1DE
330
1F
100
AcDbEntity
  8
0
  6
PHANTOM
 62
     7
100
AcDbLine
 10
-362.0
 20
371.8210296630859
 30
0.0
 11
-362.0
 21
370.5
 31
0.0
  0
LINE
  5
1DF
330
1F
100
AcDbEntity
  8
0
  6
CENTER
 62
     7
100
AcDbLine
 10
-386.0
 20
373.7843780517578
 30
0.0
 11
-386.0
 21
344.308952331543
 31
0.0
  0
LINE
  5
1E0
330
1F
100
AcDbEntity
  8
0
  6
DASHED
 62
     7
100
AcDbLine
 10
-378.25
 20
370.5
 30
0.0
 11
-378.25
 21
359.5043106079102
 31
0.0
  0
LINE
  5
1E1
330
1F
100
AcDbEntity
  8
0
  6
DASHED
 62
     7
100
AcDbLine
 10
-393.75
 20
370.5
 30
0.0
 11
-393.75
 21
359.5043106079102
 31
0.0
  0
LINE
  5
1E2
330
1F
100
AcDbEntity
  8
0
  6
DASHED
 62
     7
100
AcDbLine
 10
-383.0
 20
359.5043106079102
 30
0.0
 11
-383.0
 21
352.5043106079102
 31
0.0
  0
LINE
  5
1E3
330
1F
100
AcDbEntity
  8
0
  6
DASHED
 62
     7
100
AcDbLine
 10
-389.0
 20
359.5043106079102
 30
0.0
 11
-389.0
 21
352.5043106079102
 31
0.0
  0
LINE
  5
1E4
330
1F
100
AcDbEntity
  8
0
  6
DASHED
 62
     7
100
AcDbLine
 10
-383.5
 20
359.5043106079102
 30
0.0
 11
-383.5
 21
346.5043106079102
 31
0.0
  0
LINE
  5
1E5
330
1F
100
AcDbEntity
  8
0
  6
DASHED
 62
     7
100
AcDbLine
 10
-388.5
 20
359.5043106079102
 30
0.0
 11
-388.5
 21
346.5043106079102
 31
0.0
  0
LINE
  5
1E6
330
1F
100
AcDbEntity
  8
0
  6
DASHED
 62
     7
100
AcDbLine
 10
-393.75
 20
359.5043106079102
 30
0.0
 11
-378.25
 21
359.5043106079102
 31
0.0
  0
LINE
  5
1E7
330
1F
100
AcDbEntity
  8
0
  6
DASHED
 62
     7
100
AcDbLine
 10
-389.0
 20
352.5043106079102
 30
0.0
 11
-383.0
 21
352.5043106079102
 31
0.0
  0
LINE
  5
1E8
330
1F
100
AcDbEntity
  8
0
  6
DASHED
 62
     7
100
AcDbLine
 10
-388.3093872070312
 20
361.5043106079102
 30
0.0
 11
-388.3093872070312
 21
359.5043106079102
 31
0.0
  0
LINE
  5
1E9
330
1F
100
AcDbEntity
  8
0
  6
DASHED
 62
     7
100
AcDbLine
 10
-390.6188049316406
 20
361.5043106079102
 30
0.0
 11
-390.6188049316406
 21
359.5043106079102
 31
0.0
  0
LINE
  5
1EA
330
1F
100
AcDbEntity
  8
0
  6
DASHED
 62
     7
100
AcDbLine
 10
-383.6905975341797
 20
361.5043106079102
 30
0.0
 11
-383.6905975341797
 21
359.5043106079102
 31
0.0
  0
LINE
  5
1EB
330
1F
100
AcDbEntity
  8
0
  6
DASHED
 62
     7
100
AcDbLine
 10
-381.3811950683594
 20
361.5043106079102
 30
0.0
 11
-381.3811950683594
 21
359.5043106079102
 31
0.0
  0
LINE
  5
1EC
330
1F
100
AcDbEntity
  8
0
  6
DASHED
 62
     7
100
AcDbLine
 10
-388.3999938964844
 20
368.0043106079102
 30
0.0
 11
-383.6000061035156
 21
368.0043106079102
 31
0.0
  0
LINE
  5
1ED
330
1F
100
AcDbEntity
  8
0
  6
DASHED
 62
     7
100
AcDbLine
 10
-390.6188049316406
 20
361.5043106079102
 30
0.0
 11
-381.3811950683594
 21
361.5043106079102
 31
0.0
  0
LINE
  5
1EE
330
1F
100
AcDbEntity
  8
0
  6
DASHED
 62
     7
100
AcDbLine
 10
-389.3000008367659
 20
365.3043107897937
 30
0.0
 11
-388.4000008211396
 21
368.0043109214916
 31
0.0
  0
LINE
  5
1EF
330
1F
100
AcDbEntity
  8
0
  6
DASHED
 62
     7
100
AcDbLine
 10
-382.7000026094692
 20
365.3043056252653
 30
0.0
 11
-383.6000039068032
 21
368.0043096020866
 31
0.0
  0
LINE
  5
1F0
330
1F
100
AcDbEntity
  8
0
  6
DASHED
 62
     7
100
AcDbLine
 10
-389.2999877929688
 20
365.304313659668
 30
0.0
 11
-382.6999969482422
 21
365.304313659668
 31
0.0
  0
LINE
  5
1F1
330
1F
100
AcDbEntity
  8
0
  6
DASHED
 62
     7
100
AcDbLine
 10
-388.7999877929688
 20
363.4382858276367
 30
0.0
 11
-383.1999969482422
 21
363.4382858276367
 31
0.0
  0
LINE
  5
1F2
330
1F
100
AcDbEntity
  8
0
  6
DASHED
 62
     7
100
AcDbLine
 10
-382.7000042167742
 20
365.3043116078703
 30
0.0
 11
-383.2000041519537
 21
363.4382864616392
 31
0.0
  0
LINE
  5
1F3
330
1F
100
AcDbEntity
  8
0
  6
DASHED
 62
     7
100
AcDbLine
 10
-381.3812018654806
 20
361.5043173277509
 30
0.0
 11
-383.2000027589042
 21
363.4382906031129
 31
0.0
  0
LINE
  5
1F4
330
1F
100
AcDbEntity
  8
0
  6
DASHED
 62
     7
100
AcDbLine
 10
-389.3000005181553
 20
365.3043161552995
 30
0.0
 11
-388.7999998424886
 21
363.4382882455325
 31
0.0
  0
LINE
  5
1F5
330
1F
100
AcDbEntity
  8
0
  6
DASHED
 62
     7
100
AcDbLine
 10
-390.6188079505009
 20
361.5043085360401
 30
0.0
 11
-388.8000018303075
 21
363.438287369148
 31
0.0
  0
LINE
  5
1F6
330
1F
100
AcDbEntity
  8
0
  6
CONTINUOUS
 62
     7
100
AcDbLine
 10
-420.0
 20
331.5
 30
0.0
 11
-420.0
 21
333.0
 31
0.0
  0
LINE
  5
1F7
330
1F
100
AcDbEntity
  8
0
  6
CONTINUOUS
 62
     7
100
AcDbLine
 10
-399.7009532300015
 20
309.0
 30
0.0
 11
-365.0
 21
309.0
 31
0.0
  0
LINE
  5
1F8
330
1F
100
AcDbEntity
  8
0
  6
CONTINUOUS
 62
     7
100
AcDbLine
 10
-399.7009532300015
 20
273.0
 30
0.0
 11
-399.7009532300015
 21
263.0
 31
0.0
  0
LINE
  5
1F9
330
1F
100
AcDbEntity
  8
0
  6
CONTINUOUS
 62
     7
100
AcDbLine
 10
-399.7009532300015
 20
263.0
 30
0.0
 11
-365.0
 21
263.0
 31
0.0
  0
LINE
  5
1FA
330
1F
100
AcDbEntity
  8
0
  6
CONTINUOUS
 62
     7
100
AcDbLine
 10
-409.0
 20
309.0
 30
0.0
 11
-405.0
 21
309.0
 31
0.0
  0
LINE
  5
1FB
330
1F
100
AcDbEntity
  8
0
  6
CONTINUOUS
 62
     7
100
AcDbLine
 10
-409.0
 20
263.0
 30
0.0
 11
-405.0
 21
263.0
 31
0.0
  0
LINE
  5
1FC
330
1F
100
AcDbEntity
  8
0
  6
CENTER
 62
     7
100
AcDbLine
 10
-459.0
 20
233.5999984741211
 30
0.0
 11
-358.0
 21
233.5999984741211
 31
0.0
  0
LINE
  5
1FD
330
1F
100
AcDbEntity
  8
0
  6
CENTER
 62
     7
100
AcDbLine
 10
-449.0
 20
286.0
 30
0.0
 11
-358.0
 21
286.0
 31
0.0
  0
LINE
  5
1FE
330
1F
100
AcDbEntity
  8
0
  6
CONTINUOUS
 62
     7
100
AcDbLine
 10
-454.0
 20
238.5999984741211
 30
0.0
 11
-454.0
 21
228.5999984741211
 31
0.0
  0
LINE
  5
1FF
330
1F
100
AcDbEntity
  8
0
  6
CONTINUOUS
 62
     7
100
AcDbLine
 10
-422.0
 20
232.378246307373
 30
0.0
 11
-422.0
 21
228.5999984741211
 31
0.0
  0
LINE
  5
200
330
1F
100
AcDbEntity
  8
0
  6
CONTINUOUS
 62
     7
100
AcDbLine
 10
-428.0
 20
296.0
 30
0.0
 11
-413.0
 21
296.0
 31
0.0
  0
LINE
  5
201
330
1F
100
AcDbEntity
  8
0
  6
CONTINUOUS
 62
     7
100
AcDbLine
 10
-428.0
 20
276.0
 30
0.0
 11
-413.0
 21
276.0
 31
0.0
  0
LINE
  5
202
330
1F
100
AcDbEntity
  8
0
  6
CONTINUOUS
 62
     7
100
AcDbLine
 10
-365.0
 20
309.0
 30
0.0
 11
-365.0
 21
299.0
 31
0.0
  0
LINE
  5
203
330
1F
100
AcDbEntity
  8
0
  6
CONTINUOUS
 62
     7
100
AcDbLine
 10
-364.9999999999999
 20
263.0
 30
0.0
 11
-364.9999999999999
 21
273.0
 31
0.0
  0
LINE
  5
204
330
1F
100
AcDbEntity
  8
0
  6
CONTINUOUS
 62
     7
100
AcDbLine
 10
-365.0
 20
309.0000000000001
 30
0.0
 11
-363.0
 21
311.0
 31
0.0
  0
LINE
  5
205
330
1F
100
AcDbEntity
  8
0
  6
CONTINUOUS
 62
     7
100
AcDbLine
 10
-365.0
 20
263.0
 30
0.0
 11
-363.0
 21
261.0000000000001
 31
0.0
  0
LINE
  5
206
330
1F
100
AcDbEntity
  8
0
  6
CENTER
 62
     7
100
AcDbLine
 10
-146.7841150227904
 20
303.6190221917366
 30
0.0
 11
-153.2119911196558
 21
311.2794666229263
 31
0.0
  0
LINE
  5
207
330
1F
100
AcDbEntity
  8
0
  6
CENTER
 62
     7
100
AcDbLine
 10
-139.8664632964904
 20
264.3870697219241
 30
0.0
 11
-143.2866647297471
 21
254.990143514065
 31
0.0
  0
LINE
  5
208
330
1F
100
AcDbEntity
  8
0
  6
CENTER
 62
     7
100
AcDbLine
 10
-109.3494216807192
 20
289.9939080863394
 30
0.0
 11
-99.50134415059715
 21
291.7303898630087
 31
0.0
  0
LINE
  5
209
330
1F
100
AcDbEntity
  8
0
  6
CENTER
 62
     7
100
AcDbLine
 10
-404.0
 20
230.518780234915
 30
0.0
 11
-404.0
 21
197.1612426053331
 31
0.0
  0
LINE
  5
20A
330
1F
100
AcDbEntity
  8
0
  6
DASHED
 62
     7
100
AcDbLine
 10
-398.9999928474426
 20
219.5
 30
0.0
 11
-398.9999928474426
 21
201.5
 31
0.0
  0
LINE
  5
20B
330
1F
100
AcDbEntity
  8
0
  6
DASHED
 62
     7
100
AcDbLine
 10
-408.9999928474426
 20
219.5
 30
0.0
 11
-408.9999928474426
 21
201.5
 31
0.0
  0
LINE
  5
20C
330
1F
100
AcDbEntity
  8
0
  6
DASHED
 62
     7
100
AcDbLine
 10
-398.9999933242798
 20
219.5
 30
0.0
 11
-408.9999933242798
 21
219.5
 31
0.0
  0
LINE
  5
20D
330
1F
100
AcDbEntity
  8
0
  6
DASHED
 62
     7
100
AcDbLine
 10
-399.7499928474426
 20
223.5
 30
0.0
 11
-399.7499928474426
 21
201.5
 31
0.0
  0
LINE
  5
20E
330
1F
100
AcDbEntity
  8
0
  6
DASHED
 62
     7
100
AcDbLine
 10
-399.7499976102201
 20
223.4999997748524
 30
0.0
 11
-403.9999984956337
 21
225.9537389741424
 31
0.0
  0
LINE
  5
20F
330
1F
100
AcDbEntity
  8
0
  6
DASHED
 62
     7
100
AcDbLine
 10
-404.0000015043661
 20
225.9537389741423
 30
0.0
 11
-408.2499957825303
 21
223.5000035895497
 31
0.0
  0
LINE
  5
210
330
1F
100
AcDbEntity
  8
0
  6
DASHED
 62
     7
100
AcDbLine
 10
-408.2499928474426
 20
223.5
 30
0.0
 11
-408.2499928474426
 21
201.5
 31
0.0
  0
LINE
  5
211
330
1F
100
AcDbEntity
  8
0
  6
DASHED
 62
     7
100
AcDbLine
 10
-399.7499928474426
 20
223.5
 30
0.0
 11
-408.2499928474426
 21
223.5
 31
0.0
  0
LINE
  5
212
330
1F
100
AcDbEntity
  8
0
  6
DASHED
 62
     7
100
AcDbLine
 10
-198.5
 20
280.9999928474426
 30
0.0
 11
-216.3519408696349
 21
280.9999928474426
 31
0.0
  0
LINE
  5
213
330
1F
100
AcDbEntity
  8
0
  6
DASHED
 62
     7
100
AcDbLine
 10
-198.5
 20
290.9999928474426
 30
0.0
 11
-216.3519417175771
 21
290.9999928474426
 31
0.0
  0
LINE
  5
214
330
1F
100
AcDbEntity
  8
0
  6
DASHED
 62
     7
100
AcDbLine
 10
-198.5
 20
280.9999933242798
 30
0.0
 11
-198.5
 21
290.9999933242798
 31
0.0
  0
LINE
  5
215
330
1F
100
AcDbEntity
  8
0
  6
DASHED
 62
     7
100
AcDbLine
 10
-194.5
 20
281.7499928474426
 30
0.0
 11
-216.3930532638985
 21
281.7499928474426
 31
0.0
  0
LINE
  5
216
330
1F
100
AcDbEntity
  8
0
  6
DASHED
 62
     7
100
AcDbLine
 10
-194.5000002251477
 20
281.7499976102202
 30
0.0
 11
-192.0462610258577
 21
285.9999984956339
 31
0.0
  0
LINE
  5
217
330
1F
100
AcDbEntity
  8
0
  6
DASHED
 62
     7
100
AcDbLine
 10
-192.0462610258576
 20
286.0000015043661
 30
0.0
 11
-194.4999964104503
 21
290.2499957825303
 31
0.0
  0
LINE
  5
218
330
1F
100
AcDbEntity
  8
0
  6
DASHED
 62
     7
100
AcDbLine
 10
-194.5
 20
290.2499928474426
 30
0.0
 11
-216.3930539842983
 21
290.2499928474426
 31
0.0
  0
LINE
  5
219
330
1F
100
AcDbEntity
  8
0
  6
DASHED
 62
     7
100
AcDbLine
 10
-194.5
 20
281.7499928474426
 30
0.0
 11
-194.5
 21
290.2499928474426
 31
0.0
  0
LINE
  5
21A
330
1F
100
AcDbEntity
  8
0
  6
DASHED
 62
     7
100
AcDbLine
 10
-65.5
 20
280.9999928474426
 30
0.0
 11
-47.64805913036514
 21
280.9999928474426
 31
0.0
  0
LINE
  5
21B
330
1F
100
AcDbEntity
  8
0
  6
DASHED
 62
     7
100
AcDbLine
 10
-65.5
 20
290.9999928474426
 30
0.0
 11
-47.64805828242291
 21
290.9999928474426
 31
0.0
  0
LINE
  5
21C
330
1F
100
AcDbEntity
  8
0
  6
DASHED
 62
     7
100
AcDbLine
 10
-65.5
 20
280.9999933242798
 30
0.0
 11
-65.5
 21
290.9999933242798
 31
0.0
  0
LINE
  5
21D
330
1F
100
AcDbEntity
  8
0
  6
DASHED
 62
     7
100
AcDbLine
 10
-69.5
 20
281.7499928474426
 30
0.0
 11
-47.60694673610149
 21
281.7499928474426
 31
0.0
  0
LINE
  5
21E
330
1F
100
AcDbEntity
  8
0
  6
DASHED
 62
     7
100
AcDbLine
 10
-69.49999977485241
 20
281.7499976102202
 30
0.0
 11
-71.95373897414238
 21
285.9999984956339
 31
0.0
  0
LINE
  5
21F
330
1F
100
AcDbEntity
  8
0
  6
DASHED
 62
     7
100
AcDbLine
 10
-71.95373897414235
 20
286.0000015043661
 30
0.0
 11
-69.5000035895497
 21
290.2499957825303
 31
0.0
  0
LINE
  5
220
330
1F
100
AcDbEntity
  8
0
  6
DASHED
 62
     7
100
AcDbLine
 10
-69.5
 20
290.2499928474426
 30
0.0
 11
-47.60694601570171
 21
290.2499928474426
 31
0.0
  0
LINE
  5
221
330
1F
100
AcDbEntity
  8
0
  6
DASHED
 62
     7
100
AcDbLine
 10
-69.5
 20
281.7499928474426
 30
0.0
 11
-69.5
 21
290.2499928474426
 31
0.0
  0
LINE
  5
222
330
1F
100
AcDbEntity
  8
0
  6
CENTER
 62
     7
100
AcDbLine
 10
-141.0
 20
230.0
 30
0.0
 11
-123.0
 21
230.0
 31
0.0
  0
LINE
  5
223
330
1F
100
AcDbEntity
  8
0
  6
CENTER
 62
     7
100
AcDbLine
 10
-141.0
 20
215.0
 30
0.0
 11
-123.0
 21
215.0
 31
0.0
  0
LINE
  5
224
330
1F
100
AcDbEntity
  8
0
  6
CENTER
 62
     7
100
AcDbLine
 10
-79.00257738807142
 20
306.2057713659401
 30
0.0
 11
-88.00257738807142
 21
321.7942286340599
 31
0.0
  0
LINE
  5
225
330
1F
100
AcDbEntity
  8
0
  6
CENTER
 62
     7
100
AcDbLine
 10
-66.01219633130485
 20
313.7057713659401
 30
0.0
 11
-75.01219633130485
 21
329.29422863406
 31
0.0
  0
LINE
  5
226
330
1F
100
AcDbEntity
  8
0
  6
CENTER
 62
     7
100
AcDbLine
 10
-175.9974226119286
 20
321.7942286340601
 30
0.0
 11
-184.9974226119286
 21
306.2057713659402
 31
0.0
  0
LINE
  5
227
330
1F
100
AcDbEntity
  8
0
  6
CENTER
 62
     7
100
AcDbLine
 10
-188.9878036686952
 20
329.29422863406
 30
0.0
 11
-197.9878036686952
 21
313.7057713659401
 31
0.0
  0
LINE
  5
228
330
1F
100
AcDbEntity
  8
0
  6
CONTINUOUS
 62
     7
100
AcDbLine
 10
-400.999996062237
 20
262.2499972576588
 30
0.0
 11
-399.7009532300016
 21
263.0
 31
0.0
  0
LINE
  5
229
330
1F
100
AcDbEntity
  8
0
  6
PHANTOM
 62
     7
100
AcDbLine
 10
-428.0
 20
313.5
 30
0.0
 11
-413.0
 21
313.5
 31
0.0
  0
LINE
  5
22A
330
1F
100
AcDbEntity
  8
0
  6
PHANTOM
 62
     7
100
AcDbLine
 10
-428.0
 20
312.5
 30
0.0
 11
-413.0
 21
312.5
 31
0.0
  0
LINE
  5
22B
330
1F
100
AcDbEntity
  8
0
  6
PHANTOM
 62
     7
100
AcDbLine
 10
-428.0
 20
258.5
 30
0.0
 11
-413.0
 21
258.5
 31
0.0
  0
LINE
  5
22C
330
1F
100
AcDbEntity
  8
0
  6
PHANTOM
 62
     7
100
AcDbLine
 10
-428.0
 20
259.5
 30
0.0
 11
-413.0
 21
259.5
 31
0.0
  0
LINE
  5
22D
330
1F
100
AcDbEntity
  8
0
  6
DASHED
 62
     7
100
AcDbLine
 10
-124.25
 20
370.5
 30
0.0
 11
-124.25
 21
359.5
 31
0.0
  0
LINE
  5
22E
330
1F
100
AcDbEntity
  8
0
  6
DASHED
 62
     7
100
AcDbLine
 10
-139.75
 20
370.5
 30
0.0
 11
-139.75
 21
359.5
 31
0.0
  0
LINE
  5
22F
330
1F
100
AcDbEntity
  8
0
  6
DASHED
 62
     7
100
AcDbLine
 10
-129.0
 20
359.5
 30
0.0
 11
-129.0
 21
352.5
 31
0.0
  0
LINE
  5
230
330
1F
100
AcDbEntity
  8
0
  6
DASHED
 62
     7
100
AcDbLine
 10
-135.0
 20
359.5
 30
0.0
 11
-135.0
 21
352.5
 31
0.0
  0
LINE
  5
231
330
1F
100
AcDbEntity
  8
0
  6
DASHED
 62
     7
100
AcDbLine
 10
-129.5
 20
359.5
 30
0.0
 11
-129.5
 21
346.5
 31
0.0
  0
LINE
  5
232
330
1F
100
AcDbEntity
  8
0
  6
DASHED
 62
     7
100
AcDbLine
 10
-134.5
 20
359.5
 30
0.0
 11
-134.5
 21
346.5
 31
0.0
  0
LINE
  5
233
330
1F
100
AcDbEntity
  8
0
  6
DASHED
 62
     7
100
AcDbLine
 10
-139.75
 20
359.5
 30
0.0
 11
-124.25
 21
359.5
 31
0.0
  0
LINE
  5
234
330
1F
100
AcDbEntity
  8
0
  6
DASHED
 62
     7
100
AcDbLine
 10
-135.0
 20
352.5
 30
0.0
 11
-129.0
 21
352.5
 31
0.0
  0
LINE
  5
235
330
1F
100
AcDbEntity
  8
0
  6
DASHED
 62
     7
100
AcDbLine
 10
-134.3093872070312
 20
361.5
 30
0.0
 11
-134.3093872070312
 21
359.5
 31
0.0
  0
LINE
  5
236
330
1F
100
AcDbEntity
  8
0
  6
DASHED
 62
     7
100
AcDbLine
 10
-136.6188049316406
 20
361.5
 30
0.0
 11
-136.6188049316406
 21
359.5
 31
0.0
  0
LINE
  5
237
330
1F
100
AcDbEntity
  8
0
  6
DASHED
 62
     7
100
AcDbLine
 10
-129.6905975341797
 20
361.5
 30
0.0
 11
-129.6905975341797
 21
359.5
 31
0.0
  0
LINE
  5
238
330
1F
100
AcDbEntity
  8
0
  6
DASHED
 62
     7
100
AcDbLine
 10
-127.3811950683594
 20
361.5
 30
0.0
 11
-127.3811950683594
 21
359.5
 31
0.0
  0
LINE
  5
239
330
1F
100
AcDbEntity
  8
0
  6
DASHED
 62
     7
100
AcDbLine
 10
-134.3999938964844
 20
368.0
 30
0.0
 11
-129.6000061035156
 21
368.0
 31
0.0
  0
LINE
  5
23A
330
1F
100
AcDbEntity
  8
0
  6
DASHED
 62
     7
100
AcDbLine
 10
-136.6188049316406
 20
361.5
 30
0.0
 11
-127.3811950683594
 21
361.5
 31
0.0
  0
LINE
  5
23B
330
1F
100
AcDbEntity
  8
0
  6
DASHED
 62
     7
100
AcDbLine
 10
-135.3000034440836
 20
365.3000013232581
 30
0.0
 11
-134.4000035038519
 21
368.0000012287722
 31
0.0
  0
LINE
  5
23C
330
1F
100
AcDbEntity
  8
0
  6
DASHED
 62
     7
100
AcDbLine
 10
-128.7000071111568
 20
365.2999998153666
 30
0.0
 11
-129.6000084084908
 21
368.0000037921878
 31
0.0
  0
LINE
  5
23D
330
1F
100
AcDbEntity
  8
0
  6
DASHED
 62
     7
100
AcDbLine
 10
-135.2999877929688
 20
365.3000030517578
 30
0.0
 11
-128.6999969482422
 21
365.3000030517578
 31
0.0
  0
LINE
  5
23E
330
1F
100
AcDbEntity
  8
0
  6
DASHED
 62
     7
100
AcDbLine
 10
-134.7999877929688
 20
363.4339752197266
 30
0.0
 11
-129.1999969482422
 21
363.4339752197266
 31
0.0
  0
LINE
  5
23F
330
1F
100
AcDbEntity
  8
0
  6
DASHED
 62
     7
100
AcDbLine
 10
-128.7000068761548
 20
365.3000016106341
 30
0.0
 11
-129.2000068113344
 21
363.433976464403
 31
0.0
  0
LINE
  5
240
330
1F
100
AcDbEntity
  8
0
  6
DASHED
 62
     7
100
AcDbLine
 10
-127.3811958903957
 20
361.5000081311246
 30
0.0
 11
-129.1999964571462
 21
363.4339810591276
 31
0.0
  0
LINE
  5
241
330
1F
100
AcDbEntity
  8
0
  6
DASHED
 62
     7
100
AcDbLine
 10
-135.3000031422565
 20
365.3000058374229
 30
0.0
 11
-134.8000024665898
 21
363.4339779276559
 31
0.0
  0
LINE
  5
242
330
1F
100
AcDbEntity
  8
0
  6
DASHED
 62
     7
100
AcDbLine
 10
-136.6188017358456
 20
361.4999967346348
 30
0.0
 11
-134.7999956156523
 21
363.4339755677427
 31
0.0
  0
LINE
  5
243
330
1F
100
AcDbEntity
  8
0
  6
DASHED
 62
     7
100
AcDbLine
 10
-209.0541458651503
 20
250.4616968492136
 30
0.0
 11
-199.5278664662665
 21
255.9616969232501
 31
0.0
  0
LINE
  5
244
330
1F
100
AcDbEntity
  8
0
  6
DASHED
 62
     7
100
AcDbLine
 10
-201.3041457608262
 20
237.0383031507864
 30
0.0
 11
-191.7778663619424
 21
242.5383032248228
 31
0.0
  0
LINE
  5
245
330
1F
100
AcDbEntity
  8
0
  6
DASHED
 62
     7
100
AcDbLine
 10
-197.1528664342962
 20
251.848076273732
 30
0.0
 11
-191.0906886350064
 21
255.3480763208461
 31
0.0
  0
LINE
  5
246
330
1F
100
AcDbEntity
  8
0
  6
DASHED
 62
     7
100
AcDbLine
 10
-194.1528663939127
 20
246.6519238743408
 30
0.0
 11
-188.090688594623
 21
250.151923921455
 31
0.0
  0
LINE
  5
247
330
1F
100
AcDbEntity
  8
0
  6
DASHED
 62
     7
100
AcDbLine
 10
-196.9028664309309
 20
251.4150635737828
 30
0.0
 11
-185.64453623225
 21
257.9150636612804
 31
0.0
  0
LINE
  5
248
330
1F
100
AcDbEntity
  8
0
  6
DASHED
 62
     7
100
AcDbLine
 10
-194.4028663972779
 20
247.0849365742901
 30
0.0
 11
-183.144536198597
 21
253.5849366617877
 31
0.0
  0
LINE
  5
249
330
1F
100
AcDbEntity
  8
0
  6
DASHED
 62
     7
100
AcDbLine
 10
-191.7778663619424
 20
242.5383032248228
 30
0.0
 11
-199.5278664662665
 21
255.9616969232501
 31
0.0
  0
LINE
  5
24A
330
1F
100
AcDbEntity
  8
0
  6
DASHED
 62
     7
100
AcDbLine
 10
-188.0906885946229
 20
250.151923921455
 30
0.0
 11
-191.0906886350064
 21
255.3480763208461
 31
0.0
  0
LINE
  5
24B
330
1F
100
AcDbEntity
  8
0
  6
DASHED
 62
     7
100
AcDbLine
 10
-196.2302235948423
 20
246.2500120810855
 30
0.0
 11
-194.4981727950453
 21
247.2500120945467
 31
0.0
  0
LINE
  5
24C
330
1F
100
AcDbEntity
  8
0
  6
DASHED
 62
     7
100
AcDbLine
 10
-195.0755147169939
 20
244.2499976725979
 30
0.0
 11
-193.3434639171968
 21
245.249997686059
 31
0.0
  0
LINE
  5
24D
330
1F
100
AcDbEntity
  8
0
  6
DASHED
 62
     7
100
AcDbLine
 10
-198.5396184623553
 20
250.250001254564
 30
0.0
 11
-196.8075676625582
 21
251.2500012680251
 31
0.0
  0
LINE
  5
24E
330
1F
100
AcDbEntity
  8
0
  6
DASHED
 62
     7
100
AcDbLine
 10
-199.6943197108091
 20
252.2500024485526
 30
0.0
 11
-197.962268911012
 21
253.2500024620138
 31
0.0
  0
LINE
  5
24F
330
1F
100
AcDbEntity
  8
0
  6
DASHED
 62
     7
100
AcDbLine
 10
-201.8140853488464
 20
242.9215443428696
 30
0.0
 11
-204.2140792776375
 21
247.0784556907834
 31
0.0
  0
LINE
  5
250
330
1F
100
AcDbEntity
  8
0
  6
DASHED
 62
     7
100
AcDbLine
 10
-195.0755147169939
 20
244.2499976725978
 30
0.0
 11
-199.6943197108091
 21
252.2500024485526
 31
0.0
  0
LINE
  5
251
330
1F
100
AcDbEntity
  8
0
  6
DASHED
 62
     7
100
AcDbLine
 10
-199.0258131352382
 20
243.4921125710409
 30
0.0
 11
-201.8140816093105
 21
242.9215354082591
 31
0.0
  0
LINE
  5
252
330
1F
100
AcDbEntity
  8
0
  6
DASHED
 62
     7
100
AcDbLine
 10
-202.3258100402513
 20
249.2078777885385
 30
0.0
 11
-204.214081409281
 21
247.0784517985224
 31
0.0
  0
LINE
  5
253
330
1F
100
AcDbEntity
  8
0
  6
DASHED
 62
     7
100
AcDbLine
 10
-199.0258224577204
 20
243.4921252610541
 30
0.0
 11
-202.3258179245055
 21
249.207884971685
 31
0.0
  0
LINE
  5
254
330
1F
100
AcDbEntity
  8
0
  6
DASHED
 62
     7
100
AcDbLine
 10
-197.6597949616291
 20
244.8581518895785
 30
0.0
 11
-200.4597904216836
 21
249.707886200311
 31
0.0
  0
LINE
  5
255
330
1F
100
AcDbEntity
  8
0
  6
DASHED
 62
     7
100
AcDbLine
 10
-202.3258117124994
 20
249.2078770944224
 30
0.0
 11
-200.4597865680588
 21
249.7078770362843
 31
0.0
  0
LINE
  5
256
330
1F
100
AcDbEntity
  8
0
  6
DASHED
 62
     7
100
AcDbLine
 10
-199.6943263415514
 20
252.249997671086
 30
0.0
 11
-200.4597957243012
 21
249.707883705912
 31
0.0
  0
LINE
  5
257
330
1F
100
AcDbEntity
  8
0
  6
DASHED
 62
     7
100
AcDbLine
 10
-199.0258171955332
 20
243.4921105753484
 30
0.0
 11
-197.659789969954
 21
244.8581378278852
 31
0.0
  0
LINE
  5
258
330
1F
100
AcDbEntity
  8
0
  6
DASHED
 62
     7
100
AcDbLine
 10
-195.0755134870022
 20
244.2500020729202
 30
0.0
 11
-197.6597913516781
 21
244.8581449409278
 31
0.0
  0
LINE
  5
259
330
1F
100
AcDbEntity
  8
0
  6
DASHED
 62
     7
100
AcDbLine
 10
-62.69585423917374
 20
237.0383031507863
 30
0.0
 11
-72.22213363805761
 21
242.5383032248228
 31
0.0
  0
LINE
  5
25A
330
1F
100
AcDbEntity
  8
0
  6
DASHED
 62
     7
100
AcDbLine
 10
-54.94585413484967
 20
250.4616968492136
 30
0.0
 11
-64.47213353373354
 21
255.9616969232501
 31
0.0
  0
LINE
  5
25B
330
1F
100
AcDbEntity
  8
0
  6
DASHED
 62
     7
100
AcDbLine
 10
-69.84713360608734
 20
246.6519238743409
 30
0.0
 11
-75.90931140537705
 21
250.151923921455
 31
0.0
  0
LINE
  5
25C
330
1F
100
AcDbEntity
  8
0
  6
DASHED
 62
     7
100
AcDbLine
 10
-66.84713356570381
 20
251.848076273732
 30
0.0
 11
-72.90931136499353
 21
255.3480763208461
 31
0.0
  0
LINE
  5
25D
330
1F
100
AcDbEntity
  8
0
  6
DASHED
 62
     7
100
AcDbLine
 10
-69.59713360272204
 20
247.0849365742901
 30
0.0
 11
-80.85546380140295
 21
253.5849366617877
 31
0.0
  0
LINE
  5
25E
330
1F
100
AcDbEntity
  8
0
  6
DASHED
 62
     7
100
AcDbLine
 10
-67.09713356906911
 20
251.4150635737828
 30
0.0
 11
-78.35546376775002
 21
257.9150636612804
 31
0.0
  0
LINE
  5
25F
330
1F
100
AcDbEntity
  8
0
  6
DASHED
 62
     7
100
AcDbLine
 10
-64.47213353373351
 20
255.9616969232501
 30
0.0
 11
-72.2221336380576
 21
242.5383032248228
 31
0.0
  0
LINE
  5
260
330
1F
100
AcDbEntity
  8
0
  6
DASHED
 62
     7
100
AcDbLine
 10
-72.90931136499353
 20
255.3480763208461
 30
0.0
 11
-75.90931140537704
 21
250.1519239214549
 31
0.0
  0
LINE
  5
261
330
1F
100
AcDbEntity
  8
0
  6
DASHED
 62
     7
100
AcDbLine
 10
-65.46038916703935
 20
250.249988040065
 30
0.0
 11
-67.19243996683642
 21
251.2499880535262
 31
0.0
  0
LINE
  5
262
330
1F
100
AcDbEntity
  8
0
  6
DASHED
 62
     7
100
AcDbLine
 10
-64.30568028919095
 20
252.2500024485527
 30
0.0
 11
-66.03773108898801
 21
253.2500024620139
 31
0.0
  0
LINE
  5
263
330
1F
100
AcDbEntity
  8
0
  6
DASHED
 62
     7
100
AcDbLine
 10
-67.76978403455229
 20
246.2499988665866
 30
0.0
 11
-69.50183483434935
 21
247.2499988800477
 31
0.0
  0
LINE
  5
264
330
1F
100
AcDbEntity
  8
0
  6
DASHED
 62
     7
100
AcDbLine
 10
-68.92448528300608
 20
244.2499976725979
 30
0.0
 11
-70.65653608280314
 21
245.2499976860591
 31
0.0
  0
LINE
  5
265
330
1F
100
AcDbEntity
  8
0
  6
DASHED
 62
     7
100
AcDbLine
 10
-59.78592072236249
 20
247.0784556907834
 30
0.0
 11
-62.18591465115361
 21
242.9215443428696
 31
0.0
  0
LINE
  5
266
330
1F
100
AcDbEntity
  8
0
  6
DASHED
 62
     7
100
AcDbLine
 10
-64.30568028919092
 20
252.2500024485527
 30
0.0
 11
-68.92448528300608
 21
244.2499976725979
 31
0.0
  0
LINE
  5
267
330
1F
100
AcDbEntity
  8
0
  6
DASHED
 62
     7
100
AcDbLine
 10
-61.67418337625618
 20
249.2078861756992
 30
0.0
 11
-59.7859148545307
 21
247.0784633966216
 31
0.0
  0
LINE
  5
268
330
1F
100
AcDbEntity
  8
0
  6
DASHED
 62
     7
100
AcDbLine
 10
-64.9741828930137
 20
243.492122466093
 30
0.0
 11
-62.18591021453494
 21
242.9215444429427
 31
0.0
  0
LINE
  5
269
330
1F
100
AcDbEntity
  8
0
  6
DASHED
 62
     7
100
AcDbLine
 10
-61.67418970488907
 20
249.2078717571861
 30
0.0
 11
-64.97418517167416
 21
243.4921120465552
 31
0.0
  0
LINE
  5
26A
330
1F
100
AcDbEntity
  8
0
  6
DASHED
 62
     7
100
AcDbLine
 10
-63.54021720771102
 20
249.707872985812
 30
0.0
 11
-66.34021266776553
 21
244.8581386750795
 31
0.0
  0
LINE
  5
26B
330
1F
100
AcDbEntity
  8
0
  6
DASHED
 62
     7
100
AcDbLine
 10
-64.97418145576758
 20
243.4921213649416
 30
0.0
 11
-66.34020665829802
 21
244.8581465944297
 31
0.0
  0
LINE
  5
26C
330
1F
100
AcDbEntity
  8
0
  6
DASHED
 62
     7
100
AcDbLine
 10
-68.92447783022753
 20
244.2499943189399
 30
0.0
 11
-66.340207856244
 21
244.8581353300774
 31
0.0
  0
LINE
  5
26D
330
1F
100
AcDbEntity
  8
0
  6
DASHED
 62
     7
100
AcDbLine
 10
-61.67417961778834
 20
249.2078836572267
 30
0.0
 11
-63.54020752576483
 21
249.7078843395759
 31
0.0
  0
LINE
  5
26E
330
1F
100
AcDbEntity
  8
0
  6
DASHED
 62
     7
100
AcDbLine
 10
-64.30568471497767
 20
252.2500013135957
 30
0.0
 11
-63.54021299497848
 21
249.7078795864466
 31
0.0
  0
CIRCLE
  5
26F
330
1F
100
AcDbEntity
  8
0
  6
CONTINUOUS
 62
     7
100
AcDbCircle
 10
-22.0
 20
77.0
 30
0.0
 40
5.0
  0
ARC
  5
270
330
1F
100
AcDbEntity
  8
0
  6
CONTINUOUS
 62
     7
100
AcDbCircle
 10
-132.0
 20
286.0
 30
0.0
 40
35.0
100
AcDbArc
 50
357.2028943143506
 51
62.79710073855573
  0
ARC
  5
271
330
1F
100
AcDbEntity
  8
0
  6
CONTINUOUS
 62
     7
100
AcDbCircle
 10
-132.0
 20
286.0
 30
0.0
 40
84.5
100
AcDbArc
 50
340.9148019682999
 51
79.08518945606853
  0
ARC
  5
272
330
1F
100
AcDbEntity
  8
0
  6
CONTINUOUS
 62
     7
100
AcDbCircle
 10
-132.0
 20
286.0
 30
0.0
 40
35.0
100
AcDbArc
 50
117.2029042704006
 51
182.79710407786
  0
ARC
  5
273
330
1F
100
AcDbEntity
  8
0
  6
CONTINUOUS
 62
     7
100
AcDbCircle
 10
-132.0
 20
286.0
 30
0.0
 40
35.0
100
AcDbArc
 50
237.2028975917922
 51
302.7971042294407
  0
ARC
  5
274
330
1F
100
AcDbEntity
  8
0
  6
CONTINUOUS
 62
     7
100
AcDbCircle
 10
-132.0
 20
286.0
 30
0.0
 40
84.5
100
AcDbArc
 50
100.9147950623203
 51
199.0851927953728
  0
ARC
  5
275
330
1F
100
AcDbEntity
  8
0
  6
CONTINUOUS
 62
     7
100
AcDbCircle
 10
-163.3934211730957
 20
267.875
 30
0.0
 40
6.25
100
AcDbArc
 50
316.2602028005741
 51
103.7397954539834
  0
CIRCLE
  5
276
330
1F
100
AcDbEntity
  8
0
  6
CONTINUOUS
 62
     7
100
AcDbCircle
 10
-131.9999981433276
 20
359.25
 30
0.0
 40
8.75
  0
CIRCLE
  5
277
330
1F
100
AcDbEntity
  8
0
  6
CONTINUOUS
 62
     7
100
AcDbCircle
 10
-131.9999995376121
 20
339.25
 30
0.0
 40
8.75
  0
CIRCLE
  5
278
330
1F
100
AcDbEntity
  8
0
  6
CONTINUOUS
 62
     7
100
AcDbCircle
 10
-195.4363632202148
 20
249.3749961853027
 30
0.0
 40
5.0
  0
CIRCLE
  5
279
330
1F
100
AcDbEntity
  8
0
  6
CONTINUOUS
 62
     7
100
AcDbCircle
 10
-178.115852355957
 20
259.375
 30
0.0
 40
5.0
  0
CIRCLE
  5
27A
330
1F
100
AcDbEntity
  8
0
  6
CONTINUOUS
 62
     7
100
AcDbCircle
 10
-178.115852355957
 20
259.375
 30
0.0
 40
4.25
  0
CIRCLE
  5
27B
330
1F
100
AcDbEntity
  8
0
  6
CONTINUOUS
 62
     7
100
AcDbCircle
 10
-195.4363632202148
 20
249.3749961853027
 30
0.0
 40
4.25
  0
ARC
  5
27C
330
1F
100
AcDbEntity
  8
0
  6
CONTINUOUS
 62
     7
100
AcDbCircle
 10
-132.0
 20
286.0
 30
0.0
 40
84.5
100
AcDbArc
 50
220.914795213901
 51
319.0851997771426
  0
CIRCLE
  5
27D
330
1F
100
AcDbEntity
  8
0
  6
CONTINUOUS
 62
     7
100
AcDbCircle
 10
-157.1147365570068
 20
300.5
 30
0.0
 40
5.25
  0
CIRCLE
  5
27E
330
1F
100
AcDbEntity
  8
0
  6
CONTINUOUS
 62
     7
100
AcDbCircle
 10
-131.9999999236291
 20
257.0
 30
0.0
 40
5.25
  0
ARC
  5
27F
330
1F
100
AcDbEntity
  8
0
  6
CENTER
 62
     7
100
AcDbCircle
 10
-132.0
 20
286.0
 30
0.0
 40
29.0
100
AcDbArc
 50
253.6448704713054
 51
286.3551313499275
  0
CIRCLE
  5
280
330
1F
100
AcDbEntity
  8
0
  6
CONTINUOUS
 62
     7
100
AcDbCircle
 10
-106.8852634429932
 20
300.5
 30
0.0
 40
5.25
  0
CIRCLE
  5
281
330
1F
100
AcDbEntity
  8
0
  6
CONTINUOUS
 62
     7
100
AcDbCircle
 10
-94.94760513305664
 20
323.0523948669434
 30
0.0
 40
8.75
  0
CIRCLE
  5
282
330
1F
100
AcDbEntity
  8
0
  6
CONTINUOUS
 62
     7
100
AcDbCircle
 10
-182.6145133972168
 20
299.5621175765991
 30
0.0
 40
8.75
  0
CIRCLE
  5
283
330
1F
100
AcDbEntity
  8
0
  6
CONTINUOUS
 62
     7
100
AcDbCircle
 10
-169.0523948669434
 20
323.0523948669434
 30
0.0
 40
8.75
  0
ARC
  5
284
330
1F
100
AcDbEntity
  8
0
  6
CENTER
 62
     7
100
AcDbCircle
 10
-132.0
 20
286.0
 30
0.0
 40
52.40000152587891
100
AcDbArc
 50
239.9218592965908
 51
300.0781493548312
  0
CIRCLE
  5
285
330
1F
100
AcDbEntity
  8
0
  6
CONTINUOUS
 62
     7
100
AcDbCircle
 10
-145.5621175765991
 20
235.3854866027832
 30
0.0
 40
8.75
  0
ARC
  5
286
330
1F
100
AcDbEntity
  8
0
  6
CONTINUOUS
 62
     7
100
AcDbCircle
 10
-418.0
 20
239.0
 30
0.0
 40
2.0
100
AcDbArc
 50
179.999991348578
 51
270.0000006832453
  0
ARC
  5
287
330
1F
100
AcDbEntity
  8
0
  6
DASHED
 62
     7
100
AcDbCircle
 10
-167.2905311584473
 20
265.625
 30
0.0
 40
9.25
100
AcDbArc
 50
299.9999983303479
 51
353.3025231131079
  0
ARC
  5
288
330
1F
100
AcDbEntity
  8
0
  6
CONTINUOUS
 62
     7
100
AcDbCircle
 10
-167.2905311584473
 20
265.625
 30
0.0
 40
9.25
100
AcDbArc
 50
353.3025231131079
 51
66.69748026409151
  0
ARC
  5
289
330
1F
100
AcDbEntity
  8
0
  6
DASHED
 62
     7
100
AcDbCircle
 10
-167.2905311584473
 20
265.625
 30
0.0
 40
9.25
100
AcDbArc
 50
66.69748026409151
 51
120.0000033393042
  0
CIRCLE
  5
28A
330
1F
100
AcDbEntity
  8
0
  6
CONTINUOUS
 62
     7
100
AcDbCircle
 10
-118.4378824234009
 20
235.3854866027832
 30
0.0
 40
8.75
  0
CIRCLE
  5
28B
330
1F
100
AcDbEntity
  8
0
  6
CONTINUOUS
 62
     7
100
AcDbCircle
 10
-81.3854866027832
 20
299.5621185302734
 30
0.0
 40
8.75
  0
ARC
  5
28C
330
1F
100
AcDbEntity
  8
0
  6
CONTINUOUS
 62
     7
100
AcDbCircle
 10
-367.8533325195312
 20
256.8914852142334
 30
0.0
 40
5.199999809265137
100
AcDbArc
 50
23.92142787919631
 51
69.12010738156002
  0
ARC
  5
28D
330
1F
100
AcDbEntity
  8
0
  6
CONTINUOUS
 62
     7
100
AcDbCircle
 10
-367.8533325195312
 20
257.1085147857666
 30
0.0
 40
5.199999809265137
100
AcDbArc
 50
290.87989261844
 51
336.0785721208037
  0
CIRCLE
  5
28E
330
1F
100
AcDbEntity
  8
0
  6
CONTINUOUS
 62
     7
100
AcDbCircle
 10
-68.56364059448242
 20
249.375
 30
0.0
 40
8.75
  0
CIRCLE
  5
28F
330
1F
100
AcDbEntity
  8
0
  6
CONTINUOUS
 62
     7
100
AcDbCircle
 10
-85.88414764404297
 20
259.375
 30
0.0
 40
8.75
  0
ARC
  5
290
330
1F
100
AcDbEntity
  8
0
  6
CENTER
 62
     7
100
AcDbCircle
 10
-132.0
 20
286.0
 30
0.0
 40
29.0
100
AcDbArc
 50
13.64486783419405
 51
46.35513127413712
  0
ARC
  5
291
330
1F
100
AcDbEntity
  8
0
  6
CENTER
 62
     7
100
AcDbCircle
 10
-132.0
 20
286.0
 30
0.0
 40
52.40000152587891
100
AcDbArc
 50
119.9218523148209
 51
180.0781423730613
  0
ARC
  5
292
330
1F
100
AcDbEntity
  8
0
  6
CENTER
 62
     7
100
AcDbCircle
 10
-132.0
 20
286.0
 30
0.0
 40
29.0
100
AcDbArc
 50
133.6448634895355
 51
166.3551311983468
  0
ARC
  5
293
330
1F
100
AcDbEntity
  8
0
  6
CONTINUOUS
 62
     7
100
AcDbCircle
 10
-132.0
 20
286.0
 30
0.0
 40
85.82102966308594
100
AcDbArc
 50
220.0659802849868
 51
240.23093084296
  0
CIRCLE
  5
294
330
1F
100
AcDbEntity
  8
0
  6
CONTINUOUS
 62
     7
100
AcDbCircle
 10
-362.5
 20
357.3499984741211
 30
0.0
 40
0.5
  0
ARC
  5
295
330
1F
100
AcDbEntity
  8
0
  6
DASHED
 62
     7
100
AcDbCircle
 10
-386.0
 20
367.2543106079102
 30
0.0
 40
1.25
100
AcDbArc
 50
36.86989730957868
 51
143.1300974540939
  0
ARC
  5
296
330
1F
100
AcDbEntity
  8
0
  6
CONTINUOUS
 62
     7
100
AcDbCircle
 10
-418.0
 20
333.0
 30
0.0
 40
2.0
100
AcDbArc
 50
90.00000250447816
 51
180.0000050089563
  0
ARC
  5
297
330
1F
100
AcDbEntity
  8
0
  6
CONTINUOUS
 62
     7
100
AcDbCircle
 10
-132.0
 20
286.0
 30
0.0
 40
23.0
100
AcDbArc
 50
107.8960484238821
 51
312.1039511308258
  0
ARC
  5
298
330
1F
100
AcDbEntity
  8
0
  6
CONTINUOUS
 62
     7
100
AcDbCircle
 10
-132.0
 20
286.0
 30
0.0
 40
23.0
100
AcDbArc
 50
347.8960493144662
 51
72.10395157611785
  0
ARC
  5
299
330
1F
100
AcDbEntity
  8
0
  6
CENTER
 62
     7
100
AcDbCircle
 10
-132.0
 20
286.0
 30
0.0
 40
52.40000152587891
100
AcDbArc
 50
359.9218576269388
 51
60.07814768517911
  0
ARC
  5
29A
330
1F
100
AcDbEntity
  8
0
  6
PHANTOM
 62
     7
100
AcDbCircle
 10
-132.0
 20
286.0
 30
0.0
 40
28.0
100
AcDbArc
 50
119.7549678004381
 51
140.2450321995618
  0
CIRCLE
  5
29B
330
1F
100
AcDbEntity
  8
0
  6
CONTINUOUS
 62
     7
100
AcDbCircle
 10
-149.9980530712231
 20
307.4492444073314
 30
0.0
 40
2.0
  0
CIRCLE
  5
29C
330
1F
100
AcDbEntity
  8
0
  6
CONTINUOUS
 62
     7
100
AcDbCircle
 10
-104.4253829156582
 20
290.862148974674
 30
0.0
 40
2.0
  0
ARC
  5
29D
330
1F
100
AcDbEntity
  8
0
  6
PHANTOM
 62
     7
100
AcDbCircle
 10
-132.0
 20
286.0
 30
0.0
 40
28.0
100
AcDbArc
 50
359.7549678004381
 51
56.78618640813001
  0
ARC
  5
29E
330
1F
100
AcDbEntity
  8
0
  6
PHANTOM
 62
     7
100
AcDbCircle
 10
-132.0
 20
286.0
 30
0.0
 40
28.0
100
AcDbArc
 50
227.290395508537
 51
260.2450321995618
  0
CIRCLE
  5
29F
330
1F
100
AcDbEntity
  8
0
  6
CONTINUOUS
 62
     7
100
AcDbCircle
 10
-149.9980530712231
 20
307.4492444073314
 30
0.0
 40
1.65
  0
CIRCLE
  5
2A0
330
1F
100
AcDbEntity
  8
0
  6
CONTINUOUS
 62
     7
100
AcDbCircle
 10
-104.4253829156582
 20
290.862148974674
 30
0.0
 40
1.65
  0
CIRCLE
  5
2A1
330
1F
100
AcDbEntity
  8
0
  6
CONTINUOUS
 62
     7
100
AcDbCircle
 10
-141.5765640131187
 20
259.6886066179946
 30
0.0
 40
2.0
  0
CIRCLE
  5
2A2
330
1F
100
AcDbEntity
  8
0
  6
CONTINUOUS
 62
     7
100
AcDbCircle
 10
-141.5765640131187
 20
259.6886066179946
 30
0.0
 40
1.65
  0
CIRCLE
  5
2A3
330
1F
100
AcDbEntity
  8
0
  6
CONTINUOUS
 62
     7
100
AcDbCircle
 10
-132.0
 20
215.0
 30
0.0
 40
3.375
  0
CIRCLE
  5
2A4
330
1F
100
AcDbEntity
  8
0
  6
CONTINUOUS
 62
     7
100
AcDbCircle
 10
-132.0
 20
230.0
 30
0.0
 40
4.0
  0
CIRCLE
  5
2A5
330
1F
100
AcDbEntity
  8
0
  6
CONTINUOUS
 62
     7
100
AcDbCircle
 10
-83.50257738807143
 20
314.0
 30
0.0
 40
3.25
  0
CIRCLE
  5
2A6
330
1F
100
AcDbEntity
  8
0
  6
CONTINUOUS
 62
     7
100
AcDbCircle
 10
-132.0
 20
230.0
 30
0.0
 40
3.375
  0
CIRCLE
  5
2A7
330
1F
100
AcDbEntity
  8
0
  6
CONTINUOUS
 62
     7
100
AcDbCircle
 10
-132.0
 20
215.0
 30
0.0
 40
4.0
  0
CIRCLE
  5
2A8
330
1F
100
AcDbEntity
  8
0
  6
CONTINUOUS
 62
     7
100
AcDbCircle
 10
-83.50257738807143
 20
314.0
 30
0.0
 40
4.0
  0
CIRCLE
  5
2A9
330
1F
100
AcDbEntity
  8
0
  6
CONTINUOUS
 62
     7
100
AcDbCircle
 10
-70.51219633130485
 20
321.5
 30
0.0
 40
3.25
  0
CIRCLE
  5
2AA
330
1F
100
AcDbEntity
  8
0
  6
CONTINUOUS
 62
     7
100
AcDbCircle
 10
-70.51219633130485
 20
321.5
 30
0.0
 40
4.0
  0
CIRCLE
  5
2AB
330
1F
100
AcDbEntity
  8
0
  6
CONTINUOUS
 62
     7
100
AcDbCircle
 10
-180.4974226119285
 20
314.0
 30
0.0
 40
3.25
  0
CIRCLE
  5
2AC
330
1F
100
AcDbEntity
  8
0
  6
CONTINUOUS
 62
     7
100
AcDbCircle
 10
-180.4974226119285
 20
314.0
 30
0.0
 40
4.0
  0
CIRCLE
  5
2AD
330
1F
100
AcDbEntity
  8
0
  6
CONTINUOUS
 62
     7
100
AcDbCircle
 10
-193.4878036686951
 20
321.5
 30
0.0
 40
3.25
  0
CIRCLE
  5
2AE
330
1F
100
AcDbEntity
  8
0
  6
CONTINUOUS
 62
     7
100
AcDbCircle
 10
-193.4878036686951
 20
321.5
 30
0.0
 40
4.0
  0
ARC
  5
2AF
330
1F
100
AcDbEntity
  8
0
  6
CONTINUOUS
 62
     7
100
AcDbCircle
 10
-132.0
 20
286.0
 30
0.0
 40
25.0
100
AcDbArc
 50
111.9142915167662
 51
142.7595001571732
  0
ARC
  5
2B0
330
1F
100
AcDbEntity
  8
0
  6
CONTINUOUS
 62
     7
100
AcDbCircle
 10
-132.0
 20
286.0
 30
0.0
 40
25.0
100
AcDbArc
 50
350.9920553857738
 51
22.7595004589479
  0
ARC
  5
2B1
330
1F
100
AcDbEntity
  8
0
  6
CONTINUOUS
 62
     7
100
AcDbCircle
 10
-132.0
 20
286.0
 30
0.0
 40
25.0
100
AcDbArc
 50
277.2404994945163
 51
308.0857080379417
  0
ARC
  5
2B2
330
1F
100
AcDbEntity
  8
0
  6
CONTINUOUS
 62
     7
100
AcDbCircle
 10
-132.0
 20
286.0
 30
0.0
 40
25.0
100
AcDbArc
 50
157.2404995410521
 51
262.7595008072583
  0
ARC
  5
2B3
330
1F
100
AcDbEntity
  8
0
  6
CONTINUOUS
 62
     7
100
AcDbCircle
 10
-132.0
 20
286.0
 30
0.0
 40
25.0
100
AcDbArc
 50
37.24049984282678
 51
69.00794201501007
  0
ARC
  5
2B4
330
1F
100
AcDbEntity
  8
0
  6
DASHED
 62
     7
100
AcDbCircle
 10
-132.0
 20
367.25
 30
0.0
 40
1.25
100
AcDbArc
 50
36.86989730957868
 51
143.1300974540939
  0
ARC
  5
2B5
330
1F
100
AcDbEntity
  8
0
  6
DASHED
 62
     7
100
AcDbCircle
 10
-202.364563263318
 20
245.3750000218744
 30
0.0
 40
1.25
100
AcDbArc
 50
156.8698977548707
 51
263.130097899386
  0
ARC
  5
2B6
330
1F
100
AcDbEntity
  8
0
  6
DASHED
 62
     7
100
AcDbCircle
 10
-61.63543673668195
 20
245.3750000218744
 30
0.0
 40
1.25
100
AcDbArc
 50
276.8698968642866
 51
23.13009700880183
  0
SPLINE
  5
2B7
330
1F
100
AcDbEntity
  8
0
  6
CONTINUOUS
 62
     7
100
AcDbSpline
210
0.0
220
0.0
230
1.0
 70
  1064
 71
     3
 72
    13
 73
     9
 74
     7
 42
0.0000000001
 43
0.0000000001
 44
0.0000000001
 12
0.9999494711879272
 22
-0.01005261513163742
 32
0.0
 13
0.8070803474370074
 23
-0.5904416252102822
 33
0.0
 40
0.0
 40
0.0
 40
0.0
 40
0.0
 40
14.02762970590624
 40
28.24559009864515
 40
42.85057550536394
 40
58.0507868027878
 40
73.94262140061716
 40
90.69493456896733
 40
90.69493456896733
 40
90.69493456896733
 40
90.69493456896733
 10
-220.0
 20
128.0999984741211
 30
0.0
 10
-215.324359697853
 20
128.0529936865736
 30
0.0
 10
-205.9040854895827
 20
127.483845685318
 30
0.0
 10
-191.8123725107507
 20
124.9739367384743
 30
0.0
 10
-177.7138685182369
 20
120.7846658895201
 30
0.0
 10
-163.6891528419648
 20
114.767603914383
 30
0.0
 10
-149.6401323243579
 20
107.188657988107
 30
0.0
 10
-140.5068209107619
 20
101.2370872514341
 30
0.0
 10
-136.0
 20
97.9399995803833
 30
0.0
 11
-220.0
 21
128.0999984741211
 31
0.0
 11
-206.0
 21
127.2200012207031
 31
0.0
 11
-192.0
 21
124.7400016784668
 31
0.0
 11
-178.0
 21
120.5800018310547
 31
0.0
 11
-164.0
 21
114.6599998474121
 31
0.0
 11
-150.0
 21
107.1399993896484
 31
0.0
 11
-136.0
 21
97.9399995803833
 31
0.0
  0
SPLINE
  5
2B8
330
1F
100
AcDbEntity
  8
0
  6
CONTINUOUS
 62
     7
100
AcDbSpline
210
0.0
220
0.0
230
1.0
 70
  1064
 71
     3
 72
    10
 73
     6
 74
     4
 42
0.0000000001
 43
0.0000000001
 44
0.0000000001
 12
0.3336668547493432
 22
-0.9426910575802027
 32
0.0
 13
0.3796534103587978
 23
-0.9251287953592917
 33
0.0
 40
0.0
 40
0.0
 40
0.0
 40
0.0
 40
6.348297971643921
 40
13.20035056557487
 40
20.30889453231246
 40
20.30889453231246
 40
20.30889453231246
 40
20.30889453231246
 10
-429.6677551269531
 20
241.1560668945312
 30
0.0
 10
-428.9616829212164
 20
239.1612389849568
 30
0.0
 10
-426.9365713784607
 20
234.9467756982908
 30
0.0
 10
-420.4039352921941
 20
232.100652267604
 30
0.0
 10
-418.0393479337941
 20
227.7921048048426
 30
0.0
 10
-417.1397536139083
 20
225.5999985659405
 30
0.0
 11
-429.6677551269531
 21
241.1560668945312
 31
0.0
 11
-426.5001831054688
 21
235.6544876098633
 31
0.0
 11
-420.9985961914062
 21
231.5699844360352
 31
0.0
 11
-417.1397536139083
 21
225.5999985659405
 31
0.0
  0
SPLINE
  5
2B9
330
1F
100
AcDbEntity
  8
0
  6
CONTINUOUS
 62
     7
100
AcDbSpline
210
0.0
220
0.0
230
1.0
 70
  1064
 71
     3
 72
    10
 73
     6
 74
     4
 42
0.0000000001
 43
0.0000000001
 44
0.0000000001
 12
-0.380294205782266
 22
-0.9248655670141663
 32
0.0
 13
-0.6282481047944859
 23
-0.7780130582593949
 33
0.0
 40
0.0
 40
0.0
 40
0.0
 40
0.0
 40
4.685863734103752
 40
9.4277099860751
 40
16.37841884887522
 40
16.37841884887522
 40
16.37841884887522
 40
16.37841884887522
 10
-393.1766431235236
 20
241.4205864708827
 30
0.0
 10
-393.7706453992453
 20
239.9759884644184
 30
0.0
 10
-394.6175302640056
 20
236.7622228516516
 30
0.0
 10
-392.3034146525654
 20
231.461656768641
 30
0.0
 10
-394.4524911646767
 20
227.5375584753072
 30
0.0
 10
-395.9080810546875
 20
225.734977722168
 30
0.0
 11
-393.1766431235236
 21
241.4205864708827
 31
0.0
 11
-394.07421875
 21
236.8214912414551
 31
0.0
 11
-393.2406616210938
 21
232.1534843444824
 31
0.0
 11
-395.9080810546875
 21
225.734977722168
 31
0.0
  0
MTEXT
  5
2BA
330
1F
100
AcDbEntity
  8
0
 62
     7
100
AcDbMText
 10
-22.20000000298023
 20
77.60000002384186
 30
0.0
 40
7.0
 41
0.0
 71
     5
 72
     1
  1
{\W1;S}
  0
MTEXT
  5
2BB
330
1F
100
AcDbEntity
  8
0
 62
     7
100
AcDbMText
 10
-22.40000000596046
 20
77.60000002384186
 30
0.0
 40
7.0
 41
0.0
 71
     5
 72
     1
  1
{\W1;S}
  0
MTEXT
  5
2BC
330
1F
100
AcDbEntity
  8
0
 62
     7
100
AcDbMText
 10
-22.30000001192093
 20
77.69999998807907
 30
0.0
 40
7.0
 41
0.0
 71
     5
 72
     1
  1
{\W1;S}
  0
MTEXT
  5
2BD
330
1F
100
AcDbEntity
  8
0
 62
     7
100
AcDbMText
 10
-22.30000001192093
 20
77.5
 30
0.0
 40
7.0
 41
0.0
 71
     5
 72
     1
  1
{\W1;S}
  0
MTEXT
  5
2BE
330
1F
100
AcDbEntity
  8
0
 62
     7
100
AcDbMText
 10
-206.0
 20
79.5
 30
0.0
 40
3.0
 41
0.0
 71
     5
 72
     1
  1
{\W1;1000}
  0
MTEXT
  5
2BF
330
1F
100
AcDbEntity
  8
0
 62
     7
100
AcDbMText
 10
-192.0
 20
79.5
 30
0.0
 40
3.0
 41
0.0
 71
     5
 72
     1
  1
{\W1;2000}
  0
MTEXT
  5
2C0
330
1F
100
AcDbEntity
  8
0
 62
     7
100
AcDbMText
 10
-136.0
 20
79.5
 30
0.0
 40
3.0
 41
0.0
 71
     5
 72
     1
  1
{\W1;6000}
  0
MTEXT
  5
2C1
330
1F
100
AcDbEntity
  8
0
 62
     7
100
AcDbMText
 10
-227.2857142388821
 20
89.0
 30
0.0
 40
3.0
 41
0.0
 71
     7
 72
     1
  1
{\W1;10}
  0
MTEXT
  5
2C2
330
1F
100
AcDbEntity
  8
0
 62
     7
100
AcDbMText
 10
-227.2857142388821
 20
97.0
 30
0.0
 40
3.0
 41
0.0
 71
     7
 72
     1
  1
{\W1;20}
  0
MTEXT
  5
2C3
330
1F
100
AcDbEntity
  8
0
 62
     7
100
AcDbMText
 10
-227.2857142388821
 20
129.0
 30
0.0
 40
3.0
 41
0.0
 71
     7
 72
     1
  1
{\W1;60}
  0
MTEXT
  5
2C4
330
1F
100
AcDbEntity
  8
0
 62
     7
100
AcDbMText
 10
-223.0
 20
79.5
 30
0.0
 40
3.0
 41
0.0
 71
     5
 72
     1
  1
{\W1;0}
  0
MTEXT
  5
2C5
330
1F
100
AcDbEntity
  8
0
 62
     7
100
AcDbMText
 10
-178.0
 20
73.5
 30
0.0
 40
3.5
 41
0.0
 71
     5
 72
     1
  1
{\W0.833333;回転数（ｒ／ｍｉｎ）}
  0
MTEXT
  5
2C6
330
1F
100
AcDbEntity
  8
0
 62
     7
100
AcDbMText
 10
-231.0
 20
106.5
 30
0.0
 40
3.5
 41
0.0
 71
     5
 72
     1
  1
{\W0.833333;把握力（ｋＮ）}
 11
6.123233995736766E-17
 21
1.0
 31
0.0
  0
MTEXT
  5
2C7
330
1F
100
AcDbEntity
  8
0
 62
     7
100
AcDbMText
 10
-227.2857142388821
 20
121.0
 30
0.0
 40
3.0
 41
0.0
 71
     7
 72
     1
  1
{\W1;50}
  0
MTEXT
  5
2C8
330
1F
100
AcDbEntity
  8
0
 62
     7
100
AcDbMText
 10
-227.2857142388821
 20
105.0
 30
0.0
 40
3.0
 41
0.0
 71
     7
 72
     1
  1
{\W1;30}
  0
MTEXT
  5
2C9
330
1F
100
AcDbEntity
  8
0
 62
     7
100
AcDbMText
 10
-227.2857142388821
 20
113.0
 30
0.0
 40
3.0
 41
0.0
 71
     7
 72
     1
  1
{\W1;40}
  0
MTEXT
  5
2CA
330
1F
100
AcDbEntity
  8
0
 62
     7
100
AcDbMText
 10
-178.0
 20
79.5
 30
0.0
 40
3.0
 41
0.0
 71
     5
 72
     1
  1
{\W1;3000}
  0
MTEXT
  5
2CB
330
1F
100
AcDbEntity
  8
0
 62
     7
100
AcDbMText
 10
-150.0
 20
79.5
 30
0.0
 40
3.0
 41
0.0
 71
     5
 72
     1
  1
{\W1;5000}
  0
MTEXT
  5
2CC
330
1F
100
AcDbEntity
  8
0
 62
     7
100
AcDbMText
 10
-164.0
 20
79.5
 30
0.0
 40
3.0
 41
0.0
 71
     5
 72
     1
  1
{\W1;4000}
  0
MTEXT
  5
2CD
330
1F
100
AcDbEntity
  8
0
 62
     7
100
AcDbMText
 10
-178.0
 20
135.5
 30
0.0
 40
3.5
 41
0.0
 71
     5
 72
     1
  1
{\W0.833333;把握力特性図（標準生爪使用時）}
  0
DIMENSION
  5
2CE
330
1F
100
AcDbEntity
  8
0
 62
     7
100
AcDbDimension
  2
*D2
 10
-483.999
 20
316.0
 30
0.0
 11
-483.999
 21
286.001
 31
0.0
 70
   160
  1
\U+220560
  3
ISO-25
100
AcDbAlignedDimension
 13
-427.0
 23
256.0
 33
0.0
 14
-427.0
 24
316.0
 34
0.0
 50
270.0
100
AcDbRotatedDimension
1001
ACAD
1000
DSTYLE
1002
{
1070
   287
1070
     3
1070
     7
1000
OPEN30
1070
     6
1000
OPEN30
1070
   278
1070
    46
1070
   147
1040
0.875
1070
    77
1070
     1
1070
    74
1070
     0
1070
    73
1070
     0
1070
    42
1040
2.54
1070
    44
1040
1.27001953125
1070
    76
1070
     0
1070
    75
1070
     0
1070
   279
1070
     0
1070
   271
1070
     0
1070
   173
1070
     1
1070
    41
1040
3.0
1070
   140
1040
3.5
1002
}
  0
DIMENSION
  5
2E2
330
1F
100
AcDbEntity
  8
0
 62
     7
100
AcDbDimension
  2
*D3
 10
-439.0
 20
187.001
 30
0.0
 11
-441.499
 21
187.001
 31
0.0
 70
   160
  1
5
  3
ISO-25
100
AcDbAlignedDimension
 13
-444.0
 23
203.5
 33
0.0
 14
-439.0
 24
217.0
 34
0.0
 50
180.0
100
AcDbRotatedDimension
1001
ACAD
1000
DSTYLE
1002
{
1070
   287
1070
     3
1070
     7
1000
OPEN30
1070
     6
1000
OPEN30
1070
   278
1070
    46
1070
   147
1040
0.875
1070
    77
1070
     1
1070
    74
1070
     0
1070
    73
1070
     0
1070
    42
1040
2.54
1070
    44
1040
1.270004272460938
1070
    76
1070
     1
1070
    75
1070
     0
1070
   279
1070
     0
1070
   271
1070
     0
1070
   173
1070
     1
1070
    41
1040
3.0
1070
   140
1040
3.5
1002
}
  0
DIMENSION
  5
2F6
330
1F
100
AcDbEntity
  8
0
 62
     7
100
AcDbDimension
  2
*D5
 10
-329.999
 20
257.0
 30
0.0
 11
-329.999
 21
286.001
 31
0.0
 70
   160
  1
\U+220558
  3
ISO-25
100
AcDbAlignedDimension
 13
-358.5025939941406
 23
315.0
 33
0.0
 14
-360.1000061035156
 24
257.0
 34
0.0
 50
90.00000000000001
100
AcDbRotatedDimension
1001
ACAD
1000
DSTYLE
1002
{
1070
   287
1070
     3
1070
     7
1000
OPEN30
1070
     6
1000
NONE
1070
   278
1070
    46
1070
   147
1040
0.875
1070
    77
1070
     1
1070
    74
1070
     0
1070
    73
1070
     0
1070
    42
1040
2.54
1070
    44
1040
1.270004272460938
1070
    76
1070
     0
1070
    75
1070
     1
1070
   279
1070
     0
1070
   271
1070
     0
1070
   173
1070
     1
1070
    41
1040
3.0
1070
   140
1040
3.5
1002
}
  0
DIMENSION
  5
309
330
1F
100
AcDbEntity
  8
0
 62
     7
100
AcDbDimension
  2
*D6
 10
-318.999
 20
251.0
 30
0.0
 11
-318.999
 21
286.001
 31
0.0
 70
   161
  1
\U+220570
  3
ISO-25
100
AcDbAlignedDimension
 13
-363.0
 23
321.0
 33
0.0
 14
-363.0
 24
251.0
 34
0.0
1001
ACAD
1000
DSTYLE
1002
{
1070
   287
1070
     3
1070
     7
1000
OPEN30
1070
     6
1000
NONE
1070
   278
1070
    46
1070
   147
1040
0.875
1070
    77
1070
     1
1070
    74
1070
     0
1070
    73
1070
     0
1070
    42
1040
2.54
1070
    44
1040
1.270004272460938
1070
    76
1070
     0
1070
    75
1070
     1
1070
   279
1070
     0
1070
   271
1070
     0
1070
   173
1070
     1
1070
    41
1040
3.0
1070
   140
1040
3.5
1002
}
  0
DIMENSION
  5
319
330
1F
100
AcDbEntity
  8
0
 62
     7
100
AcDbDimension
  2
*D7
 10
-148.5277313181452
 20
192.2665539441397
 30
0.0
 11
-142.946257187717
 21
191.4521058382894
 31
0.0
 70
   165
  1
15°
  3
ISO-25
100
AcDb3PointAngularDimension
 13
-149.1208742678892
 23
222.1040035199626
 33
0.0
 14
-132.0
 24
196.5
 34
0.0
 15
-132.0000029322258
 25
285.9999646789653
 35
0.0
1001
ACAD
1000
DSTYLE
1002
{
1070
   287
1070
     3
1070
     7
1000
OPEN30
1070
     6
1000
OPEN30
1070
   278
1070
    46
1070
   275
1070
     1
1070
   147
1040
0.875
1070
    77
1070
     1
1070
    74
1070
     0
1070
    73
1070
     0
1070
    42
1040
2.54
1070
    44
1040
1.270000000000039
1070
    76
1070
     0
1070
    75
1070
     0
1070
   279
1070
     0
1070
   179
1070
     0
1070
   173
1070
     1
1070
    41
1040
3.0
1070
   140
1040
3.5
1002
}
  0
DIMENSION
  5
330
330
1F
100
AcDbEntity
  8
0
 62
     7
100
AcDbDimension
  2
*D8
 10
-123.7045353252868
 20
191.1823749998251
 30
0.0
 11
-119.5744500702162
 21
191.6347390086197
 31
0.0
 70
   165
  1
15°
  3
ISO-25
100
AcDb3PointAngularDimension
 13
-132.0000000000001
 23
196.5
 33
0.0
 14
-114.8791226984227
 24
222.1040043328369
 34
0.0
 15
-132.0000000000001
 25
286.0000311537414
 35
0.0
1001
ACAD
1000
DSTYLE
1002
{
1070
   287
1070
     3
1070
     7
1000
OPEN30
1070
     6
1000
OPEN30
1070
   278
1070
    46
1070
   275
1070
     1
1070
   147
1040
0.875
1070
    77
1070
     1
1070
    74
1070
     0
1070
    73
1070
     0
1070
    42
1040
2.54
1070
    44
1040
1.270000000000059
1070
    76
1070
     0
1070
    75
1070
     1
1070
   279
1070
     0
1070
   179
1070
     0
1070
   173
1070
     1
1070
    41
1040
3.0
1070
   140
1040
3.5
1002
}
  0
DIMENSION
  5
33E
330
1F
100
AcDbEntity
  8
0
 62
     7
100
AcDbDimension
  2
*D9
 10
-232.306932781619
 20
221.1595632585781
 30
0.0
 11
-235.3073654174805
 21
226.3564649353027
 31
0.0
 70
   160
  1
12h8
  3
ISO-25
100
AcDbAlignedDimension
 13
-247.1843572590815
 23
226.4264846002262
 33
0.0
 14
-241.1843571783145
 24
216.0341798014438
 34
0.0
 50
120.000000445292
100
AcDbRotatedDimension
1001
ACAD
1000
DSTYLE
1002
{
1070
   287
1070
     3
1070
     7
1000
OPEN30
1070
     6
1000
OPEN30
1070
   278
1070
    46
1070
   147
1040
0.875
1070
    77
1070
     1
1070
    74
1070
     0
1070
    73
1070
     0
1070
    42
1040
2.54
1070
    44
1040
1.269996643066373
1070
    76
1070
     0
1070
    75
1070
     0
1070
   279
1070
     0
1070
   271
1070
     0
1070
   173
1070
     1
1070
    41
1040
3.0
1070
   140
1040
3.5
1002
}
  0
DIMENSION
  5
34B
330
1F
100
AcDbEntity
  8
0
 62
     7
100
AcDbDimension
  2
*D10
 10
-281.3539333564811
 20
189.9555124065911
 30
0.0
 11
-285.6041177978516
 21
197.317047668457
 31
0.0
 70
   160
  1
17
  3
ISO-25
100
AcDbAlignedDimension
 13
-262.2907636742845
 23
220.5915479922831
 33
0.0
 14
-253.7907635598646
 24
205.8691161940081
 34
0.0
 50
120.000000445292
100
AcDbRotatedDimension
1001
ACAD
1000
DSTYLE
1002
{
1070
   287
1070
     3
1070
     7
1000
OPEN30
1070
     6
1000
OPEN30
1070
   278
1070
    46
1070
   147
1040
0.875
1070
    77
1070
     1
1070
    74
1070
     0
1070
    73
1070
     0
1070
    42
1040
2.54
1070
    44
1040
1.270004272460968
1070
    76
1070
     0
1070
    75
1070
     0
1070
   279
1070
     0
1070
   271
1070
     0
1070
   173
1070
     1
1070
    41
1040
3.0
1070
   140
1040
3.5
1002
}
  0
DIMENSION
  5
358
330
1F
100
AcDbEntity
  8
0
 62
     7
100
AcDbDimension
  2
*D11
 10
-235.9730150673398
 20
185.0078709477646
 30
0.0
 11
-231.2086939086914
 21
187.7585531005859
 31
0.0
 70
   160
  1
11
  3
ISO-25
100
AcDbAlignedDimension
 13
-241.1843571783145
 23
216.0341798014439
 33
0.0
 14
-249.0856356016496
 24
207.7195955259248
 34
0.0
 50
30.00000044529218
100
AcDbRotatedDimension
1001
ACAD
1000
DSTYLE
1002
{
1070
   287
1070
     3
1070
     7
1000
OPEN30
1070
     6
1000
OPEN30
1070
   278
1070
    46
1070
   147
1040
0.875
1070
    77
1070
     1
1070
    74
1070
     0
1070
    73
1070
     0
1070
    42
1040
2.54
1070
    44
1040
1.360015869140633
1070
    76
1070
     0
1070
    75
1070
     0
1070
   279
1070
     0
1070
   271
1070
     0
1070
   173
1070
     1
1070
    41
1040
3.0
1070
   140
1040
3.5
1002
}
  0
DIMENSION
  5
365
330
1F
100
AcDbEntity
  8
0
 62
     7
100
AcDbDimension
  2
*D12
 10
-242.4684542245479
 20
181.2583015855135
 30
0.0
 11
-251.6444263491727
 21
175.9605515141996
 31
0.0
 70
   160
  1
7.5
  3
ISO-25
100
AcDbAlignedDimension
 13
-249.0856365553239
 23
207.7195971777371
 33
0.0
 14
-257.2058270764373
 24
206.784179676928
 34
0.0
 50
30.00000044529206
100
AcDbRotatedDimension
1001
ACAD
1000
DSTYLE
1002
{
1070
   287
1070
     3
1070
     7
1000
OPEN30
1070
     6
1000
OPEN30
1070
   278
1070
    46
1070
   147
1040
0.875
1070
    77
1070
     1
1070
    74
1070
     0
1070
    73
1070
     0
1070
    42
1040
2.54
1070
    44
1040
1.270000457763676
1070
    76
1070
     0
1070
    75
1070
     1
1070
   279
1070
     0
1070
    78
1070
     0
1070
   271
1070
     1
1070
   173
1070
     1
1070
    41
1040
3.0
1070
   140
1040
3.5
1002
}
  0
DIMENSION
  5
37B
330
1F
100
AcDbEntity
  8
0
 62
     7
100
AcDbDimension
  2
*D14
 10
-262.1676260078411
 20
246.3782669515151
 30
0.0
 11
-252.5865705024138
 21
251.9098920259773
 31
0.0
 70
   160
  1
3
  3
ISO-25
100
AcDbAlignedDimension
 13
-247.1843572590815
 23
226.4264846002263
 33
0.0
 14
-254.2824282741436
 24
232.7207040941532
 34
0.0
 50
30.00000044529245
100
AcDbRotatedDimension
1001
ACAD
1000
DSTYLE
1002
{
1070
   287
1070
     3
1070
     7
1000
ORIGIN
1070
     6
1000
OPEN30
1070
   278
1070
    46
1070
   147
1040
0.875
1070
    77
1070
     1
1070
    74
1070
     0
1070
    73
1070
     0
1070
    42
1040
2.54
1070
    44
1040
1.269998550415097
1070
    76
1070
     0
1070
    75
1070
     0
1070
   279
1070
     0
1070
   271
1070
     0
1070
   173
1070
     1
1070
    41
1040
3.0
1070
   140
1040
3.5
1002
}
  0
DIMENSION
  5
397
330
1F
100
AcDbEntity
  8
0
 62
     7
100
AcDbDimension
  2
*D15
 10
-263.8999274178086
 20
245.3787010075946
 30
0.0
 11
-270.8904844457896
 21
241.3427009532654
 31
0.0
 70
   160
  1
2
  3
ISO-25
100
AcDbAlignedDimension
 13
-254.782433526083
 23
233.5867385790198
 33
0.0
 14
-261.0144843864554
 24
240.3809671646455
 34
0.0
 50
30.00000044529097
100
AcDbRotatedDimension
1001
ACAD
1000
DSTYLE
1002
{
1070
   287
1070
     3
1070
     7
1000
OPEN30
1070
     6
1000
NONE
1070
   278
1070
    46
1070
   147
1040
0.875
1070
    77
1070
     1
1070
    74
1070
     0
1070
    73
1070
     0
1070
    42
1040
2.54
1070
    44
1040
1.269998550415146
1070
    76
1070
     1
1070
    75
1070
     1
1070
   279
1070
     0
1070
   271
1070
     0
1070
   173
1070
     1
1070
    41
1040
3.0
1070
   140
1040
3.5
1002
}
  0
DIMENSION
  5
3A7
330
1F
100
AcDbEntity
  8
0
 62
     7
100
AcDbDimension
  2
*D16
 10
-119.0
 20
385.0
 30
0.0
 11
-131.999
 21
385.0
 31
0.0
 70
   160
  1
26
  3
ISO-25
100
AcDbAlignedDimension
 13
-145.0
 23
371.25
 33
0.0
 14
-119.0
 24
371.25
 34
0.0
 50
180.0
100
AcDbRotatedDimension
1001
ACAD
1000
DSTYLE
1002
{
1070
   287
1070
     3
1070
     7
1000
OPEN30
1070
     6
1000
OPEN30
1070
   278
1070
    46
1070
   147
1040
0.875
1070
    77
1070
     1
1070
    74
1070
     0
1070
    73
1070
     0
1070
    42
1040
2.54
1070
    44
1040
1.269996643066406
1070
    76
1070
     0
1070
    75
1070
     0
1070
   279
1070
     0
1070
   271
1070
     0
1070
   173
1070
     1
1070
    41
1040
3.0
1070
   140
1040
3.5
1002
}
  0
DIMENSION
  5
3B4
330
1F
100
AcDbEntity
  8
0
 62
     7
100
AcDbDimension
  2
*D17
 10
-439.0
 20
176.0
 30
0.0
 11
-400.998
 21
176.0
 31
0.0
 70
   160
  1
76
  3
ISO-25
100
AcDbAlignedDimension
 13
-363.0
 23
152.7299957275391
 33
0.0
 14
-439.0
 24
174.7299957275391
 34
0.0
100
AcDbRotatedDimension
1001
ACAD
1000
DSTYLE
1002
{
1070
   287
1070
     3
1070
     7
1000
OPEN30
1070
     6
1000
OPEN30
1070
   278
1070
    46
1070
   147
1040
0.875
1070
    77
1070
     1
1070
    74
1070
     0
1070
    73
1070
     0
1070
    42
1040
2.54
1070
    44
1040
1.269996643066406
1070
    76
1070
     1
1070
    75
1070
     1
1070
   279
1070
     0
1070
   271
1070
     0
1070
   173
1070
     1
1070
    41
1040
3.0
1070
   140
1040
3.5
1002
}
  0
DIMENSION
  5
3BF
330
1F
100
AcDbEntity
  8
0
 62
     7
100
AcDbDimension
  2
*D18
 10
-368.0
 20
187.001
 30
0.0
 11
-365.498
 21
187.001
 31
0.0
 70
   160
  1
5
  3
ISO-25
100
AcDbAlignedDimension
 13
-363.0
 23
203.5
 33
0.0
 14
-368.0
 24
251.0
 34
0.0
100
AcDbRotatedDimension
1001
ACAD
1000
DSTYLE
1002
{
1070
   287
1070
     3
1070
     7
1000
OPEN30
1070
     6
1000
OPEN30
1070
   278
1070
    46
1070
   147
1040
0.875
1070
    77
1070
     1
1070
    74
1070
     0
1070
    73
1070
     0
1070
    42
1040
2.54
1070
    44
1040
1.269996643066406
1070
    76
1070
     0
1070
    75
1070
     1
1070
   279
1070
     0
1070
   271
1070
     0
1070
   173
1070
     1
1070
    41
1040
3.0
1070
   140
1040
3.5
1002
}
  0
INSERT
  5
3D9
330
1F
100
AcDbEntity
  8
0
 62
     7
100
AcDbBlockReference
  2
SYM0001
 10
-372.4317554257786
 20
254.4999892300316
 30
0.0
  0
DIMENSION
  5
3DC
330
1F
100
AcDbEntity
  8
0
 62
     7
100
AcDbDimension
  2
*D20
 10
-427.0
 20
341.001
 30
0.0
 11
-414.2455
 21
341.001
 31
0.0
 70
   160
  1
\A1;MAX{\H0.5x;\S ;}12\PMIN{\H0.5x;\S ;} 0
  3
ISO-25
100
AcDbAlignedDimension
 13
-439.0
 23
356.0
 33
0.0
 14
-427.0
 24
331.5
 34
0.0
 50
180.0
100
AcDbRotatedDimension
1001
ACAD
1000
DSTYLE
1002
{
1070
   287
1070
     3
1070
     7
1000
OPEN30
1070
     6
1000
OPEN30
1070
   278
1070
    46
1070
   147
1040
0.875
1070
    77
1070
     1
1070
    74
1070
     0
1070
    73
1070
     0
1070
    42
1040
2.54
1070
    44
1040
1.270000457763672
1070
    76
1070
     0
1070
    75
1070
     1
1070
   279
1070
     0
1070
   271
1070
     0
1070
   173
1070
     1
1070
    41
1040
3.0
1070
   140
1040
3.5
1002
}
  0
INSERT
  5
3EF
330
1F
100
AcDbEntity
  8
0
 62
     7
100
AcDbBlockReference
  2
SYM0002
 10
-249.1404387620607
 20
224.1424369377595
 30
0.0
  0
DIMENSION
  5
3F2
330
1F
100
AcDbEntity
  8
0
 62
     7
100
AcDbDimension
  2
*D22
 10
-176.3697264687864
 20
212.5386053391488
 30
0.0
 11
-182.4730951330059
 21
202.4334726307397
 31
0.0
 70
   163
  1
\U+2205171.6
  3
ISO-25
100
AcDbDiametricDimension
 15
-124.0534752134301
 25
299.1567814360794
 35
0.0
 40
0.0
1001
ACAD
1000
DSTYLE
1002
{
1070
   287
1070
     3
1070
     7
1000
OPEN30
1070
     6
1000
NONE
1070
   147
1040
0.875
1070
    77
1070
     1
1070
    74
1070
     0
1070
    73
1070
     0
1070
   279
1070
     0
1070
    78
1070
     0
1070
   271
1070
     1
1070
   278
1070
    46
1070
   173
1070
     1
1070
    41
1040
3.0
1070
   140
1040
3.5
1002
}
  0
DIMENSION
  5
401
330
1F
100
AcDbEntity
  8
0
 62
     7
100
AcDbDimension
  2
*D23
 10
-307.999
 20
339.2503356933594
 30
0.0
 11
-307.999
 21
349.2513356933594
 31
0.0
 70
   160
  1
20
  3
ISO-25
100
AcDbAlignedDimension
 13
-329.8472137451172
 23
359.2503356933594
 33
0.0
 14
-328.6990051269531
 24
339.2503356933594
 34
0.0
 50
90.00000000000001
100
AcDbRotatedDimension
1001
ACAD
1000
DSTYLE
1002
{
1070
   287
1070
     3
1070
     7
1000
OPEN30
1070
     6
1000
OPEN30
1070
   278
1070
    46
1070
   147
1040
0.875
1070
    77
1070
     1
1070
    74
1070
     0
1070
    73
1070
     0
1070
    42
1040
2.54
1070
    44
1040
1.270004272460938
1070
    76
1070
     0
1070
    75
1070
     1
1070
   279
1070
     0
1070
   271
1070
     0
1070
   173
1070
     1
1070
    41
1040
3.0
1070
   140
1040
3.5
1002
}
  0
DIMENSION
  5
40D
330
1F
100
AcDbEntity
  8
0
 62
     7
100
AcDbDimension
  2
*D24
 10
-307.999
 20
359.2503356933594
 30
0.0
 11
-307.999
 21
365.2513356933594
 31
0.0
 70
   160
  1
12
  3
ISO-25
100
AcDbAlignedDimension
 13
-333.6990051269531
 23
371.2503356933594
 33
0.0
 14
-328.6990051269531
 24
359.2503356933594
 34
0.0
 50
90.00000000000001
100
AcDbRotatedDimension
1001
ACAD
1000
DSTYLE
1002
{
1070
   287
1070
     3
1070
     7
1000
OPEN30
1070
     6
1000
OPEN30
1070
   278
1070
    46
1070
   147
1040
0.875
1070
    77
1070
     1
1070
    74
1070
     0
1070
    73
1070
     0
1070
    42
1040
2.54
1070
    44
1040
1.270004272460938
1070
    76
1070
     0
1070
    75
1070
     1
1070
   279
1070
     0
1070
   271
1070
     0
1070
   173
1070
     1
1070
    41
1040
3.0
1070
   140
1040
3.5
1002
}
  0
DIMENSION
  5
419
330
1F
100
AcDbEntity
  8
0
 62
     7
100
AcDbDimension
  2
*D25
 10
-297.0
 20
371.2503356933594
 30
0.0
 11
-297.0
 21
338.2513356933594
 31
0.0
 70
   160
  1
66
  3
ISO-25
100
AcDbAlignedDimension
 13
-333.6990051269531
 23
305.2503356933594
 33
0.0
 14
-333.6990051269531
 24
371.2503356933594
 34
0.0
 50
270.0
100
AcDbRotatedDimension
1001
ACAD
1000
DSTYLE
1002
{
1070
   287
1070
     3
1070
     7
1000
OPEN30
1070
     6
1000
OPEN30
1070
   278
1070
    46
1070
   147
1040
0.875
1070
    77
1070
     1
1070
    74
1070
     0
1070
    73
1070
     0
1070
    42
1040
2.54
1070
    44
1040
1.270004272460938
1070
    76
1070
     0
1070
    75
1070
     0
1070
   279
1070
     0
1070
   271
1070
     0
1070
   173
1070
     1
1070
    41
1040
3.0
1070
   140
1040
3.5
1002
}
  0
DIMENSION
  5
426
330
1F
100
AcDbEntity
  8
0
 62
     7
100
AcDbDimension
  2
*D26
 10
-333.6990051269531
 20
395.9956893920898
 30
0.0
 11
-348.3485025634766
 21
395.9956893920898
 31
0.0
 70
   160
  1
29
  3
ISO-25
100
AcDbAlignedDimension
 13
-363.0
 23
368.5
 33
0.0
 14
-333.6990051269531
 24
371.25
 34
0.0
 50
180.0
100
AcDbRotatedDimension
1001
ACAD
1000
DSTYLE
1002
{
1070
   287
1070
     3
1070
     7
1000
OPEN30
1070
     6
1000
OPEN30
1070
   278
1070
    46
1070
   147
1040
0.875
1070
    77
1070
     1
1070
    74
1070
     0
1070
    73
1070
     0
1070
    42
1040
2.54
1070
    44
1040
1.269996643066406
1070
    76
1070
     0
1070
    75
1070
     0
1070
   279
1070
     0
1070
   271
1070
     0
1070
   173
1070
     1
1070
    41
1040
3.0
1070
   140
1040
3.5
1002
}
  0
INSERT
  5
439
330
1F
100
AcDbEntity
  8
0
 62
     7
100
AcDbBlockReference
  2
SYM0003
 10
-361.0000004441191
 20
369.9232219989714
 30
0.0
  0
DIMENSION
  5
43C
330
1F
100
AcDbEntity
  8
0
 62
     7
100
AcDbDimension
  2
*D28
 10
-307.999
 20
305.25
 30
0.0
 11
-307.999
 21
322.251
 31
0.0
 70
   160
  1
34
  3
ISO-25
100
AcDbAlignedDimension
 13
-330.2590789794922
 23
339.25
 33
0.0
 14
-333.6990051269531
 24
305.25
 34
0.0
 50
90.00000000000001
100
AcDbRotatedDimension
1001
ACAD
1000
DSTYLE
1002
{
1070
   287
1070
     3
1070
     7
1000
OPEN30
1070
     6
1000
OPEN30
1070
   278
1070
    46
1070
   147
1040
0.875
1070
    77
1070
     1
1070
    74
1070
     0
1070
    73
1070
     0
1070
    42
1040
2.54
1070
    44
1040
1.270004272460938
1070
    76
1070
     1
1070
    75
1070
     1
1070
   279
1070
     0
1070
   271
1070
     0
1070
   173
1070
     1
1070
    41
1040
3.0
1070
   140
1040
3.5
1002
}
  0
DIMENSION
  5
447
330
1F
100
AcDbEntity
  8
0
 62
     7
100
AcDbDimension
  2
*D29
 10
-386.998
 20
286.0
 30
0.0
 11
-386.998
 21
336.6407271118164
 31
0.0
 70
   160
  1
MAX 32.75\PMIN 29.98
  3
ISO-25
100
AcDbAlignedDimension
 13
-361.0
 23
318.7499771118164
 33
0.0
 14
-358.0
 24
286.0
 34
0.0
 50
90.00000000000001
100
AcDbRotatedDimension
1001
ACAD
1000
DSTYLE
1002
{
1070
   287
1070
     3
1070
     7
1000
OPEN30
1070
     6
1000
OPEN30
1070
   278
1070
    46
1070
   147
1040
0.875
1070
    77
1070
     1
1070
    74
1070
     0
1070
    73
1070
     0
1070
    42
1040
2.54
1070
    44
1040
1.269989013671875
1070
    76
1070
     1
1070
    75
1070
     0
1070
   279
1070
     0
1070
    78
1070
     0
1070
   271
1070
     2
1070
   173
1070
     1
1070
    41
1040
3.0
1070
   140
1040
3.5
1002
}
  0
DIMENSION
  5
454
330
1F
100
AcDbEntity
  8
0
 62
     7
100
AcDbDimension
  2
*D30
 10
-373.998
 20
318.7499771118164
 30
0.0
 11
-373.998
 21
333.7106481323242
 31
0.0
 70
   160
  1
MAX 22\PMIN  8.5
  3
ISO-25
100
AcDbAlignedDimension
 13
-368.0
 23
339.25
 33
0.0
 14
-361.0
 24
318.7499771118164
 34
0.0
 50
90.00000000000001
100
AcDbRotatedDimension
1001
ACAD
1000
DSTYLE
1002
{
1070
   287
1070
     3
1070
     7
1000
OPEN30
1070
     6
1000
OPEN30
1070
    71
1070
     0
1070
    72
1070
     1
1070
    48
1040
0.0
1070
    47
1040
0.0
1070
   278
1070
    46
1070
   147
1040
0.875
1070
    77
1070
     1
1070
    74
1070
     0
1070
    73
1070
     0
1070
    42
1040
2.54
1070
    44
1040
1.270004272460938
1070
    76
1070
     1
1070
    75
1070
     0
1070
   279
1070
     0
1070
   271
1070
     0
1070
   173
1070
     1
1070
    41
1040
3.0
1070
   140
1040
3.5
1002
}
  0
DIMENSION
  5
460
330
1F
100
AcDbEntity
  8
0
 62
     7
100
AcDbDimension
  2
*D31
 10
-363.0
 20
395.9956893920898
 30
0.0
 11
-378.999
 21
395.9956893920898
 31
0.0
 70
   160
  1
32
  3
ISO-25
100
AcDbAlignedDimension
 13
-395.0
 23
371.8210296630859
 33
0.0
 14
-363.0
 24
368.5
 34
0.0
 50
180.0
100
AcDbRotatedDimension
1001
ACAD
1000
DSTYLE
1002
{
1070
   287
1070
     3
1070
     7
1000
OPEN30
1070
     6
1000
OPEN30
1070
   278
1070
    46
1070
   147
1040
0.875
1070
    77
1070
     1
1070
    74
1070
     0
1070
    73
1070
     0
1070
    42
1040
2.54
1070
    44
1040
1.269996643066406
1070
    76
1070
     1
1070
    75
1070
     0
1070
   279
1070
     0
1070
   271
1070
     0
1070
   173
1070
     1
1070
    41
1040
3.0
1070
   140
1040
3.5
1002
}
  0
DIMENSION
  5
46C
330
1F
100
AcDbEntity
  8
0
 62
     7
100
AcDbDimension
  2
*D32
 10
-378.25
 20
375.3574752807617
 30
0.0
 11
-385.999
 21
375.3574752807617
 31
0.0
 70
   160
  1
\U+220515.5
  3
ISO-25
100
AcDbAlignedDimension
 13
-393.75
 23
370.5043106079102
 33
0.0
 14
-378.25
 24
370.5043106079102
 34
0.0
 50
180.0
100
AcDbRotatedDimension
1001
ACAD
1000
DSTYLE
1002
{
1070
   287
1070
     3
1070
     7
1000
OPEN30
1070
     6
1000
OPEN30
1070
   278
1070
    46
1070
   147
1040
0.875
1070
    77
1070
     1
1070
    74
1070
     0
1070
    73
1070
     0
1070
    42
1040
2.54
1070
    44
1040
1.269996643066406
1070
    76
1070
     0
1070
    75
1070
     0
1070
   279
1070
     0
1070
    78
1070
     0
1070
   271
1070
     1
1070
   173
1070
     1
1070
    41
1040
3.0
1070
   140
1040
3.5
1002
}
  0
DIMENSION
  5
479
330
1F
100
AcDbEntity
  8
0
 62
     7
100
AcDbDimension
  2
*D33
 10
-363.0
 20
385.0
 30
0.0
 11
-374.499
 21
385.0
 31
0.0
 70
   160
  1
23
  3
ISO-25
100
AcDbAlignedDimension
 13
-386.0
 23
381.1337966918945
 33
0.0
 14
-363.0
 24
368.5
 34
0.0
 50
180.0
100
AcDbRotatedDimension
1001
ACAD
1000
DSTYLE
1002
{
1070
   287
1070
     3
1070
     7
1000
OPEN30
1070
     6
1000
OPEN30
1070
   278
1070
    46
1070
   147
1040
0.875
1070
    77
1070
     1
1070
    74
1070
     0
1070
    73
1070
     0
1070
    42
1040
2.54
1070
    44
1040
1.269996643066406
1070
    76
1070
     1
1070
    75
1070
     0
1070
   279
1070
     0
1070
   271
1070
     0
1070
   173
1070
     1
1070
    41
1040
3.0
1070
   140
1040
3.5
1002
}
  0
DIMENSION
  5
485
330
1F
100
AcDbEntity
  8
0
 62
     7
100
AcDbDimension
  2
*D34
 10
-399.9284504394532
 20
359.5043106079102
 30
0.0
 11
-399.9284504394532
 21
365.0031514892578
 31
0.0
 70
   160
  1
11
  3
ISO-25
100
AcDbAlignedDimension
 13
-362.0
 23
370.5
 33
0.0
 14
-393.75
 24
359.5043106079102
 34
0.0
 50
90.00000000000001
100
AcDbRotatedDimension
1001
ACAD
1000
DSTYLE
1002
{
1070
   287
1070
     3
1070
     7
1000
OPEN30
1070
     6
1000
OPEN30
1070
   278
1070
    46
1070
   147
1040
0.875
1070
    77
1070
     1
1070
    74
1070
     0
1070
    73
1070
     0
1070
    42
1040
2.54
1070
    44
1040
1.269989013671875
1070
    76
1070
     0
1070
    75
1070
     1
1070
   279
1070
     0
1070
   271
1070
     0
1070
   173
1070
     1
1070
    41
1040
3.0
1070
   140
1040
3.5
1002
}
  0
DIMENSION
  5
491
330
1F
100
AcDbEntity
  8
0
 62
     7
100
AcDbDimension
  2
*D35
 10
-399.9284504394532
 20
352.5043106079102
 30
0.0
 11
-399.9284504394532
 21
356.0053106079101
 31
0.0
 70
   160
  1
7
  3
ISO-25
100
AcDbAlignedDimension
 13
-393.75
 23
359.5043106079102
 33
0.0
 14
-389.0
 24
352.5043106079102
 34
0.0
 50
90.00000000000001
100
AcDbRotatedDimension
1001
ACAD
1000
DSTYLE
1002
{
1070
   287
1070
     3
1070
     7
1000
OPEN30
1070
     6
1000
OPEN30
1070
   278
1070
    46
1070
   147
1040
0.875
1070
    77
1070
     1
1070
    74
1070
     0
1070
    73
1070
     0
1070
    42
1040
2.54
1070
    44
1040
1.269989013671875
1070
    76
1070
     0
1070
    75
1070
     1
1070
   279
1070
     0
1070
   271
1070
     0
1070
   173
1070
     1
1070
    41
1040
3.0
1070
   140
1040
3.5
1002
}
  0
INSERT
  5
4A5
330
1F
100
AcDbEntity
  8
0
 62
     7
100
AcDbBlockReference
  2
SYM0004
 10
-389.0000047118186
 20
355.7738194725283
 30
0.0
  0
INSERT
  5
4AD
330
1F
100
AcDbEntity
  8
0
 62
     7
100
AcDbBlockReference
  2
SYM0005
 10
-387.5686373031974
 20
366.1690248428728
 30
0.0
  0
INSERT
  5
4B5
330
1F
100
AcDbEntity
  8
0
 62
     7
100
AcDbBlockReference
  2
SYM0006
 10
-134.1897755210111
 20
366.9722186059387
 30
0.0
  0
DIMENSION
  5
4B8
330
1F
100
AcDbEntity
  8
0
 62
     7
100
AcDbDimension
  2
*D39
 10
-341.0
 20
309.0
 30
0.0
 11
-341.0
 21
286.001
 31
0.0
 70
   160
  1
\U+220546
  3
ISO-25
100
AcDbAlignedDimension
 13
-364.4999970392237
 23
263.0
 33
0.0
 14
-364.4999970392237
 24
309.0
 34
0.0
 50
270.0
100
AcDbRotatedDimension
1001
ACAD
1000
DSTYLE
1002
{
1070
   287
1070
     3
1070
     7
1000
NONE
1070
     6
1000
OPEN30
1070
   278
1070
    46
1070
   147
1040
0.875
1070
    77
1070
     1
1070
    74
1070
     0
1070
    73
1070
     0
1070
    42
1040
2.54
1070
    44
1040
1.269999999999982
1070
    76
1070
     1
1070
    75
1070
     0
1070
   279
1070
     0
1070
   271
1070
     0
1070
   173
1070
     1
1070
    41
1040
3.0
1070
   140
1040
3.5
1002
}
  0
DIMENSION
  5
4C7
330
1F
100
AcDbEntity
  8
0
 62
     7
100
AcDbDimension
  2
*D40
 10
-505.999
 20
356.0
 30
0.0
 11
-505.999
 21
286.001
 31
0.0
 70
   160
  1
\U+2205140H6
  3
ISO-25
100
AcDbAlignedDimension
 13
-444.0
 23
216.0
 33
0.0
 14
-444.0
 24
356.0
 34
0.0
 50
270.0
100
AcDbRotatedDimension
1001
ACAD
1000
DSTYLE
1002
{
1070
   287
1070
     3
1070
     7
1000
OPEN30
1070
     6
1000
OPEN30
1070
   278
1070
    46
1070
   147
1040
0.875
1070
    77
1070
     1
1070
    74
1070
     0
1070
    73
1070
     0
1070
    42
1040
2.54
1070
    44
1040
1.269989013671875
1070
    76
1070
     0
1070
    75
1070
     0
1070
   279
1070
     0
1070
   271
1070
     0
1070
   173
1070
     1
1070
    41
1040
3.0
1070
   140
1040
3.5
1002
}
  0
DIMENSION
  5
4D4
330
1F
100
AcDbEntity
  8
0
 62
     7
100
AcDbDimension
  2
*D41
 10
-516.998
 20
201.5
 30
0.0
 11
-516.998
 21
286.001
 31
0.0
 70
   161
  1
\U+2205169
  3
ISO-25
100
AcDbAlignedDimension
 13
-442.0
 23
370.5
 33
0.0
 14
-442.0
 24
201.5
 34
0.0
1001
ACAD
1000
DSTYLE
1002
{
1070
   287
1070
     3
1070
     7
1000
OPEN30
1070
     6
1000
OPEN30
1070
   278
1070
    46
1070
   147
1040
0.875
1070
    77
1070
     1
1070
    74
1070
     0
1070
    73
1070
     0
1070
    42
1040
2.54
1070
    44
1040
1.269989013671875
1070
    76
1070
     0
1070
    75
1070
     0
1070
   279
1070
     0
1070
   271
1070
     0
1070
   173
1070
     1
1070
    41
1040
3.0
1070
   140
1040
3.5
1002
}
  0
DIMENSION
  5
4E1
330
1F
100
AcDbEntity
  8
0
 62
     7
100
AcDbDimension
  2
*D42
 10
-494.998
 20
233.5999984741211
 30
0.0
 11
-494.998
 21
286.001
 31
0.0
 70
   160
  1
\U+2205104.8
  3
ISO-25
100
AcDbAlignedDimension
 13
-476.6539916992188
 23
338.4000015258789
 33
0.0
 14
-459.0
 24
233.5999984741211
 34
0.0
 50
90.00000000000001
100
AcDbRotatedDimension
1001
ACAD
1000
DSTYLE
1002
{
1070
   287
1070
     3
1070
     7
1000
OPEN30
1070
     6
1000
NONE
1070
   278
1070
    46
1070
   147
1040
0.875
1070
    77
1070
     1
1070
    74
1070
     0
1070
    73
1070
     0
1070
    42
1040
2.54
1070
    44
1040
1.269989013671875
1070
    76
1070
     0
1070
    75
1070
     1
1070
   279
1070
     0
1070
    78
1070
     0
1070
   271
1070
     1
1070
   173
1070
     1
1070
    41
1040
3.0
1070
   140
1040
3.5
1002
}
  0
INSERT
  5
4F2
330
1F
100
AcDbEntity
  8
0
 62
     7
100
AcDbBlockReference
  2
SYM0007
 10
-449.3112153581627
 20
228.5999876078793
 30
0.0
  0
DIMENSION
  5
4F5
330
1F
100
AcDbEntity
  8
0
 62
     7
100
AcDbDimension
  2
*D44
 10
-439.0
 20
322.0
 30
0.0
 11
-455.9784006347656
 21
322.0
 31
0.0
 70
   160
  1
MAX 11\PMIN -1
  3
ISO-25
100
AcDbAlignedDimension
 13
-428.0
 23
286.0
 33
0.0
 14
-439.0
 24
310.8786087036133
 34
0.0
100
AcDbRotatedDimension
1001
ACAD
1000
DSTYLE
1002
{
1070
   287
1070
     3
1070
     7
1000
OPEN30
1070
     6
1000
OPEN30
1070
   278
1070
    46
1070
   147
1040
0.875
1070
    77
1070
     1
1070
    74
1070
     0
1070
    73
1070
     0
1070
    42
1040
2.54
1070
    44
1040
1.269999542236349
1070
    76
1070
     1
1070
    75
1070
     1
1070
   279
1070
     0
1070
   271
1070
     0
1070
   173
1070
     1
1070
    41
1040
3.0
1070
   140
1040
3.5
1002
}
  0
DIMENSION
  5
501
330
1F
100
AcDbEntity
  8
0
 62
     7
100
AcDbDimension
  2
*D45
 10
-454.0
 20
176.001
 30
0.0
 11
-448.1971271972657
 21
176.001
 31
0.0
 70
   160
  1
15
  3
ISO-25
100
AcDbAlignedDimension
 13
-439.0
 23
216.0
 33
0.0
 14
-454.0
 24
228.5999984741211
 34
0.0
100
AcDbRotatedDimension
1001
ACAD
1000
DSTYLE
1002
{
1070
   287
1070
     3
1070
     7
1000
OPEN30
1070
     6
1000
OPEN30
1070
   278
1070
    46
1070
   147
1040
0.875
1070
    77
1070
     1
1070
    74
1070
     0
1070
    73
1070
     0
1070
    42
1040
2.54
1070
    44
1040
1.269996643066406
1070
    76
1070
     0
1070
    75
1070
     0
1070
   279
1070
     0
1070
   271
1070
     0
1070
   173
1070
     1
1070
    41
1040
3.0
1070
   140
1040
3.5
1002
}
  0
DIMENSION
  5
50E
330
1F
100
AcDbEntity
  8
0
 62
     7
100
AcDbDimension
  2
*D46
 10
-409.0
 20
266.2097459564209
 30
0.0
 11
-418.499
 21
266.2097459564209
 31
0.0
 70
   160
  1
19
  3
ISO-25
100
AcDbAlignedDimension
 13
-428.0
 23
286.0
 33
0.0
 14
-409.0
 24
286.0
 34
0.0
 50
180.0
100
AcDbRotatedDimension
1001
ACAD
1000
DSTYLE
1002
{
1070
   287
1070
     3
1070
     7
1000
OPEN30
1070
     6
1000
OPEN30
1070
   278
1070
    46
1070
   147
1040
0.875
1070
    77
1070
     1
1070
    74
1070
     0
1070
    73
1070
     0
1070
    42
1040
2.54
1070
    44
1040
1.270000457763672
1070
    76
1070
     1
1070
    75
1070
     1
1070
   279
1070
     0
1070
   271
1070
     0
1070
   173
1070
     1
1070
    41
1040
3.0
1070
   140
1040
3.5
1002
}
  0
DIMENSION
  5
519
330
1F
100
AcDbEntity
  8
0
 62
     7
100
AcDbDimension
  2
*D47
 10
-363.0
 20
165.001
 30
0.0
 11
-403.499
 21
165.001
 31
0.0
 70
   160
  1
81
  3
ISO-25
100
AcDbAlignedDimension
 13
-444.0
 23
203.5
 33
0.0
 14
-363.0
 24
203.5
 34
0.0
 50
180.0
100
AcDbRotatedDimension
1001
ACAD
1000
DSTYLE
1002
{
1070
   287
1070
     3
1070
     7
1000
OPEN30
1070
     6
1000
OPEN30
1070
   278
1070
    46
1070
   147
1040
0.875
1070
    77
1070
     1
1070
    74
1070
     0
1070
    73
1070
     0
1070
    42
1040
2.54
1070
    44
1040
1.269996643066406
1070
    76
1070
     0
1070
    75
1070
     0
1070
   279
1070
     0
1070
   271
1070
     0
1070
   173
1070
     1
1070
    41
1040
3.0
1070
   140
1040
3.5
1002
}
  0
DIMENSION
  5
526
330
1F
100
AcDbEntity
  8
0
 62
     7
100
AcDbDimension
  2
*D48
 10
-427.0
 20
322.001
 30
0.0
 11
-419.68575
 21
322.001
 31
0.0
 70
   160
  1
1
  3
ISO-25
100
AcDbAlignedDimension
 13
-428.0
 23
315.0
 33
0.0
 14
-427.0
 24
331.5
 34
0.0
 50
180.0
100
AcDbRotatedDimension
1001
ACAD
1000
DSTYLE
1002
{
1070
   287
1070
     3
1070
     7
1000
OPEN30
1070
     6
1000
NONE
1070
   278
1070
    46
1070
   147
1040
0.875
1070
    77
1070
     1
1070
    74
1070
     0
1070
    73
1070
     0
1070
    42
1040
2.54
1070
    44
1040
1.269999999999982
1070
    76
1070
     1
1070
    75
1070
     0
1070
   279
1070
     0
1070
   271
1070
     0
1070
   173
1070
     1
1070
    41
1040
3.0
1070
   140
1040
3.5
1002
}
  0
DIMENSION
  5
538
330
1F
100
AcDbEntity
  8
0
 62
     7
100
AcDbDimension
  2
*D49
 10
-149.1320337839129
 20
263.8529139969415
 30
0.0
 11
-142.9023486954499
 21
271.906211881266
 31
0.0
 70
   163
  1
\U+220556
  3
ISO-25
100
AcDbDiametricDimension
 15
-114.8679662160871
 25
308.1470860030585
 35
0.0
 40
0.0
1001
ACAD
1000
DSTYLE
1002
{
1070
   287
1070
     3
1070
     7
1000
OPEN30
1070
     6
1000
OPEN30
1070
   147
1040
0.875
1070
    77
1070
     1
1070
    74
1070
     0
1070
    73
1070
     0
1070
   279
1070
     0
1070
   271
1070
     0
1070
   278
1070
    46
1070
   173
1070
     1
1070
    41
1040
3.0
1070
   140
1040
3.5
1002
}
  0
INSERT
  5
54D
330
1F
100
AcDbEntity
  8
0
 62
     7
100
AcDbBlockReference
  2
SYM0008
 10
-142.2704478124753
 20
257.8128333713066
 30
0.0
  0
DIMENSION
  5
550
330
1F
100
AcDbEntity
  8
0
 62
     7
100
AcDbDimension
  2
*D51
 10
-461.998
 20
276.0
 30
0.0
 11
-461.998
 21
286.001
 31
0.0
 70
   160
  1
\U+220520
  3
ISO-25
100
AcDbAlignedDimension
 13
-428.0
 23
296.0
 33
0.0
 14
-428.0
 24
276.0
 34
0.0
 50
90.00000000000001
100
AcDbRotatedDimension
1001
ACAD
1000
DSTYLE
1002
{
1070
   287
1070
     3
1070
     7
1000
OPEN30
1070
     6
1000
OPEN30
1070
   278
1070
    46
1070
   147
1040
0.875
1070
    77
1070
     1
1070
    74
1070
     0
1070
    73
1070
     0
1070
    42
1040
2.54
1070
    44
1040
1.269999999999982
1070
    76
1070
     0
1070
    75
1070
     0
1070
   279
1070
     0
1070
   271
1070
     0
1070
   173
1070
     1
1070
    41
1040
3.0
1070
   140
1040
3.5
1002
}
  0
DIMENSION
  5
55D
330
1F
100
AcDbEntity
  8
0
 62
     7
100
AcDbDimension
  2
*D52
 10
-33.0
 20
286.0
 30
0.0
 11
-33.0
 21
258.001
 31
0.0
 70
   160
  1
56
  3
ISO-25
100
AcDbAlignedDimension
 13
-123.0
 23
230.0
 33
0.0
 14
-43.0
 24
286.0
 34
0.0
 50
270.0
100
AcDbRotatedDimension
1001
ACAD
1000
DSTYLE
1002
{
1070
   287
1070
     3
1070
     7
1000
OPEN30
1070
     6
1000
OPEN30
1070
   278
1070
    46
1070
   147
1040
0.875
1070
    77
1070
     1
1070
    74
1070
     0
1070
    73
1070
     0
1070
    42
1040
2.54
1070
    44
1040
1.269999999999996
1070
    76
1070
     0
1070
    75
1070
     0
1070
   279
1070
     0
1070
   271
1070
     0
1070
   173
1070
     1
1070
    41
1040
3.0
1070
   140
1040
3.5
1002
}
  0
DIMENSION
  5
56A
330
1F
100
AcDbEntity
  8
0
 62
     7
100
AcDbDimension
  2
*D53
 10
-32.999
 20
215.0
 30
0.0
 11
-32.999
 21
222.501
 31
0.0
 70
   160
  1
15
  3
ISO-25
100
AcDbAlignedDimension
 13
-123.0
 23
230.0
 33
0.0
 14
-123.0
 24
215.0
 34
0.0
 50
90.00000000000001
100
AcDbRotatedDimension
1001
ACAD
1000
DSTYLE
1002
{
1070
   287
1070
     3
1070
     7
1000
OPEN30
1070
     6
1000
OPEN30
1070
   278
1070
    46
1070
   147
1040
0.875
1070
    77
1070
     1
1070
    74
1070
     0
1070
    73
1070
     0
1070
    42
1040
2.54
1070
    44
1040
1.269999999999996
1070
    76
1070
     0
1070
    75
1070
     1
1070
   279
1070
     0
1070
   271
1070
     0
1070
   173
1070
     1
1070
    41
1040
3.0
1070
   140
1040
3.5
1002
}
  0
INSERT
  5
57C
330
1F
100
AcDbEntity
  8
0
 62
     7
100
AcDbBlockReference
  2
SYM0009
 10
-128.6950906287698
 20
212.746652701434
 30
0.0
  0
INSERT
  5
585
330
1F
100
AcDbEntity
  8
0
 62
     7
100
AcDbBlockReference
  2
SYM0010
 10
-423.4999999999999
 20
259.4999999999999
 30
0.0
  0
INSERT
  5
58E
330
1F
100
AcDbEntity
  8
0
 62
     7
100
AcDbBlockReference
  2
SYM0011
 10
-408.9999928474425
 20
214.6199973567222
 30
0.0
  0
LINE
  5
592
330
1F
100
AcDbEntity
  8
VIEW0001
  6
CONTINUOUS
 62
     7
100
AcDbLine
 10
-554.0
 20
10.0
 30
0.0
 11
-10.0
 21
10.0
 31
0.0
  0
LINE
  5
593
330
1F
100
AcDbEntity
  8
VIEW0001
  6
CONTINUOUS
 62
     7
100
AcDbLine
 10
-10.0
 20
10.0
 30
0.0
 11
-10.0
 21
410.0
 31
0.0
  0
LINE
  5
594
330
1F
100
AcDbEntity
  8
VIEW0001
  6
CONTINUOUS
 62
     7
100
AcDbLine
 10
-554.0
 20
410.0
 30
0.0
 11
-554.0
 21
10.0
 31
0.0
  0
LINE
  5
595
330
1F
100
AcDbEntity
  8
VIEW0001
  6
CONTINUOUS
 62
     7
100
AcDbLine
 10
-554.0
 20
410.0
 30
0.0
 11
-10.0
 21
410.0
 31
0.0
  0
LINE
  5
596
330
1F
100
AcDbEntity
  8
VIEW0001
  6
CONTINUOUS
 62
     7
100
AcDbLine
 10
-569.0
 20
225.0
 30
0.0
 11
-554.0
 21
225.0
 31
0.0
  0
LINE
  5
597
330
1F
100
AcDbEntity
  8
VIEW0001
  6
CONTINUOUS
 62
     7
100
AcDbLine
 10
-569.0
 20
285.0
 30
0.0
 11
-569.0
 21
225.0
 31
0.0
  0
LINE
  5
598
330
1F
100
AcDbEntity
  8
VIEW0001
  6
CONTINUOUS
 62
     7
100
AcDbLine
 10
-569.0
 20
285.0
 30
0.0
 11
-554.0
 21
285.0
 31
0.0
  0
LINE
  5
599
330
1F
100
AcDbEntity
  8
VIEW0001
  6
CONTINUOUS
 62
     7
100
AcDbLine
 10
-325.5
 20
48.0
 30
0.0
 11
-325.5
 21
10.0
 31
0.0
  0
LINE
  5
59A
330
1F
100
AcDbEntity
  8
VIEW0001
  6
CONTINUOUS
 62
     7
100
AcDbLine
 10
-325.5
 20
48.0
 30
0.0
 11
-10.0
 21
48.0
 31
0.0
  0
LINE
  5
59B
330
1F
100
AcDbEntity
  8
VIEW0001
  6
CONTINUOUS
 62
     7
100
AcDbLine
 10
-163.0
 20
48.0
 30
0.0
 11
-163.0
 21
10.0
 31
0.0
  0
LINE
  5
59C
330
1F
100
AcDbEntity
  8
VIEW0001
  6
CONTINUOUS
 62
     7
100
AcDbLine
 10
-313.5
 20
48.0
 30
0.0
 11
-313.5
 21
10.0
 31
0.0
  0
LINE
  5
59D
330
1F
100
AcDbEntity
  8
VIEW0001
  6
CONTINUOUS
 62
     7
100
AcDbLine
 10
-86.5
 20
10.0
 30
0.0
 11
-86.5
 21
38.5
 31
0.0
  0
LINE
  5
59E
330
1F
100
AcDbEntity
  8
VIEW0001
  6
CONTINUOUS
 62
     7
100
AcDbLine
 10
-112.0
 20
24.0
 30
0.0
 11
-112.0
 21
48.0
 31
0.0
  0
LINE
  5
59F
330
1F
100
AcDbEntity
  8
VIEW0001
  6
CONTINUOUS
 62
     7
100
AcDbLine
 10
-137.5
 20
48.0
 30
0.0
 11
-137.5
 21
24.0
 31
0.0
  0
LINE
  5
5A0
330
1F
100
AcDbEntity
  8
VIEW0001
  6
CONTINUOUS
 62
     7
100
AcDbLine
 10
-163.0
 20
38.5
 30
0.0
 11
-10.0
 21
38.5
 31
0.0
  0
LINE
  5
5A1
330
1F
100
AcDbEntity
  8
VIEW0001
  6
CONTINUOUS
 62
     7
100
AcDbLine
 10
-163.0
 20
24.0
 30
0.0
 11
-10.0
 21
24.0
 31
0.0
  0
LINE
  5
5A2
330
1F
100
AcDbEntity
  8
VIEW0001
  6
CONTINUOUS
 62
     7
100
AcDbLine
 10
-173.0
 20
48.0
 30
0.0
 11
-173.0
 21
10.0
 31
0.0
  0
LINE
  5
5A3
330
1F
100
AcDbEntity
  8
VIEW0001
  6
CONTINUOUS
 62
     7
100
AcDbLine
 10
-183.0
 20
48.0
 30
0.0
 11
-183.0
 21
10.0
 31
0.0
  0
LINE
  5
5A4
330
1F
100
AcDbEntity
  8
VIEW0001
  6
CONTINUOUS
 62
     7
100
AcDbLine
 10
-319.7495423070405
 20
21.60017220879919
 30
0.0
 11
-316.9995444661396
 21
17.40017859109474
 31
0.0
  0
LINE
  5
5A5
330
1F
100
AcDbEntity
  8
VIEW0001
  6
CONTINUOUS
 62
     7
100
AcDbLine
 10
-317.0
 20
17.39988899230957
 30
0.0
 11
-322.5
 21
17.39988899230957
 31
0.0
  0
LINE
  5
5A6
330
1F
100
AcDbEntity
  8
VIEW0001
  6
CONTINUOUS
 62
     7
100
AcDbLine
 10
-322.4991102631117
 20
17.39938170053685
 30
0.0
 11
-319.7491124222108
 21
21.59937531824133
 31
0.0
  0
LINE
  5
5A7
330
1F
100
AcDbEntity
  8
VIEW0001
  6
CONTINUOUS
 62
     7
100
AcDbLine
 10
-319.749683051235
 20
46.93345530395041
 30
0.0
 11
-316.9996852103341
 21
42.73346168624593
 31
0.0
  0
LINE
  5
5A8
330
1F
100
AcDbEntity
  8
VIEW0001
  6
CONTINUOUS
 62
     7
100
AcDbLine
 10
-317.0
 20
42.73325729370117
 30
0.0
 11
-322.5
 21
42.73325729370117
 31
0.0
  0
LINE
  5
5A9
330
1F
100
AcDbEntity
  8
VIEW0001
  6
CONTINUOUS
 62
     7
100
AcDbLine
 10
-322.4998199632367
 20
42.73314868004006
 30
0.0
 11
-319.7498221223358
 21
46.93314229774452
 31
0.0
  0
LINE
  5
5AA
330
1F
100
AcDbEntity
  8
VIEW0001
  6
CONTINUOUS
 62
     7
100
AcDbLine
 10
-319.7496373030177
 20
40.60013232654839
 30
0.0
 11
-316.9996394621169
 21
36.40013870884391
 31
0.0
  0
LINE
  5
5AB
330
1F
100
AcDbEntity
  8
VIEW0001
  6
CONTINUOUS
 62
     7
100
AcDbLine
 10
-317.0
 20
36.39990997314453
 30
0.0
 11
-322.5
 21
36.39990997314453
 31
0.0
  0
LINE
  5
5AC
330
1F
100
AcDbEntity
  8
VIEW0001
  6
CONTINUOUS
 62
     7
100
AcDbLine
 10
-322.4996531003741
 20
36.39970473155005
 30
0.0
 11
-319.7496552594732
 21
40.59969834925451
 31
0.0
  0
LINE
  5
5AD
330
1F
100
AcDbEntity
  8
VIEW0001
  6
CONTINUOUS
 62
     7
100
AcDbLine
 10
-319.7496254449206
 20
34.26680539782038
 30
0.0
 11
-316.9996276040197
 21
30.0668117801159
 31
0.0
  0
LINE
  5
5AE
330
1F
100
AcDbEntity
  8
VIEW0001
  6
CONTINUOUS
 62
     7
100
AcDbLine
 10
-317.0
 20
30.06656646728516
 30
0.0
 11
-322.5
 21
30.06656646728516
 31
0.0
  0
LINE
  5
5AF
330
1F
100
AcDbEntity
  8
VIEW0001
  6
CONTINUOUS
 62
     7
100
AcDbLine
 10
-322.4994523473914
 20
30.06625683173402
 30
0.0
 11
-319.7494545064905
 21
34.26625044943849
 31
0.0
  0
LINE
  5
5B0
330
1F
100
AcDbEntity
  8
VIEW0001
  6
CONTINUOUS
 62
     7
100
AcDbLine
 10
-319.7495880552578
 20
27.93349518620121
 30
0.0
 11
-316.9995902143569
 21
23.73350156849673
 31
0.0
  0
LINE
  5
5B1
330
1F
100
AcDbEntity
  8
VIEW0001
  6
CONTINUOUS
 62
     7
100
AcDbLine
 10
-317.0
 20
23.73322296142578
 30
0.0
 11
-322.5
 21
23.73322296142578
 31
0.0
  0
LINE
  5
5B2
330
1F
100
AcDbEntity
  8
VIEW0001
  6
CONTINUOUS
 62
     7
100
AcDbLine
 10
-322.4992771259743
 20
23.73282564902684
 30
0.0
 11
-319.7492792850734
 21
27.93281926673131
 31
0.0
  0
LINE
  5
5B3
330
1F
100
AcDbEntity
  8
VIEW0001
  6
CONTINUOUS
 62
     7
100
AcDbLine
 10
-15.49998891362884
 20
17.49999261130774
 30
0.0
 11
-18.99998851021562
 21
11.49999336201998
 31
0.0
  0
LINE
  5
5B4
330
1F
100
AcDbEntity
  8
VIEW0001
  6
CONTINUOUS
 62
     7
100
AcDbLine
 10
-19.0
 20
11.5
 30
0.0
 11
-12.0
 21
11.5
 31
0.0
  0
LINE
  5
5B5
330
1F
100
AcDbEntity
  8
VIEW0001
  6
CONTINUOUS
 62
     7
100
AcDbLine
 10
-11.99999962481503
 20
11.50000046269196
 30
0.0
 11
-15.49999884598864
 21
17.49999906841429
 31
0.0
  0
LINE
  5
5B6
330
1F
100
AcDbEntity
  8
VIEW0001
  6
CONTINUOUS
 62
     7
100
AcDbLine
 10
-61.0
 20
38.5
 30
0.0
 11
-61.0
 21
48.0
 31
0.0
  0
LINE
  5
5B7
330
1F
100
AcDbEntity
  8
VIEW0001
  6
CONTINUOUS
 62
     7
100
AcDbLine
 10
-325.5
 20
22.66666603088379
 30
0.0
 11
-163.0
 21
22.66666603088379
 31
0.0
  0
LINE
  5
5B8
330
1F
100
AcDbEntity
  8
VIEW0001
  6
CONTINUOUS
 62
     7
100
AcDbLine
 10
-325.5
 20
16.33333396911621
 30
0.0
 11
-163.0
 21
16.33333396911621
 31
0.0
  0
LINE
  5
5B9
330
1F
100
AcDbEntity
  8
VIEW0001
  6
CONTINUOUS
 62
     7
100
AcDbLine
 10
-163.0
 20
28.0
 30
0.0
 11
-86.5
 21
28.0
 31
0.0
  0
LINE
  5
5BA
330
1F
100
AcDbEntity
  8
VIEW0001
  6
CONTINUOUS
 62
     7
100
AcDbLine
 10
-193.0
 20
48.0
 30
0.0
 11
-193.0
 21
10.0
 31
0.0
  0
LINE
  5
5BB
330
1F
100
AcDbEntity
  8
VIEW0001
  6
CONTINUOUS
 62
     7
100
AcDbLine
 10
-213.0
 20
48.0
 30
0.0
 11
-213.0
 21
10.0
 31
0.0
  0
LINE
  5
5BC
330
1F
100
AcDbEntity
  8
VIEW0001
  6
CONTINUOUS
 62
     7
100
AcDbLine
 10
-325.5
 20
35.33333206176758
 30
0.0
 11
-163.0
 21
35.33333206176758
 31
0.0
  0
LINE
  5
5BD
330
1F
100
AcDbEntity
  8
VIEW0001
  6
CONTINUOUS
 62
     7
100
AcDbLine
 10
-325.5
 20
29.0
 30
0.0
 11
-163.0
 21
29.0
 31
0.0
  0
LINE
  5
5BE
330
1F
100
AcDbEntity
  8
VIEW0001
  6
CONTINUOUS
 62
     7
100
AcDbLine
 10
-325.5
 20
41.66666793823242
 30
0.0
 11
-163.0
 21
41.66666793823242
 31
0.0
  0
MTEXT
  5
5BF
330
1F
100
AcDbEntity
  8
VIEW0001
 62
     7
100
AcDbMText
 10
-118.5
 20
43.25
 30
0.0
 40
3.0
 41
0.0
 71
     5
 72
     1
  1
{\W1;1:1}
  0
MTEXT
  5
5C0
330
1F
100
AcDbEntity
  8
VIEW0001
 62
     7
100
AcDbMText
 10
-319.7490844726562
 20
31.56655502319336
 30
0.0
 40
2.200000047683716
 41
0.0
 71
     5
 72
     1
  1
{\W0.818182;3}
  0
MTEXT
  5
5C1
330
1F
100
AcDbEntity
  8
VIEW0001
 62
     7
100
AcDbMText
 10
-319.7490844726562
 20
25.23322105407715
 30
0.0
 40
2.200000047683716
 41
0.0
 71
     5
 72
     1
  1
{\W0.818182;2}
  0
MTEXT
  5
5C2
330
1F
100
AcDbEntity
  8
VIEW0001
 62
     7
100
AcDbMText
 10
-57.62857142686844
 20
41.75
 30
0.0
 40
3.0
 41
0.0
 71
     7
 72
     1
  1
{\W0.833333;Ｈ３ＫＴＡ６}
  0
MTEXT
  5
5C3
330
1F
100
AcDbEntity
  8
VIEW0001
 62
     7
100
AcDbMText
 10
-319.7490844726562
 20
18.89988899230957
 30
0.0
 40
2.200000047683716
 41
0.0
 71
     5
 72
     1
  1
{\W0.818182;1}
  0
MTEXT
  5
5C4
330
1F
100
AcDbEntity
  8
VIEW0001
 62
     7
100
AcDbMText
 10
-319.7490844726562
 20
37.89988708496094
 30
0.0
 40
2.200000047683716
 41
0.0
 71
     5
 72
     1
  1
{\W0.818182;4}
  0
MTEXT
  5
5C5
330
1F
100
AcDbEntity
  8
VIEW0001
 62
     7
100
AcDbMText
 10
-319.7490844726562
 20
44.23322296142578
 30
0.0
 40
2.200000047683716
 41
0.0
 71
     5
 72
     1
  1
{\W0.818182;5}
  0
MTEXT
  5
5C6
330
1F
100
AcDbEntity
  8
VIEW0001
 62
     7
100
AcDbMText
 10
-559.744139790535
 20
3.916409492492676
 30
0.0
 40
4.167181015014648
 41
0.0
 71
     7
 72
     1
  1
{\W1;D}
  0
MTEXT
  5
5C7
330
1F
100
AcDbEntity
  8
VIEW0001
 62
     7
100
AcDbMText
 10
-82.71428570747375
 20
26.5
 30
0.0
 40
5.0
 41
0.0
 71
     7
 72
     1
  1
{\W0.833333;楔形３爪ビッグホローチャック}
  0
LINE
  5
5C9
330
1F
100
AcDbEntity
  8
VIEW0002
  6
CONTINUOUS
 62
     7
100
AcDbLine
 10
-554.0000019633707
 20
51.50000074983495
 30
0.0
 11
-586.5000002030047
 21
9.999989221885244
 31
0.0
  0
LINE
  5
5CA
330
1F
100
AcDbEntity
  8
VIEW0002
  6
CONTINUOUS
 62
     7
100
AcDbLine
 10
-163.0
 20
64.0
 30
0.0
 11
-163.0
 21
48.0
 31
0.0
  0
LINE
  5
5CB
330
1F
100
AcDbEntity
  8
VIEW0002
  6
CONTINUOUS
 62
     7
100
AcDbLine
 10
-163.0
 20
64.0
 30
0.0
 11
-10.0
 21
64.0
 31
0.0
  0
LINE
  5
5CC
330
1F
100
AcDbEntity
  8
VIEW0002
  6
CONTINUOUS
 62
     7
100
AcDbLine
 10
-61.0
 20
53.5
 30
0.0
 11
-10.0
 21
53.5
 31
0.0
  0
LINE
  5
5CD
330
1F
100
AcDbEntity
  8
VIEW0002
  6
CONTINUOUS
 62
     7
100
AcDbLine
 10
-61.0
 20
64.0
 30
0.0
 11
-61.0
 21
48.0
 31
0.0
  0
LINE
  5
5CE
330
1F
100
AcDbEntity
  8
VIEW0002
  6
CONTINUOUS
 62
     7
100
AcDbLine
 10
-554.0
 20
124.0
 30
0.0
 11
-245.0
 21
124.0
 31
0.0
  0
LINE
  5
5CF
330
1F
100
AcDbEntity
  8
VIEW0002
  6
CONTINUOUS
 62
     7
100
AcDbLine
 10
-554.0
 20
118.0
 30
0.0
 11
-360.0
 21
118.0
 31
0.0
  0
LINE
  5
5D0
330
1F
100
AcDbEntity
  8
VIEW0002
  6
CONTINUOUS
 62
     7
100
AcDbLine
 10
-554.0
 20
112.0
 30
0.0
 11
-245.0
 21
112.0
 31
0.0
  0
LINE
  5
5D1
330
1F
100
AcDbEntity
  8
VIEW0002
  6
CONTINUOUS
 62
     7
100
AcDbLine
 10
-554.0
 20
106.0
 30
0.0
 11
-245.0
 21
106.0
 31
0.0
  0
LINE
  5
5D2
330
1F
100
AcDbEntity
  8
VIEW0002
  6
CONTINUOUS
 62
     7
100
AcDbLine
 10
-554.0
 20
100.0
 30
0.0
 11
-245.0
 21
100.0
 31
0.0
  0
LINE
  5
5D3
330
1F
100
AcDbEntity
  8
VIEW0002
  6
CONTINUOUS
 62
     7
100
AcDbLine
 10
-508.0
 20
94.0
 30
0.0
 11
-467.0
 21
94.0
 31
0.0
  0
LINE
  5
5D4
330
1F
100
AcDbEntity
  8
VIEW0002
  6
CONTINUOUS
 62
     7
100
AcDbLine
 10
-508.0
 20
82.0
 30
0.0
 11
-470.0
 21
82.0
 31
0.0
  0
LINE
  5
5D5
330
1F
100
AcDbEntity
  8
VIEW0002
  6
CONTINUOUS
 62
     7
100
AcDbLine
 10
-554.0
 20
76.0
 30
0.0
 11
-245.0
 21
76.0
 31
0.0
  0
LINE
  5
5D6
330
1F
100
AcDbEntity
  8
VIEW0002
  6
CONTINUOUS
 62
     7
100
AcDbLine
 10
-554.0
 20
70.0
 30
0.0
 11
-245.0
 21
70.0
 31
0.0
  0
LINE
  5
5D7
330
1F
100
AcDbEntity
  8
VIEW0002
  6
CONTINUOUS
 62
     7
100
AcDbLine
 10
-554.0
 20
64.0
 30
0.0
 11
-245.0
 21
64.0
 31
0.0
  0
LINE
  5
5D8
330
1F
100
AcDbEntity
  8
VIEW0002
  6
CONTINUOUS
 62
     7
100
AcDbLine
 10
-554.0
 20
58.0
 30
0.0
 11
-245.0
 21
58.0
 31
0.0
  0
LINE
  5
5D9
330
1F
100
AcDbEntity
  8
VIEW0002
  6
CONTINUOUS
 62
     7
100
AcDbLine
 10
-554.0
 20
52.0
 30
0.0
 11
-245.0
 21
52.0
 31
0.0
  0
LINE
  5
5DA
330
1F
100
AcDbEntity
  8
VIEW0002
  6
CONTINUOUS
 62
     7
100
AcDbLine
 10
-554.0
 20
46.0
 30
0.0
 11
-457.0
 21
46.0
 31
0.0
  0
LINE
  5
5DB
330
1F
100
AcDbEntity
  8
VIEW0002
  6
CONTINUOUS
 62
     7
100
AcDbLine
 10
-554.0
 20
40.0
 30
0.0
 11
-325.5
 21
40.0
 31
0.0
  0
LINE
  5
5DC
330
1F
100
AcDbEntity
  8
VIEW0002
  6
CONTINUOUS
 62
     7
100
AcDbLine
 10
-554.0
 20
34.0
 30
0.0
 11
-325.5
 21
34.0
 31
0.0
  0
LINE
  5
5DD
330
1F
100
AcDbEntity
  8
VIEW0002
  6
CONTINUOUS
 62
     7
100
AcDbLine
 10
-554.0
 20
28.0
 30
0.0
 11
-325.5
 21
28.0
 31
0.0
  0
LINE
  5
5DE
330
1F
100
AcDbEntity
  8
VIEW0002
  6
CONTINUOUS
 62
     7
100
AcDbLine
 10
-554.0
 20
22.0
 30
0.0
 11
-325.5
 21
22.0
 31
0.0
  0
LINE
  5
5DF
330
1F
100
AcDbEntity
  8
VIEW0002
  6
CONTINUOUS
 62
     7
100
AcDbLine
 10
-554.0
 20
16.0
 30
0.0
 11
-325.5
 21
16.0
 31
0.0
  0
LINE
  5
5E0
330
1F
100
AcDbEntity
  8
VIEW0002
  6
CONTINUOUS
 62
     7
100
AcDbLine
 10
-508.0
 20
118.0
 30
0.0
 11
-508.0
 21
28.0
 31
0.0
  0
LINE
  5
5E1
330
1F
100
AcDbEntity
  8
VIEW0002
  6
CONTINUOUS
 62
     7
100
AcDbLine
 10
-245.0
 20
124.0
 30
0.0
 11
-245.0
 21
48.0
 31
0.0
  0
LINE
  5
5E2
330
1F
100
AcDbEntity
  8
VIEW0002
  6
CONTINUOUS
 62
     7
100
AcDbLine
 10
-495.0
 20
100.0
 30
0.0
 11
-495.0
 21
76.0
 31
0.0
  0
LINE
  5
5E3
330
1F
100
AcDbEntity
  8
VIEW0002
  6
CONTINUOUS
 62
     7
100
AcDbLine
 10
-554.0
 20
88.0
 30
0.0
 11
-245.0
 21
88.0
 31
0.0
  0
LINE
  5
5E4
330
1F
100
AcDbEntity
  8
VIEW0002
  6
CONTINUOUS
 62
     7
100
AcDbLine
 10
-457.0
 20
94.0
 30
0.0
 11
-245.0
 21
94.0
 31
0.0
  0
LINE
  5
5E5
330
1F
100
AcDbEntity
  8
VIEW0002
  6
CONTINUOUS
 62
     7
100
AcDbLine
 10
-457.0
 20
82.0
 30
0.0
 11
-245.0
 21
82.0
 31
0.0
  0
LINE
  5
5E6
330
1F
100
AcDbEntity
  8
VIEW0002
  6
CONTINUOUS
 62
     7
100
AcDbLine
 10
-360.0
 20
118.0
 30
0.0
 11
-245.0
 21
118.0
 31
0.0
  0
LINE
  5
5E7
330
1F
100
AcDbEntity
  8
VIEW0002
  6
CONTINUOUS
 62
     7
100
AcDbLine
 10
-360.0
 20
124.0
 30
0.0
 11
-360.0
 21
10.0
 31
0.0
  0
LINE
  5
5E8
330
1F
100
AcDbEntity
  8
VIEW0002
  6
CONTINUOUS
 62
     7
100
AcDbLine
 10
-457.0
 20
124.0
 30
0.0
 11
-457.0
 21
10.0
 31
0.0
  0
LINE
  5
5E9
330
1F
100
AcDbEntity
  8
VIEW0002
  6
CONTINUOUS
 62
     7
100
AcDbLine
 10
-360.0
 20
46.0
 30
0.0
 11
-325.5
 21
46.0
 31
0.0
  0
LINE
  5
5EA
330
1F
100
AcDbEntity
  8
VIEW0002
  6
CONTINUOUS
 62
     7
100
AcDbLine
 10
-457.0
 20
46.0
 30
0.0
 11
-360.0
 21
46.0
 31
0.0
  0
LINE
  5
5EB
330
1F
100
AcDbEntity
  8
VIEW0002
  6
CONTINUOUS
 62
     7
100
AcDbLine
 10
-552.0
 20
126.0
 30
0.0
 11
-427.5
 21
126.0
 31
0.0
  0
LINE
  5
5EC
330
1F
100
AcDbEntity
  8
VIEW0002
  6
CONTINUOUS
 62
     7
100
AcDbLine
 10
-552.0
 20
132.0
 30
0.0
 11
-427.5
 21
132.0
 31
0.0
  0
LINE
  5
5ED
330
1F
100
AcDbEntity
  8
VIEW0002
  6
CONTINUOUS
 62
     7
100
AcDbLine
 10
-552.0
 20
132.0
 30
0.0
 11
-552.0
 21
126.0
 31
0.0
  0
LINE
  5
5EE
330
1F
100
AcDbEntity
  8
VIEW0002
  6
CONTINUOUS
 62
     7
100
AcDbLine
 10
-427.5
 20
132.0
 30
0.0
 11
-427.5
 21
126.0
 31
0.0
  0
CIRCLE
  5
5EF
330
1F
100
AcDbEntity
  8
VIEW0002
  6
CONTINUOUS
 62
     7
100
AcDbCircle
 10
-55.0
 20
61.0
 30
0.0
 40
1.5
  0
CIRCLE
  5
5F0
330
1F
100
AcDbEntity
  8
VIEW0002
  6
CONTINUOUS
 62
     7
100
AcDbCircle
 10
-55.0
 20
56.5
 30
0.0
 40
1.5
  0
CIRCLE
  5
5F1
330
1F
100
AcDbEntity
  8
VIEW0002
  6
CONTINUOUS
 62
     7
100
AcDbCircle
 10
-35.0
 20
61.0
 30
0.0
 40
1.5
  0
CIRCLE
  5
5F2
330
1F
100
AcDbEntity
  8
VIEW0002
  6
CONTINUOUS
 62
     7
100
AcDbCircle
 10
-35.0
 20
56.5
 30
0.0
 40
1.5
  0
MTEXT
  5
5F3
330
1F
100
AcDbEntity
  8
VIEW0002
 62
     7
100
AcDbMText
 10
-46.67142857313156
 20
19.49999237060547
 30
0.0
 40
4.0
 41
0.0
 71
     7
 72
     1
  1
{\W0.833333;Ｂ－７７８}
  0
MTEXT
  5
5F4
330
1F
100
AcDbEntity
  8
VIEW0002
 62
     7
100
AcDbMText
 10
-158.15
 20
59.25
 30
0.0
 40
3.5
 41
0.0
 71
     7
 72
     1
  1
{\W0.833333;納{\H0.5x;\S　;}入{\H0.5x;\S　;}先}
  0
MTEXT
  5
5F5
330
1F
100
AcDbEntity
  8
VIEW0002
 62
     7
100
AcDbMText
 10
-31.12857142686844
 20
55.0
 30
0.0
 40
3.0
 41
0.0
 71
     7
 72
     1
  1
{\W0.833333;製作図}
  0
MTEXT
  5
5F6
330
1F
100
AcDbEntity
  8
VIEW0002
 62
     7
100
AcDbMText
 10
-31.12857142686844
 20
59.5
 30
0.0
 40
3.0
 41
0.0
 71
     7
 72
     1
  1
{\W0.833333;納入仕様図}
  0
MTEXT
  5
5F7
330
1F
100
AcDbEntity
  8
VIEW0002
 62
     7
100
AcDbMText
 10
-51.12857142686844
 20
55.0
 30
0.0
 40
3.0
 41
0.0
 71
     7
 72
     1
  1
{\W0.833333;見積図}
  0
MTEXT
  5
5F8
330
1F
100
AcDbEntity
  8
VIEW0002
 62
     7
100
AcDbMText
 10
-51.12857142686844
 20
59.5
 30
0.0
 40
3.0
 41
0.0
 71
     7
 72
     1
  1
{\W0.833333;計画図}
  0
MTEXT
  5
5F9
330
1F
100
AcDbEntity
  8
VIEW0002
 62
     7
100
AcDbMText
 10
-531.0
 20
112.875
 30
0.0
 40
3.5
 41
0.0
 71
     8
 72
     1
  1
{\W0.833333;チャック形番}
  0
MTEXT
  5
5FA
330
1F
100
AcDbEntity
  8
VIEW0002
 62
     7
100
AcDbMText
 10
-531.0
 20
94.0
 30
0.0
 40
3.5
 41
0.0
 71
     5
 72
     1
  1
{\W0.833333;ジョーのストローク（直径）}
  0
MTEXT
  5
5FB
330
1F
100
AcDbEntity
  8
VIEW0002
 62
     7
100
AcDbMText
 10
-531.0
 20
82.0
 30
0.0
 40
3.5
 41
0.0
 71
     5
 72
     1
  1
{\W0.833333;使用油圧力}
  0
MTEXT
  5
5FC
330
1F
100
AcDbEntity
  8
VIEW0002
 62
     7
100
AcDbMText
 10
-531.0
 20
106.875
 30
0.0
 40
3.5
 41
0.0
 71
     8
 72
     1
  1
{\W0.833333;シリンダ形番}
  0
MTEXT
  5
5FD
330
1F
100
AcDbEntity
  8
VIEW0002
 62
     7
100
AcDbMText
 10
-531.0
 20
100.875
 30
0.0
 40
3.5
 41
0.0
 71
     8
 72
     1
  1
{\W0.833333;プランジャストローク}
  0
MTEXT
  5
5FE
330
1F
100
AcDbEntity
  8
VIEW0002
 62
     7
100
AcDbMText
 10
-531.0
 20
70.875
 30
0.0
 40
3.5
 41
0.0
 71
     8
 72
     1
  1
{\W0.833333;許容シリンダ力}
  0
MTEXT
  5
5FF
330
1F
100
AcDbEntity
  8
VIEW0002
 62
     7
100
AcDbMText
 10
-501.5
 20
82.875
 30
0.0
 40
3.5
 41
0.0
 71
     8
 72
     1
  1
{\W0.833333;最大}
  0
MTEXT
  5
600
330
1F
100
AcDbEntity
  8
VIEW0002
 62
     7
100
AcDbMText
 10
-501.5
 20
76.875
 30
0.0
 40
3.5
 41
0.0
 71
     8
 72
     1
  1
{\W0.833333;常用}
  0
MTEXT
  5
601
330
1F
100
AcDbEntity
  8
VIEW0002
 62
     7
100
AcDbMText
 10
-501.5
 20
94.875
 30
0.0
 40
3.5
 41
0.0
 71
     8
 72
     1
  1
{\W0.833333;最大}
  0
MTEXT
  5
602
330
1F
100
AcDbEntity
  8
VIEW0002
 62
     7
100
AcDbMText
 10
-501.5
 20
88.875
 30
0.0
 40
3.5
 41
0.0
 71
     8
 72
     1
  1
{\W0.833333;常用}
  0
MTEXT
  5
603
330
1F
100
AcDbEntity
  8
VIEW0002
 62
     7
100
AcDbMText
 10
-460.4285714285714
 20
82.0
 30
0.0
 40
3.0
 41
0.0
 71
     6
 72
     1
  1
{\W0.857143;MPa}
  0
MTEXT
  5
604
330
1F
100
AcDbEntity
  8
VIEW0002
 62
     7
100
AcDbMText
 10
-460.4285714285714
 20
70.75
 30
0.0
 40
3.0
 41
0.0
 71
     9
 72
     1
  1
{\W0.857143;kN}
  0
MTEXT
  5
605
330
1F
100
AcDbEntity
  8
VIEW0002
 62
     7
100
AcDbMText
 10
-460.4285714285714
 20
58.75
 30
0.0
 40
3.0
 41
0.0
 71
     9
 72
     1
  1
{\W0.714286;Ｎ・ｍ}
  0
MTEXT
  5
606
330
1F
100
AcDbEntity
  8
VIEW0002
 62
     7
100
AcDbMText
 10
-408.5
 20
121.0
 30
0.0
 40
3.5
 41
0.0
 71
     5
 72
     1
  1
{\W0.833333;納入品目}
  0
MTEXT
  5
607
330
1F
100
AcDbEntity
  8
VIEW0002
 62
     7
100
AcDbMText
 10
-355.875
 20
118.875
 30
0.0
 40
3.5
 41
0.0
 71
     7
 72
     1
  1
{\W0.833333;記}
  0
MTEXT
  5
608
102
{ACAD_XDICTIONARY
360
64B
102
}
330
1F
100
AcDbEntity
  8
VIEW0002
 62
     7
100
AcDbMText
 10
-507.6607142899717
 20
64.94999998807907
 30
0.0
 40
1.899999976158142
 41
18.17485689640045
 71
     7
 72
     1
  1
{\fＭＳ Ｐゴシック|b0|i0|c0|p0;\W0.83333x;\U+3000\U+3000\U+3000\U+3000\U+FF52\U+FF0F\U+FF4D\U+FF49\U+FF4E}\P{\fＭＳ Ｐゴシック|b0|i0|c0|p0;\W0.83333x;\U+FF38\U+FF11\U+4F4D\U+7F6E\U+306B\U+304A\U+3044\U+3066}
1001
ACAD
1000
MTEXTBEGIN
1070
    44
1040
0.7875
1000
MTEXTEND
  0
MTEXT
  5
609
330
1F
100
AcDbEntity
  8
VIEW0002
 62
     7
100
AcDbMText
 10
-474.5
 20
100.875
 30
0.0
 40
3.5
 41
0.0
 71
     9
 72
     1
  1
{\W0.833333;１２}
  0
MTEXT
  5
60A
330
1F
100
AcDbEntity
  8
VIEW0002
 62
     7
100
AcDbMText
 10
-474.5
 20
94.875
 30
0.0
 40
3.5
 41
0.0
 71
     9
 72
     1
  1
{\W0.833333;５．５}
  0
MTEXT
  5
60B
330
1F
100
AcDbEntity
  8
VIEW0002
 62
     7
100
AcDbMText
 10
-474.5
 20
70.875
 30
0.0
 40
3.5
 41
0.0
 71
     9
 72
     1
  1
{\W0.833333;２２}
  0
MTEXT
  5
60C
330
1F
100
AcDbEntity
  8
VIEW0002
 62
     7
100
AcDbMText
 10
-474.5
 20
64.875
 30
0.0
 40
3.5
 41
0.0
 71
     9
 72
     1
  1
{\W0.833333;５７}
  0
MTEXT
  5
60D
330
1F
100
AcDbEntity
  8
VIEW0002
 62
     7
100
AcDbMText
 10
-474.5
 20
46.875
 30
0.0
 40
3.5
 41
0.0
 71
     9
 72
     1
  1
{\W0.833333;１２．５}
  0
MTEXT
  5
60E
330
1F
100
AcDbEntity
  8
VIEW0002
 62
     7
100
AcDbMText
 10
-474.5
 20
40.875
 30
0.0
 40
3.5
 41
0.0
 71
     9
 72
     1
  1
{\W0.833333;０．０５０}
  0
MTEXT
  5
60F
330
1F
100
AcDbEntity
  8
VIEW0002
 62
     7
100
AcDbMText
 10
-455.375
 20
112.875
 30
0.0
 40
3.5
 41
0.0
 71
     7
 72
     1
  1
{\W0.833333;Ｈ３ＫＴＡ６}
  0
MTEXT
  5
610
102
{ACAD_XDICTIONARY
360
64D
102
}
330
1F
100
AcDbEntity
  8
VIEW0002
 62
     7
100
AcDbMText
 10
-507.6607142899717
 20
58.94999998807907
 30
0.0
 40
1.899999976158142
 41
12.01885697364807
 71
     7
 72
     1
  1
{\fＭＳ Ｐゴシック|b0|i0|c0|p0;\W0.83333x;\U+FF24\U+FF1D}{\W0.83333x;\U+2205}{\fＭＳ Ｐゴシック|b0|i0|c0|p0;\W0.83333x;\U+3000\U+3000\U+3000}\P{\W0.83333x;μ}{\fＭＳ Ｐゴシック|b0|i0|c0|p0;\W0.83333x;\U+FF1D}
1001
ACAD
1000
MTEXTBEGIN
1070
    44
1040
0.7875
1000
MTEXTEND
  0
MTEXT
  5
611
330
1F
100
AcDbEntity
  8
VIEW0002
 62
     7
100
AcDbMText
 10
-531.0
 20
40.875
 30
0.0
 40
3.5
 41
0.0
 71
     8
 72
     1
  1
{\W0.833333;慣性モーメント}
  0
MTEXT
  5
612
330
1F
100
AcDbEntity
  8
VIEW0002
 62
     7
100
AcDbMText
 10
-474.5
 20
52.875
 30
0.0
 40
3.5
 41
0.0
 71
     9
 72
     1
  1
{\W0.833333;６０００}
  0
MTEXT
  5
613
330
1F
100
AcDbEntity
  8
VIEW0002
 62
     7
100
AcDbMText
 10
-460.4285714285714
 20
100.75
 30
0.0
 40
3.0
 41
0.0
 71
     9
 72
     1
  1
{\W0.857143;mm}
  0
MTEXT
  5
614
330
1F
100
AcDbEntity
  8
VIEW0002
 62
     7
100
AcDbMText
 10
-506.375
 20
112.875
 30
0.0
 40
3.5
 41
0.0
 71
     7
 72
     1
  1
{\W0.857143;H3KTA6}
  0
MTEXT
  5
615
330
1F
100
AcDbEntity
  8
VIEW0002
 62
     7
100
AcDbMText
 10
-361.5
 20
112.875
 30
0.0
 40
3.5
 41
0.0
 71
     9
 72
     1
  1
{\W0.833333;１台}
  0
MTEXT
  5
616
330
1F
100
AcDbEntity
  8
VIEW0002
 62
     7
100
AcDbMText
 10
-455.375
 20
100.875
 30
0.0
 40
3.5
 41
0.0
 71
     7
 72
     1
  1
{\W0.833333;　標準付属品・工具}
  0
MTEXT
  5
617
330
1F
100
AcDbEntity
  8
VIEW0002
 62
     7
100
AcDbMText
 10
-361.5
 20
100.875
 30
0.0
 40
3.5
 41
0.0
 71
     9
 72
     1
  1
{\W0.833333;１式}
  0
MTEXT
  5
618
330
1F
100
AcDbEntity
  8
VIEW0002
 62
     7
100
AcDbMText
 10
-358.875
 20
106.875
 30
0.0
 40
3.5
 41
0.0
 71
     7
 72
     1
  1
{\W0.833333;　　条件およびワーク剛性を考慮のうえ，貴社にて決定願います．}
  0
MTEXT
  5
619
330
1F
100
AcDbEntity
  8
VIEW0002
 62
     7
100
AcDbMText
 10
-358.875
 20
112.875
 30
0.0
 40
3.5
 41
0.0
 71
     7
 72
     1
  1
{\W0.833333;１．左記仕様値はこのチャックの最大値を示します．使用油圧力は切削}
  0
MTEXT
  5
61A
330
1F
100
AcDbEntity
  8
VIEW0002
 62
     7
100
AcDbMText
 10
-550.375
 20
34.875
 30
0.0
 40
3.5
 41
0.0
 71
     7
 72
     1
  1
{\W0.833333;\A1;標準生爪{\H0.75x;\Sによる;}最大把握径}
  0
MTEXT
  5
61B
330
1F
100
AcDbEntity
  8
VIEW0002
 62
     7
100
AcDbMText
 10
-550.375
 20
28.875
 30
0.0
 40
3.5
 41
0.0
 71
     7
 72
     1
  1
{\W0.833333;\A1;標準生爪{\H0.75x;\Sによる;}最小把握径}
  0
MTEXT
  5
61C
102
{ACAD_XDICTIONARY
360
64F
102
}
330
1F
100
AcDbEntity
  8
VIEW0002
 62
     7
100
AcDbMText
 10
-507.1607142899717
 20
41.04999846220016
 30
0.0
 40
1.899999976158142
 41
16.70914247274399
 71
     7
 72
     1
  1
{\A1;\fＭＳ Ｐゴシック|b0|i0|c0|p0;\W0.71429x;\U+3053\U+306E\U+5024\U+306E\U+FF14\U+500D\U+304C\U+FF27\U+FF24{\A1;\H0.50000x;\W0.71429x;\S２^ ;}}\P{\A1;\fＭＳ Ｐゴシック|b0|i0|c0|p0;\W0.71429x;\U+306B\U+76F8\U+5F53\U+3057\U+307E\U+3059\U+FF0E}
1001
ACAD
1000
MTEXTBEGIN
1070
    44
1040
0.7875
1000
MTEXTEND
  0
MTEXT
  5
61D
330
1F
100
AcDbEntity
  8
VIEW0002
 62
     7
100
AcDbMText
 10
-531.0
 20
52.875
 30
0.0
 40
3.5
 41
0.0
 71
     8
 72
     1
  1
{\W0.833333;最高使用回転数}
  0
MTEXT
  5
61E
330
1F
100
AcDbEntity
  8
VIEW0002
 62
     7
100
AcDbMText
 10
-460.4285714285714
 20
52.75
 30
0.0
 40
3.0
 41
0.0
 71
     9
 72
     1
  1
{\W0.857143;r/min}
  0
MTEXT
  5
61F
330
1F
100
AcDbEntity
  8
VIEW0002
 62
     7
100
AcDbMText
 10
-460.4285714285714
 20
94.0
 30
0.0
 40
3.0
 41
0.0
 71
     6
 72
     1
  1
{\W0.857143;mm}
  0
MTEXT
  5
620
330
1F
100
AcDbEntity
  8
VIEW0002
 62
     7
100
AcDbMText
 10
-460.4285714285714
 20
64.75
 30
0.0
 40
3.0
 41
0.0
 71
     9
 72
     1
  1
{\W0.857143;kN}
  0
MTEXT
  5
621
330
1F
100
AcDbEntity
  8
VIEW0002
 62
     7
100
AcDbMText
 10
-460.4285714285714
 20
46.75
 30
0.0
 40
3.0
 41
0.0
 71
     9
 72
     1
  1
{\W0.857143;kg}
  0
MTEXT
  5
622
330
1F
100
AcDbEntity
  8
VIEW0002
 62
     7
100
AcDbMText
 10
-460.4285714285714
 20
40.75
 30
0.0
 40
3.0
 41
0.0
 71
     9
 72
     1
  1
{\W0.714286;\A1;ｋｇ・ｍ{\H0.5x;\S２^ ;}}
  0
MTEXT
  5
623
330
1F
100
AcDbEntity
  8
VIEW0002
 62
     7
100
AcDbMText
 10
-505.5
 20
121.0
 30
0.0
 40
3.5
 41
0.0
 71
     5
 72
     1
  1
{\W0.833333;仕様}
  0
MTEXT
  5
624
330
1F
100
AcDbEntity
  8
VIEW0002
 62
     7
100
AcDbMText
 10
-531.0
 20
46.875
 30
0.0
 40
3.5
 41
0.0
 71
     8
 72
     1
  1
{\W0.833333;質量}
  0
MTEXT
  5
625
330
1F
100
AcDbEntity
  8
VIEW0002
 62
     7
100
AcDbMText
 10
-549.625
 20
64.875
 30
0.0
 40
3.5
 41
0.0
 71
     7
 72
     1
  1
{\W0.833333;把　握　力}
  0
MTEXT
  5
626
330
1F
100
AcDbEntity
  8
VIEW0002
 62
     7
100
AcDbMText
 10
-549.625
 20
58.875
 30
0.0
 40
3.5
 41
0.0
 71
     7
 72
     1
  1
{\W0.833333;把握トルク}
  0
MTEXT
  5
627
330
1F
100
AcDbEntity
  8
VIEW0002
 62
     7
100
AcDbMText
 10
-508.3571428571428
 20
64.625
 30
0.0
 40
2.5
 41
0.0
 71
     9
 72
     1
  1
{\W0.833333;（許容シリンダ力時）}
  0
MTEXT
  5
628
330
1F
100
AcDbEntity
  8
VIEW0002
 62
     7
100
AcDbMText
 10
-508.3571428571428
 20
58.625
 30
0.0
 40
2.5
 41
0.0
 71
     9
 72
     1
  1
{\W0.833333;（　　　〃　　　　）}
  0
MTEXT
  5
629
330
1F
100
AcDbEntity
  8
VIEW0002
 62
     7
100
AcDbMText
 10
-358.875
 20
100.875
 30
0.0
 40
3.5
 41
0.0
 71
     7
 72
     1
  1
{\W0.833333;２．内径把握時のシリンダ力は，許容シリンダ力の１／２以下としてく}
  0
MTEXT
  5
62A
330
1F
100
AcDbEntity
  8
VIEW0002
 62
     7
100
AcDbMText
 10
-358.875
 20
94.875
 30
0.0
 40
3.5
 41
0.0
 71
     7
 72
     1
  1
{\W0.833333;　　ださい．}
  0
MTEXT
  5
62B
330
1F
100
AcDbEntity
  8
VIEW0002
 62
     7
100
AcDbMText
 10
-550.375
 20
10.875
 30
0.0
 40
3.5
 41
0.0
 71
     7
 72
     1
  1
{\W0.595238;\A1;（１{\H0.5x;\S　;}ｋＮ＝１０１{\H0.5x;\S^ ・;}９７{\H0.5x;\S　;}ｋｇｆ，１{\H0.5x;\S　;}ＭＰａ＝１０{\H0.5x;\S^ ・;}１９７{\H0.5x;\S　;}ｋｇｆ／ｃｍ{\H0.5x;\S２^ ;}）}
  0
MTEXT
  5
62C
330
1F
100
AcDbEntity
  8
VIEW0002
 62
     7
100
AcDbMText
 10
-358.875
 20
88.875
 30
0.0
 40
3.5
 41
0.0
 71
     7
 72
     1
  1
{\W0.833333;３．チャック本体への潤滑油の供給は，付属の取扱説明書に基づいて，}
  0
MTEXT
  5
62D
330
1F
100
AcDbEntity
  8
VIEW0002
 62
     7
100
AcDbMText
 10
-358.875
 20
70.875
 30
0.0
 40
3.5
 41
0.0
 71
     7
 72
     1
  1
{\W0.833333;　　推奨油種：モリコートＥＰグリース}
  0
MTEXT
  5
62E
330
1F
100
AcDbEntity
  8
VIEW0002
 62
     7
100
AcDbMText
 10
-358.875
 20
76.875
 30
0.0
 40
3.5
 41
0.0
 71
     7
 72
     1
  1
{\W0.833333;　　ニップルより定期的に実施願います．}
  0
MTEXT
  5
62F
330
1F
100
AcDbEntity
  8
VIEW0002
 62
     7
100
AcDbMText
 10
-358.875
 20
64.875
 30
0.0
 40
3.5
 41
0.0
 71
     7
 72
     1
  1
{\W0.833333;　　メーカ　：東レ・ダウコーニング（株）}
  0
MTEXT
  5
630
330
1F
100
AcDbEntity
  8
VIEW0002
 62
     7
100
AcDbMText
 10
-358.875
 20
82.875
 30
0.0
 40
3.5
 41
0.0
 71
     7
 72
     1
  1
{\W0.833333;　　使用環境，使用する切削油の種類等を考慮した上で，図示グリース}
  0
MTEXT
  5
631
330
1F
100
AcDbEntity
  8
VIEW0002
 62
     7
100
AcDbMText
 10
-460.4285714285714
 20
34.75
 30
0.0
 40
3.0
 41
0.0
 71
     9
 72
     1
  1
{\W0.857143;mm}
  0
MTEXT
  5
632
330
1F
100
AcDbEntity
  8
VIEW0002
 62
     7
100
AcDbMText
 10
-460.4285714285714
 20
28.75
 30
0.0
 40
3.0
 41
0.0
 71
     9
 72
     1
  1
{\W0.857143;mm}
  0
MTEXT
  5
633
330
1F
100
AcDbEntity
  8
VIEW0002
 62
     7
100
AcDbMText
 10
-474.5
 20
34.875
 30
0.0
 40
3.5
 41
0.0
 71
     9
 72
     1
  1
{\W0.833333;１６９}
  0
MTEXT
  5
634
330
1F
100
AcDbEntity
  8
VIEW0002
 62
     7
100
AcDbMText
 10
-474.5
 20
28.875
 30
0.0
 40
3.5
 41
0.0
 71
     9
 72
     1
  1
{\W0.833333;１５}
  0
MTEXT
  5
635
330
1F
100
AcDbEntity
  8
VIEW0002
 62
     7
100
AcDbMText
 10
-550.375
 20
126.875
 30
0.0
 40
3.5
 41
0.0
 71
     7
 72
     1
  1
{\W0.833333;仕様値を超えるシリンダ力を加えると，チャックが破損する恐れがあります．}
  0
INSERT
  5
63C
330
1F
100
AcDbEntity
  8
VIEW0002
 62
     7
100
AcDbBlockReference
  2
$X0
 10
-35.0
 20
61.0
 30
0.0
  0
ENDSEC
  0
SECTION
  2
OBJECTS
  0
DICTIONARY
  5
C
330
0
100
AcDbDictionary
  3
ACAD_GROUP
350
D
  3
ACAD_LAYOUT
350
1A
  3
ACAD_MATERIAL
350
43
  3
ACAD_MLEADERSTYLE
350
6B
  3
ACAD_MLINESTYLE
350
17
  3
ACAD_PLOTSETTINGS
350
19
  3
ACAD_SCALELIST
350
47
  3
ACAD_VISUALSTYLE
350
2A
  3
ACDB_RECOMPOSE_DATA
350
65E
  3
ACDBVARIABLEDICTIONARY
350
640
  3
DWGPROPS
350
64A
1001
ACAD
1000
TREAT_AS_HARD
1070
     0
  0
DICTIONARY
  5
651
330
4AC
100
AcDbDictionary
  3
ACAD_MTEXT_RT
360
652
  0
DICTIONARY
  5
653
330
4B4
100
AcDbDictionary
  3
ACAD_MTEXT_RT
360
654
  0
DICTIONARY
  5
64B
330
608
100
AcDbDictionary
  3
ACAD_MTEXT_RT
360
64C
  0
DICTIONARY
  5
64D
330
610
100
AcDbDictionary
  3
ACAD_MTEXT_RT
360
64E
  0
DICTIONARY
  5
64F
330
61C
100
AcDbDictionary
  3
ACAD_MTEXT_RT
360
650
  0
DICTIONARY
  5
D
102
{ACAD_REACTORS
330
C
102
}
330
C
100
AcDbDictionary
1001
ACAD
1000
TREAT_AS_HARD
1070
     0
  0
DICTIONARY
  5
1A
102
{ACAD_REACTORS
330
C
102
}
330
C
100
AcDbDictionary
1001
ACAD
1000
TREAT_AS_HARD
1070
     0
  0
DICTIONARY
  5
43
102
{ACAD_REACTORS
330
C
102
}
330
C
100
AcDbDictionary
  3
BYBLOCK
350
45
  3
BYLAYER
350
44
  3
GLOBAL
350
46
1001
ACAD
1000
TREAT_AS_HARD
1070
     0
  0
DICTIONARY
  5
6B
102
{ACAD_REACTORS
330
C
102
}
330
C
100
AcDbDictionary
  3
STANDARD
350
6C
1001
ACAD
1000
TREAT_AS_HARD
1070
     0
  0
DICTIONARY
  5
17
102
{ACAD_REACTORS
330
C
102
}
330
C
100
AcDbDictionary
  3
STANDARD
350
18
1001
ACAD
1000
TREAT_AS_HARD
1070
     0
  0
DICTIONARY
  5
19
102
{ACAD_REACTORS
330
C
102
}
330
C
100
AcDbDictionary
1001
ACAD
1000
TREAT_AS_HARD
1070
     0
  0
DICTIONARY
  5
47
102
{ACAD_REACTORS
330
C
102
}
330
C
100
AcDbDictionary
  3
A0
350
48
  3
A1
350
49
  3
A2
350
4A
  3
A3
350
4B
  3
A4
350
4C
  3
A5
350
4D
  3
A6
350
4E
  3
A7
350
4F
  3
A8
350
50
  3
A9
350
51
  3
B0
350
52
  3
B1
350
53
  3
B2
350
54
  3
B3
350
55
  3
B4
350
56
  3
B5
350
57
  3
B6
350
58
  3
B7
350
59
  3
B8
350
5A
  3
B9
350
5B
  3
C0
350
5C
  3
C1
350
5D
  3
C2
350
5E
  3
C3
350
5F
  3
C4
350
60
  3
C5
350
61
  3
C6
350
62
  3
C7
350
63
  3
C8
350
64
  3
C9
350
65
  3
D0
350
66
  3
D1
350
67
  3
D2
350
68
1001
ACAD
1000
TREAT_AS_HARD
1070
     0
  0
DICTIONARY
  5
2A
102
{ACAD_REACTORS
330
C
102
}
330
C
100
AcDbDictionary
  3
2DWIREFRAME
350
2F
  3
BASIC
350
32
  3
BRIGHTEN
350
36
  3
COLORCHANGE
350
3A
  3
CONCEPTUAL
350
34
  3
DIM
350
35
  3
EDGECOLOROFF
350
3D
  3
FACEPATTERN
350
39
  3
FLAT
350
2B
  3
FLATWITHEDGES
350
2C
  3
GOURAUD
350
2D
  3
GOURAUDWITHEDGES
350
2E
  3
HIDDEN
350
31
  3
JITTEROFF
350
3B
  3
LINEPATTERN
350
38
  3
OVERHANGOFF
350
3C
  3
REALISTIC
350
33
  3
SHADED
350
42
  3
SHADED_WITH_EDGES
350
41
  3
SHADES_OF_GRAY
350
3E
  3
SKETCHY
350
3F
  3
THICKEN
350
37
  3
WIREFRAME
350
30
  3
X-RAY
350
40
1001
ACAD
1000
TREAT_AS_HARD
1070
     0
  0
XRECORD
  5
65E
102
{ACAD_REACTORS
330
C
102
}
330
C
100
AcDbXrecord
 90
        1
330
4AC
330
4B4
330
608
330
610
330
61C
  0
DICTIONARY
  5
640
102
{ACAD_REACTORS
330
C
102
}
330
C
100
AcDbDictionary
  3
CANNOSCALE
350
655
  3
CENTEREXE
350
646
  3
CENTERLTYPEFILE
350
647
  3
CMLEADERSTYLE
350
642
  3
CTABLESTYLE
350
641
  3
DIMASSOC
350
648
  3
HIDETEXT
350
649
  3
MSLTSCALE
350
656
  3
PSOLHEIGHT
350
643
1001
ACAD
1000
TREAT_AS_HARD
1070
     0
  0
XRECORD
  5
64A
102
{ACAD_REACTORS
330
C
102
}
330
C
100
AcDbXrecord
  1
DWGPROPS COOKIE
  2

  3

  4

  6

  7

  8
GU470001
  9

300
=
301
=
302
=
303
=
304
=
305
=
306
=
307
=
308
=
309
=
 40
0.0
 41
2460892.251767315
 42
2460892.251767859
  1

 90
        0
  0
XRECORD
  5
652
102
{ACAD_REACTORS
330
651
102
}
330
651
100
AcDbXrecord
 40
1316732.0
  1
\W0.833333;\pxql;グリースニップル\P（円周等分３ヶ所）}
  0
XRECORD
  5
654
102
{ACAD_REACTORS
330
653
102
}
330
653
100
AcDbXrecord
 40
1316732.0
  1
\W0.833333;\pxql;グリースニップル\P（円周等分３ヶ所）}
  0
XRECORD
  5
64C
102
{ACAD_REACTORS
330
64B
102
}
330
64B
100
AcDbXrecord
 40
1321061.0
  1
\W0.833333;\pxql;　　　　ｒ／ｍｉｎ\PＸ１位置において}
  0
XRECORD
  5
64E
102
{ACAD_REACTORS
330
64D
102
}
330
64D
100
AcDbXrecord
 40
1226231.0
  1
\W0.833333;\pxql;Ｄ＝\U+2205　　　\Pμ＝}
  0
XRECORD
  5
650
102
{ACAD_REACTORS
330
64F
102
}
330
64F
100
AcDbXrecord
 40
1796651.0
  1
\W0.714286;\pxql;\A1;この値の４倍がＧＤ{\H0.5x;\S２^ ;}\Pに相当します．}
  0
MATERIAL
  5
45
102
{ACAD_REACTORS
330
43
102
}
102
{ACAD_XDICTIONARY
360
659
102
}
330
43
100
AcDbMaterial
  1
BYBLOCK
  0
MATERIAL
  5
44
102
{ACAD_REACTORS
330
43
102
}
102
{ACAD_XDICTIONARY
360
657
102
}
330
43
100
AcDbMaterial
  1
BYLAYER
  0
MATERIAL
  5
46
102
{ACAD_REACTORS
330
43
102
}
102
{ACAD_XDICTIONARY
360
65B
102
}
330
43
100
AcDbMaterial
  1
GLOBAL
  0
ACAD_PROXY_OBJECT
  5
6C
102
{ACAD_REACTORS
330
6B
102
}
330
6B
100
AcDbZombieObject
 90
      499
 91
      505
 93
      610
310
40901902A4063FBFFFFFE0000000000000020400000000000020404214DD185B99185C990000000000000104090141901A00000000000004100000000000000041025764000000000000039000
340
14
340
0
340
11
340
0
 94
        0
1001
ACAD_MLEADERVER
1070
     2
  0
MLINESTYLE
  5
18
102
{ACAD_REACTORS
330
17
102
}
330
17
100
AcDbMlineStyle
  2
Standard
 70
     0
  3

 62
   256
 51
90.0
 52
90.0
 71
     2
 49
0.5
 62
   256
  6
BYLAYER
 49
-0.5
 62
   256
  6
BYLAYER
  0
ACAD_PROXY_OBJECT
  5
48
102
{ACAD_REACTORS
330
47
102
}
330
47
100
AcDbZombieObject
 90
      499
 91
      503
 93
       41
310
903313A31580
  0
ACAD_PROXY_OBJECT
  5
49
102
{ACAD_REACTORS
330
47
102
}
330
47
100
AcDbZombieObject
 90
      499
 91
      503
 93
      105
310
903313A324000000000000004000
  0
ACAD_PROXY_OBJECT
  5
4A
102
{ACAD_REACTORS
330
47
102
}
330
47
100
AcDbZombieObject
 90
      499
 91
      503
 93
      105
310
903313A344000000000000104000
  0
ACAD_PROXY_OBJECT
  5
4B
102
{ACAD_REACTORS
330
47
102
}
330
47
100
AcDbZombieObject
 90
      499
 91
      503
 93
      105
310
903313A354000000000000144000
  0
ACAD_PROXY_OBJECT
  5
4C
102
{ACAD_REACTORS
330
47
102
}
330
47
100
AcDbZombieObject
 90
      499
 91
      503
 93
      105
310
903313A384000000000000204000
  0
ACAD_PROXY_OBJECT
  5
4D
102
{ACAD_REACTORS
330
47
102
}
330
47
100
AcDbZombieObject
 90
      499
 91
      503
 93
      113
310
904313A31304000000000000244000
  0
ACAD_PROXY_OBJECT
  5
4E
102
{ACAD_REACTORS
330
47
102
}
330
47
100
AcDbZombieObject
 90
      499
 91
      503
 93
      113
310
904313A31364000000000000304000
  0
ACAD_PROXY_OBJECT
  5
4F
102
{ACAD_REACTORS
330
47
102
}
330
47
100
AcDbZombieObject
 90
      499
 91
      503
 93
      113
310
904313A32304000000000000344000
  0
ACAD_PROXY_OBJECT
  5
50
102
{ACAD_REACTORS
330
47
102
}
330
47
100
AcDbZombieObject
 90
      499
 91
      503
 93
      113
310
904313A333040000000000003E4000
  0
ACAD_PROXY_OBJECT
  5
51
102
{ACAD_REACTORS
330
47
102
}
330
47
100
AcDbZombieObject
 90
      499
 91
      503
 93
      113
310
904313A34304000000000000444000
  0
ACAD_PROXY_OBJECT
  5
52
102
{ACAD_REACTORS
330
47
102
}
330
47
100
AcDbZombieObject
 90
      499
 91
      503
 93
      113
310
904313A35304000000000000494000
  0
ACAD_PROXY_OBJECT
  5
53
102
{ACAD_REACTORS
330
47
102
}
330
47
100
AcDbZombieObject
 90
      499
 91
      503
 93
      121
310
905313A3130304000000000000594000
  0
ACAD_PROXY_OBJECT
  5
54
102
{ACAD_REACTORS
330
47
102
}
330
47
100
AcDbZombieObject
 90
      499
 91
      503
 93
      105
310
903323A310000000000000010100
  0
ACAD_PROXY_OBJECT
  5
55
102
{ACAD_REACTORS
330
47
102
}
330
47
100
AcDbZombieObject
 90
      499
 91
      503
 93
      105
310
903343A310000000000000410100
  0
ACAD_PROXY_OBJECT
  5
56
102
{ACAD_REACTORS
330
47
102
}
330
47
100
AcDbZombieObject
 90
      499
 91
      503
 93
      105
310
903383A310000000000000810100
  0
ACAD_PROXY_OBJECT
  5
57
102
{ACAD_REACTORS
330
47
102
}
330
47
100
AcDbZombieObject
 90
      499
 91
      503
 93
      113
310
90431303A310000000000000910100
  0
ACAD_PROXY_OBJECT
  5
58
102
{ACAD_REACTORS
330
47
102
}
330
47
100
AcDbZombieObject
 90
      499
 91
      503
 93
      121
310
9053130303A310000000000001650100
  0
ACAD_PROXY_OBJECT
  5
59
102
{ACAD_REACTORS
330
47
102
}
330
47
100
AcDbZombieObject
 90
      499
 91
      503
 93
      257
310
90E312F31323822203D2031272D3022000000000000200FC000000000000284000
  0
ACAD_PROXY_OBJECT
  5
5A
102
{ACAD_REACTORS
330
47
102
}
330
47
100
AcDbZombieObject
 90
      499
 91
      503
 93
      249
310
90D312F363422203D2031272D3022000000000000240FC000000000000284000
  0
ACAD_PROXY_OBJECT
  5
5B
102
{ACAD_REACTORS
330
47
102
}
330
47
100
AcDbZombieObject
 90
      499
 91
      503
 93
      249
310
90D312F333222203D2031272D3022000000000000280FC000000000000284000
  0
ACAD_PROXY_OBJECT
  5
5C
102
{ACAD_REACTORS
330
47
102
}
330
47
100
AcDbZombieObject
 90
      499
 91
      503
 93
      249
310
90D312F313622203D2031272D30220000000000002C0FC000000000000284000
  0
ACAD_PROXY_OBJECT
  5
5D
102
{ACAD_REACTORS
330
47
102
}
330
47
100
AcDbZombieObject
 90
      499
 91
      503
 93
      249
310
90D332F333222203D2031272D30220000000000002E0FC000000000000284000
  0
ACAD_PROXY_OBJECT
  5
5E
102
{ACAD_REACTORS
330
47
102
}
330
47
100
AcDbZombieObject
 90
      499
 91
      503
 93
      241
310
90C312F3822203D2031272D3022000000000000300FC000000000000284000
  0
ACAD_PROXY_OBJECT
  5
5F
102
{ACAD_REACTORS
330
47
102
}
330
47
100
AcDbZombieObject
 90
      499
 91
      503
 93
      249
310
90D332F313622203D2031272D3022000000000000320FC000000000000284000
  0
ACAD_PROXY_OBJECT
  5
60
102
{ACAD_REACTORS
330
47
102
}
330
47
100
AcDbZombieObject
 90
      499
 91
      503
 93
      241
310
90C312F3422203D2031272D3022000000000000340FC000000000000284000
  0
ACAD_PROXY_OBJECT
  5
61
102
{ACAD_REACTORS
330
47
102
}
330
47
100
AcDbZombieObject
 90
      499
 91
      503
 93
      241
310
90C332F3822203D2031272D3022000000000000360FC000000000000284000
  0
ACAD_PROXY_OBJECT
  5
62
102
{ACAD_REACTORS
330
47
102
}
330
47
100
AcDbZombieObject
 90
      499
 91
      503
 93
      241
310
90C312F3222203D2031272D3022000000000000380FC000000000000284000
  0
ACAD_PROXY_OBJECT
  5
63
102
{ACAD_REACTORS
330
47
102
}
330
47
100
AcDbZombieObject
 90
      499
 91
      503
 93
      241
310
90C332F3422203D2031272D30220000000000003A0FC000000000000284000
  0
ACAD_PROXY_OBJECT
  5
64
102
{ACAD_REACTORS
330
47
102
}
330
47
100
AcDbZombieObject
 90
      499
 91
      503
 93
      161
310
90A3122203D2031272D30224000000000000284000
  0
ACAD_PROXY_OBJECT
  5
65
102
{ACAD_REACTORS
330
47
102
}
330
47
100
AcDbZombieObject
 90
      499
 91
      503
 93
      257
310
90E312D312F3222203D2031272D30220000000000003E0FC000000000000284000
  0
ACAD_PROXY_OBJECT
  5
66
102
{ACAD_REACTORS
330
47
102
}
330
47
100
AcDbZombieObject
 90
      499
 91
      503
 93
      225
310
90A3322203D2031272D302200000000000002100000000000000284000
  0
ACAD_PROXY_OBJECT
  5
67
102
{ACAD_REACTORS
330
47
102
}
330
47
100
AcDbZombieObject
 90
      499
 91
      503
 93
      225
310
90A3622203D2031272D302200000000000006100000000000000284000
  0
ACAD_PROXY_OBJECT
  5
68
102
{ACAD_REACTORS
330
47
102
}
330
47
100
AcDbZombieObject
 90
      499
 91
      503
 93
      249
310
90D31272D3022203D2031272D30220000000000000A100000000000000284000
  0
ACAD_PROXY_OBJECT
  5
2F
102
{ACAD_REACTORS
330
2A
102
}
330
2A
100
AcDbZombieObject
 90
      499
 91
      501
 93
      436
310
42CC9915DA5C99599C985B595049028333333333333E33F0000000000000F90107901411070040501600405405064090741402480A0340
1001
ACAD
1000
AcDbSavedByObjectVersion
1070
     0
  0
ACAD_PROXY_OBJECT
  5
32
102
{ACAD_REACTORS
330
2A
102
}
330
2A
100
AcDbZombieObject
 90
      499
 91
      501
 93
      388
310
4150985CDA58D07406404333333333333E33F0000000000000F90107A41107004050150841D405064090741402480A0350
1001
ACAD
1000
AcDbSavedByObjectVersion
1070
     0
  0
ACAD_PROXY_OBJECT
  5
36
102
{ACAD_REACTORS
330
2A
102
}
330
2A
100
AcDbZombieObject
 90
      499
 91
      501
 93
      428
310
42109C9A59DA1D195B90C409028333333333333E33F0000000000000F9010790141107004050150841D405064090741402480A029950
1001
ACAD
1000
AcDbSavedByObjectVersion
1070
     0
  0
ACAD_PROXY_OBJECT
  5
3A
102
{ACAD_REACTORS
330
2A
102
}
330
2A
100
AcDbZombieObject
 90
      499
 91
      501
 93
      452
310
42D0DBDB1BDC90DA185B99D95104090240C333333333333E33F0000000000000F90108901411070040501508421405064090741402480A0350
1001
ACAD
1000
AcDbSavedByObjectVersion
1070
     0
  0
ACAD_PROXY_OBJECT
  5
34
102
{ACAD_REACTORS
330
2A
102
}
330
2A
100
AcDbZombieObject
 90
      499
 91
      501
 93
      500
310
4290DBDB98D95C1D1D585B10940D028333333333333E33F0000000000000F90107902409070040501000000000018199010841D405064090740C02480A0340
1001
ACAD
1000
AcDbSavedByObjectVersion
1070
     0
  0
ACAD_PROXY_OBJECT
  5
35
102
{ACAD_REACTORS
330
2A
102
}
330
2A
100
AcDbZombieObject
 90
      499
 91
      501
 93
      412
310
40D11A5B50B409028333333333333E33F0000000000000F9010790141107004050150841D405064090741402480A02677FFFFFD0
1001
ACAD
1000
AcDbSavedByObjectVersion
1070
     0
  0
ACAD_PROXY_OBJECT
  5
3D
102
{ACAD_REACTORS
330
2A
102
}
330
2A
100
AcDbZombieObject
 90
      499
 91
      501
 93
      452
310
43115919D950DBDB1BDC93D999916409028333333333333E33F0000000000000F9010790141107004050150841D405064090741402480A0350
1001
ACAD
1000
AcDbSavedByObjectVersion
1070
     0
  0
ACAD_PROXY_OBJECT
  5
39
102
{ACAD_REACTORS
330
2A
102
}
330
2A
100
AcDbZombieObject
 90
      499
 91
      501
 93
      444
310
42D19858D95C185D1D195C9B90F409028333333333333E33F0000000000000F9010790141107004050150841D405064090741402480A0350
1001
ACAD
1000
AcDbSavedByObjectVersion
1070
     0
  0
ACAD_PROXY_OBJECT
  5
2B
102
{ACAD_REACTORS
330
2A
102
}
330
2A
100
AcDbZombieObject
 90
      499
 91
      501
 93
      380
310
41119B185D240901404333333333333E33F0000000000000F9010740A907004050150841D405064090741402480A1B50
1001
ACAD
1000
AcDbSavedByObjectVersion
1070
     0
  0
ACAD_PROXY_OBJECT
  5
2C
102
{ACAD_REACTORS
330
2A
102
}
330
2A
100
AcDbZombieObject
 90
      499
 91
      501
 93
      468
310
43519B185D15DA5D1A115919D95CD0140901404333333333333E33F0000000000000F90107409019070040501600405405064090741402480A1B50
1001
ACAD
1000
AcDbSavedByObjectVersion
1070
     0
  0
ACAD_PROXY_OBJECT
  5
2D
102
{ACAD_REACTORS
330
2A
102
}
330
2A
100
AcDbZombieObject
 90
      499
 91
      501
 93
      404
310
41D1DBDD5C985D5910240902404333333333333E33F0000000000000F9010740A9070040501641D405064090741402480A1B50
1001
ACAD
1000
AcDbSavedByObjectVersion
1070
     0
  0
ACAD_PROXY_OBJECT
  5
2E
102
{ACAD_REACTORS
330
2A
102
}
330
2A
100
AcDbZombieObject
 90
      499
 91
      501
 93
      492
310
4411DBDD5C985D5915DA5D1A115919D95CD0340902404333333333333E33F0000000000000F90107409019070040501600405405064090741402480A1B50
1001
ACAD
1000
AcDbSavedByObjectVersion
1070
     0
  0
ACAD_PROXY_OBJECT
  5
31
102
{ACAD_REACTORS
330
2A
102
}
330
2A
100
AcDbZombieObject
 90
      499
 91
      501
 93
      476
310
41921A5919195B90640502408333333333333E33F0000000000000F901079024090700405020000000000001110200405405064090740C02480A0340
1001
ACAD
1000
AcDbSavedByObjectVersion
1070
     0
  0
ACAD_PROXY_OBJECT
  5
3B
102
{ACAD_REACTORS
330
2A
102
}
330
2A
100
AcDbZombieObject
 90
      499
 91
      501
 93
      428
310
42529A5D1D195C93D999914409028333333333333E33F0000000000000F9010790141107004050150A41D405064090741402480A0350
1001
ACAD
1000
AcDbSavedByObjectVersion
1070
     0
  0
ACAD_PROXY_OBJECT
  5
38
102
{ACAD_REACTORS
330
2A
102
}
330
2A
100
AcDbZombieObject
 90
      499
 91
      501
 93
      444
310
42D31A5B995C185D1D195C9B90E409028333333333333E33F0000000000000F9010790141107004050750841D405064090741402483A0350
1001
ACAD
1000
AcDbSavedByObjectVersion
1070
     0
  0
ACAD_PROXY_OBJECT
  5
3C
102
{ACAD_REACTORS
330
2A
102
}
330
2A
100
AcDbZombieObject
 90
      499
 91
      501
 93
      444
310
42D3DD995C9A185B99D3D999915409028333333333333E33F0000000000000F9010790141107004050150941D405064090741402480A0350
1001
ACAD
1000
AcDbSavedByObjectVersion
1070
     0
  0
ACAD_PROXY_OBJECT
  5
33
102
{ACAD_REACTORS
330
2A
102
}
330
2A
100
AcDbZombieObject
 90
      499
 91
      501
 93
      428
310
425499585B1A5CDD1A58D08409038333333333333E33F0000000000000F9010740A907004050150800405405064090740C02480A1B40
1001
ACAD
1000
AcDbSavedByObjectVersion
1070
     0
  0
ACAD_PROXY_OBJECT
  5
42
102
{ACAD_REACTORS
330
2A
102
}
330
2A
100
AcDbZombieObject
 90
      499
 91
      501
 93
      420
310
4194DA1859195911B40902404333333333333E33F0000000000000F9010740A41107004050150800405405064090840C02480A0B40
1001
ACAD
1000
AcDbSavedByObjectVersion
1070
     0
  0
ACAD_PROXY_OBJECT
  5
41
102
{ACAD_REACTORS
330
2A
102
}
330
2A
100
AcDbZombieObject
 90
      499
 91
      501
 93
      516
310
4454DA18591959081DDA5D1A08195919D95CD1A40902404333333333333E33F0000000000000F901074090142907004050250800405405064090740C02480A0B40
1001
ACAD
1000
AcDbSavedByObjectVersion
1070
     0
  0
ACAD_PROXY_OBJECT
  5
3E
102
{ACAD_REACTORS
330
2A
102
}
330
2A
100
AcDbZombieObject
 90
      499
 91
      501
 93
      532
310
4394DA1859195CC81BD98811DC985E5174090240C333333333333E33F0000000000000F901079024090741D01000000000000111010841D405064090740C02480A0340
1001
ACAD
1000
AcDbSavedByObjectVersion
1070
     0
  0
ACAD_PROXY_OBJECT
  5
3F
102
{ACAD_REACTORS
330
2A
102
}
330
2A
100
AcDbZombieObject
 90
      499
 91
      501
 93
      476
310
41D4DAD95D18DA1E51840502408333333333333E33F0000000000000F901079024090741D01000000000000111010B41D405064090741802480A0340
1001
ACAD
1000
AcDbSavedByObjectVersion
1070
     0
  0
ACAD_PROXY_OBJECT
  5
37
102
{ACAD_REACTORS
330
2A
102
}
330
2A
100
AcDbZombieObject
 90
      499
 91
      501
 93
      412
310
41D51A1A58DAD95B90D409028333333333333E33F0000000000000F9010790141107004050150C41D405064090741402480A0350
1001
ACAD
1000
AcDbSavedByObjectVersion
1070
     0
  0
ACAD_PROXY_OBJECT
  5
30
102
{ACAD_REACTORS
330
2A
102
}
330
2A
100
AcDbZombieObject
 90
      499
 91
      501
 93
      420
310
4255DA5C99599C985B595059028333333333333E33F0000000000000F90107901411070040501600405405064090740C02480A0340
1001
ACAD
1000
AcDbSavedByObjectVersion
1070
     0
  0
ACAD_PROXY_OBJECT
  5
40
102
{ACAD_REACTORS
330
2A
102
}
330
2A
100
AcDbZombieObject
 90
      499
 91
      501
 93
      404
310
41560B54985E51940902404000000000000E03F0000000000000F9010740501907004050150841D405064090740C02480A1B40
1001
ACAD
1000
AcDbSavedByObjectVersion
1070
     0
  0
DICTIONARYVAR
  5
655
102
{ACAD_REACTORS
330
640
102
}
330
640
100
DictionaryVariables
280
     0
  1
1:1
  0
DICTIONARYVAR
  5
646
102
{ACAD_REACTORS
330
640
102
}
330
640
100
DictionaryVariables
280
     0
  1
3.500000
  0
DICTIONARYVAR
  5
647
102
{ACAD_REACTORS
330
640
102
}
330
640
100
DictionaryVariables
280
     0
  1
acadiso.lin
  0
DICTIONARYVAR
  5
642
102
{ACAD_REACTORS
330
640
102
}
330
640
100
DictionaryVariables
280
     0
  1
Standard
  0
DICTIONARYVAR
  5
641
102
{ACAD_REACTORS
330
640
102
}
330
640
100
DictionaryVariables
280
     0
  1
Standard
  0
DICTIONARYVAR
  5
648
102
{ACAD_REACTORS
330
640
102
}
330
640
100
DictionaryVariables
280
     0
  1
2
  0
DICTIONARYVAR
  5
649
102
{ACAD_REACTORS
330
640
102
}
330
640
100
DictionaryVariables
280
     0
  1
1
  0
DICTIONARYVAR
  5
656
102
{ACAD_REACTORS
330
640
102
}
330
640
100
DictionaryVariables
280
     0
  1
1
  0
DICTIONARYVAR
  5
643
102
{ACAD_REACTORS
330
640
102
}
330
640
100
DictionaryVariables
280
     0
  1
80.000000
  0
DICTIONARY
  5
659
330
45
100
AcDbDictionary
  3
ACAD_XREC_ROUNDTRIP
360
65A
1001
ACAD
1000
TREAT_AS_HARD
1070
     1
  0
DICTIONARY
  5
657
330
44
100
AcDbDictionary
  3
ACAD_XREC_ROUNDTRIP
360
658
1001
ACAD
1000
TREAT_AS_HARD
1070
     1
  0
DICTIONARY
  5
65B
330
46
100
AcDbDictionary
  3
ACAD_XREC_ROUNDTRIP
360
65C
1001
ACAD
1000
TREAT_AS_HARD
1070
     1
  0
XRECORD
  5
65A
102
{ACAD_REACTORS
330
659
102
}
330
659
100
AcDbXrecord
102
MATERIAL
148
0.0
149
0.0
149
0.0
 93
        0
 94
      127
282
     0
 72
     1
 77
     1
171
     1
175
     1
179
     1
273
     0
  0
XRECORD
  5
658
102
{ACAD_REACTORS
330
657
102
}
330
657
100
AcDbXrecord
102
MATERIAL
148
0.0
149
0.0
149
0.0
 93
        0
 94
      127
282
     0
 72
     1
 77
     1
171
     1
175
     1
179
     1
273
     0
  0
XRECORD
  5
65C
102
{ACAD_REACTORS
330
65B
102
}
330
65B
100
AcDbXrecord
102
MATERIAL
148
0.0
149
0.0
149
0.0
 93
        0
 94
      127
282
     0
 72
     1
 77
     1
171
     1
175
     1
179
     1
273
     0
  0
ENDSEC
  0
EOF
