  0
SECTION
  2
HEADER
  9
$ACADVER
  1
AC1012
  9
$DWGCODEPAGE
  3
ansi_932
  9
$INSBASE
 10
0.0
 20
0.0
 30
0.0
  9
$EXTMIN
 10
-832.4999809594142
 20
5.082973289489746
 30
0.0
  9
$EXTMAX
 10
-10.0
 20
585.0
 30
0.0
  9
$LIMMIN
 10
-832.4999809594142
 20
5.082973289489746
  9
$LIMMAX
 10
-10.0
 20
585.0
  9
$ORTHOMODE
 70
     0
  9
$REGENMODE
 70
     1
  9
$FILLMODE
 70
     1
  9
$QTEXTMODE
 70
     0
  9
$MIRRTEXT
 70
     1
  9
$DRAGMODE
 70
     2
  9
$LTSCALE
 40
1.0
  9
$OSMODE
 70
    37
  9
$ATTMODE
 70
     1
  9
$TEXTSIZE
 40
2.5
  9
$TRACEWID
 40
1.0
  9
$TEXTSTYLE
  7
STANDARD
  9
$CLAYER
  8
0
  9
$CELTYPE
  6
BYLAYER
  9
$CECOLOR
 62
   256
  9
$CELTSCALE
 40
1.0
  9
$DELOBJ
 70
     1
  9
$DISPSILH
 70
     0
  9
$DIMSCALE
 40
1.0
  9
$DIMASZ
 40
2.5
  9
$DIMEXO
 40
0.625
  9
$DIMDLI
 40
3.75
  9
$DIMRND
 40
0.0
  9
$DIMDLE
 40
0.0
  9
$DIMEXE
 40
1.25
  9
$DIMTP
 40
0.0
  9
$DIMTM
 40
0.0
  9
$DIMTXT
 40
2.5
  9
$DIMCEN
 40
2.5
  9
$DIMTSZ
 40
0.0
  9
$DIMTOL
 70
     0
  9
$DIMLIM
 70
     0
  9
$DIMTIH
 70
     0
  9
$DIMTOH
 70
     0
  9
$DIMSE1
 70
     0
  9
$DIMSE2
 70
     0
  9
$DIMTAD
 70
     1
  9
$DIMZIN
 70
     8
  9
$DIMBLK
  1

  9
$DIMASO
 70
     1
  9
$DIMSHO
 70
     1
  9
$DIMPOST
  1

  9
$DIMAPOST
  1

  9
$DIMALT
 70
     0
  9
$DIMALTD
 70
     3
  9
$DIMALTF
 40
0.03937007874016
  9
$DIMLFAC
 40
1.0
  9
$DIMTOFL
 70
     1
  9
$DIMTVP
 40
0.0
  9
$DIMTIX
 70
     0
  9
$DIMSOXD
 70
     0
  9
$DIMSAH
 70
     0
  9
$DIMBLK1
  1

  9
$DIMBLK2
  1

  9
$DIMSTYLE
  2
ISO-25
  9
$DIMCLRD
 70
     0
  9
$DIMCLRE
 70
     0
  9
$DIMCLRT
 70
     0
  9
$DIMTFAC
 40
1.0
  9
$DIMGAP
 40
0.625
  9
$DIMJUST
 70
     0
  9
$DIMSD1
 70
     0
  9
$DIMSD2
 70
     0
  9
$DIMTOLJ
 70
     0
  9
$DIMTZIN
 70
     8
  9
$DIMALTZ
 70
     0
  9
$DIMALTTZ
 70
     0
  9
$DIMFIT
 70
     3
  9
$DIMUPT
 70
     0
  9
$DIMUNIT
 70
     2
  9
$DIMDEC
 70
     2
  9
$DIMTDEC
 70
     2
  9
$DIMALTU
 70
     2
  9
$DIMALTTD
 70
     3
  9
$DIMTXSTY
  7
STANDARD
  9
$DIMAUNIT
 70
     0
  9
$LUNITS
 70
     2
  9
$LUPREC
 70
     4
  9
$SKETCHINC
 40
1.0
  9
$FILLETRAD
 40
10.0
  9
$AUNITS
 70
     0
  9
$AUPREC
 70
     0
  9
$MENU
  1
.
  9
$ELEVATION
 40
0.0
  9
$PELEVATION
 40
0.0
  9
$THICKNESS
 40
0.0
  9
$LIMCHECK
 70
     0
  9
$CHAMFERA
 40
0.0
  9
$CHAMFERB
 40
0.0
  9
$CHAMFERC
 40
0.0
  9
$CHAMFERD
 40
0.0
  9
$SKPOLY
 70
     0
  9
$TDCREATE
 40
2460892.626772546
  9
$TDUPDATE
 40
2460892.626772905
  9
$TDINDWG
 40
0.0000000116
  9
$TDUSRTIMER
 40
0.0000000116
  9
$USRTIMER
 70
     1
  9
$ANGBASE
 50
0.0
  9
$ANGDIR
 70
     0
  9
$PDMODE
 70
     0
  9
$PDSIZE
 40
0.0
  9
$PLINEWID
 40
0.0
  9
$COORDS
 70
     1
  9
$SPLFRAME
 70
     0
  9
$SPLINETYPE
 70
     6
  9
$SPLINESEGS
 70
     8
  9
$ATTDIA
 70
     0
  9
$ATTREQ
 70
     1
  9
$HANDLING
 70
     1
  9
$HANDSEED
  5
608
  9
$SURFTAB1
 70
     6
  9
$SURFTAB2
 70
     6
  9
$SURFTYPE
 70
     6
  9
$SURFU
 70
     6
  9
$SURFV
 70
     6
  9
$UCSNAME
  2

  9
$UCSORG
 10
0.0
 20
0.0
 30
0.0
  9
$UCSXDIR
 10
1.0
 20
0.0
 30
0.0
  9
$UCSYDIR
 10
0.0
 20
1.0
 30
0.0
  9
$PUCSNAME
  2

  9
$PUCSORG
 10
0.0
 20
0.0
 30
0.0
  9
$PUCSXDIR
 10
1.0
 20
0.0
 30
0.0
  9
$PUCSYDIR
 10
0.0
 20
1.0
 30
0.0
  9
$USERI1
 70
     0
  9
$USERI2
 70
     0
  9
$USERI3
 70
     0
  9
$USERI4
 70
     0
  9
$USERI5
 70
     0
  9
$USERR1
 40
0.0
  9
$USERR2
 40
0.0
  9
$USERR3
 40
0.0
  9
$USERR4
 40
0.0
  9
$USERR5
 40
0.0
  9
$WORLDVIEW
 70
     1
  9
$SHADEDGE
 70
     3
  9
$SHADEDIF
 70
    70
  9
$TILEMODE
 70
     1
  9
$MAXACTVP
 70
    64
  9
$PINSBASE
 10
0.0
 20
0.0
 30
0.0
  9
$PLIMCHECK
 70
     0
  9
$PEXTMIN
 10
1.000000000000000E+20
 20
1.000000000000000E+20
 30
1.000000000000000E+20
  9
$PEXTMAX
 10
-1.000000000000000E+20
 20
-1.000000000000000E+20
 30
-1.000000000000000E+20
  9
$PLIMMIN
 10
-832.4999809594142
 20
5.082973289489746
  9
$PLIMMAX
 10
-10.0
 20
585.0
  9
$UNITMODE
 70
     0
  9
$VISRETAIN
 70
     1
  9
$PLINEGEN
 70
     0
  9
$PSLTSCALE
 70
     1
  9
$TREEDEPTH
 70
  3020
  9
$PICKSTYLE
 70
     1
  9
$CMLSTYLE
  2
STANDARD
  9
$CMLJUST
 70
     0
  9
$CMLSCALE
 40
20.0
  9
$SAVEIMAGES
 70
     1
  0
ENDSEC
  0
SECTION
  2
CLASSES
  0
CLASS
  1
ACDBDICTIONARYWDFLT
  2
AcDbDictionaryWithDefault
  3
ObjectDBX Classes
 90
    32768
280
     0
281
     0
  0
CLASS
  1
VISUALSTYLE
  2
AcDbVisualStyle
  3
ObjectDBX Classes
 90
     4095
280
     0
281
     0
  0
CLASS
  1
MATERIAL
  2
AcDbMaterial
  3
ObjectDBX Classes
 90
     1153
280
     0
281
     0
  0
CLASS
  1
SCALE
  2
AcDbScale
  3
ObjectDBX Classes
 90
     1153
280
     0
281
     0
  0
CLASS
  1
TABLESTYLE
  2
AcDbTableStyle
  3
ObjectDBX Classes
 90
     4095
280
     0
281
     0
  0
CLASS
  1
MLEADERSTYLE
  2
AcDbMLeaderStyle
  3
ACDB_MLEADERSTYLE_CLASS
 90
     4095
280
     0
281
     0
  0
CLASS
  1
SUN
  2
AcDbSun
  3
SCENEOE
 90
     1153
280
     0
281
     0
  0
CLASS
  1
DICTIONARYVAR
  2
AcDbDictionaryVar
  3
ObjectDBX Classes
 90
        0
280
     0
281
     0
  0
CLASS
  1
XRECORD
  2
AcDbXrecord
  3
ObjectDBX Classes
 90
    32768
280
     0
281
     0
  0
CLASS
  1
LWPOLYLINE
  2
AcDbPolyline
  3
ObjectDBX Classes
 90
    32768
280
     0
281
     1
  0
CLASS
  1
HATCH
  2
AcDbHatch
  3
ObjectDBX Classes
 90
    32768
280
     0
281
     1
  0
CLASS
  1
ACDBPLACEHOLDER
  2
AcDbPlaceHolder
  3
ObjectDBX Classes
 90
        0
280
     0
281
     0
  0
CLASS
  1
LAYOUT
  2
AcDbLayout
  3
ObjectDBX Classes
 90
        0
280
     0
281
     0
  0
ENDSEC
  0
SECTION
  2
TABLES
  0
TABLE
  2
VPORT
  5
8
330
0
100
AcDbSymbolTable
 70
     1
  0
VPORT
  5
29
330
8
100
AcDbSymbolTableRecord
100
AcDbViewportTableRecord
  2
*ACTIVE
 70
     0
 10
0.0
 20
0.0
 11
1.0
 21
1.0
 12
344.1869158878504
 22
148.5
 13
0.0
 23
0.0
 14
10.0
 24
10.0
 15
10.0
 25
10.0
 16
0.0
 26
0.0
 36
1.0
 17
0.0
 27
0.0
 37
0.0
 40
297.0
 41
1.972972972850329
 42
50.0
 43
0.0
 44
0.0
 50
0.0
 51
0.0
 71
     0
 72
   100
 73
     1
 74
     3
 75
     0
 76
     0
 77
     0
 78
     0
  0
ENDTAB
  0
TABLE
  2
LTYPE
  5
5
330
0
100
AcDbSymbolTable
 70
     5
  0
LTYPE
  5
14
330
5
100
AcDbSymbolTableRecord
100
AcDbLinetypeTableRecord
  2
BYBLOCK
 70
     0
  3

 72
    65
 73
     0
 40
0.0
  0
LTYPE
  5
15
330
5
100
AcDbSymbolTableRecord
100
AcDbLinetypeTableRecord
  2
BYLAYER
 70
     0
  3

 72
    65
 73
     0
 40
0.0
  0
LTYPE
  5
16
330
5
100
AcDbSymbolTableRecord
100
AcDbLinetypeTableRecord
  2
CONTINUOUS
 70
     0
  3
Solid line
 72
    65
 73
     0
 40
0.0
  0
LTYPE
  5
6E
330
5
100
AcDbSymbolTableRecord
100
AcDbLinetypeTableRecord
  2
CONTINOUS
 70
     0
  3
______________________________
 72
    65
 73
     0
 40
0.0
  0
LTYPE
  5
6F
330
5
100
AcDbSymbolTableRecord
100
AcDbLinetypeTableRecord
  2
DASHED
 70
     0
  3
__ __ __ __ __ __ __ __ __ __ __ __ __ __ __ __
 72
    65
 73
     2
 40
4.5
 49
3.0
 74
     0
 49
-1.5
 74
     0
  0
LTYPE
  5
70
330
5
100
AcDbSymbolTableRecord
100
AcDbLinetypeTableRecord
  2
PHANTOM
 70
     0
  3
______  __  __  ______  __  __  _____
 72
    65
 73
     6
 40
15.0
 49
7.5
 74
     0
 49
-1.5
 74
     0
 49
1.5
 74
     0
 49
-1.5
 74
     0
 49
1.5
 74
     0
 49
-1.5
 74
     0
  0
LTYPE
  5
71
330
5
100
AcDbSymbolTableRecord
100
AcDbLinetypeTableRecord
  2
CENTER
 70
     0
  3
____ _ ____ _ ____ _ ____ _ ____ _ ____
 72
    65
 73
     4
 40
12.0
 49
7.5
 74
     0
 49
-1.5
 74
     0
 49
1.5
 74
     0
 49
-1.5
 74
     0
  0
ENDTAB
  0
TABLE
  2
LAYER
  5
2
330
0
100
AcDbSymbolTable
 70
     5
  0
LAYER
  5
10
330
2
100
AcDbSymbolTableRecord
100
AcDbLayerTableRecord
  2
0
 70
     0
 62
     7
  6
CONTINUOUS
  0
LAYER
  5
29E
330
2
100
AcDbSymbolTableRecord
100
AcDbLayerTableRecord
  2
DEFPOINTS
 70
     0
 62
     7
  6
CONTINUOUS
  0
LAYER
  5
541
330
2
100
AcDbSymbolTableRecord
100
AcDbLayerTableRecord
  2
VIEW0001
 70
     0
 62
     7
  6
CONTINUOUS
  0
LAYER
  5
579
330
2
100
AcDbSymbolTableRecord
100
AcDbLayerTableRecord
  2
VIEW0002
 70
     0
 62
     7
  6
CONTINUOUS
  0
LAYER
  5
5EC
330
2
100
AcDbSymbolTableRecord
100
AcDbLayerTableRecord
  2
VIEW0003
 70
     0
 62
     7
  6
CONTINUOUS
  0
ENDTAB
  0
TABLE
  2
STYLE
  5
3
330
0
100
AcDbSymbolTable
 70
     1
  0
STYLE
  5
11
330
3
100
AcDbSymbolTableRecord
100
AcDbTextStyleTableRecord
  2
STANDARD
 70
     0
 40
0.0
 41
1.0
 50
0.0
 71
     0
 42
2.5
  3
ROMANS
  4
EXTFONT
  0
ENDTAB
  0
TABLE
  2
VIEW
  5
6
330
0
100
AcDbSymbolTable
 70
     0
  0
ENDTAB
  0
TABLE
  2
UCS
  5
7
330
0
100
AcDbSymbolTable
 70
     0
  0
ENDTAB
  0
TABLE
  2
APPID
  5
9
330
0
100
AcDbSymbolTable
 70
     2
  0
APPID
  5
12
330
9
100
AcDbSymbolTableRecord
100
AcDbRegAppTableRecord
  2
ACAD
 70
     0
  0
APPID
  5
606
330
9
100
AcDbSymbolTableRecord
100
AcDbRegAppTableRecord
  2
ACAD_MLEADERVER
 70
     0
  0
ENDTAB
  0
TABLE
  2
DIMSTYLE
  5
A
330
0
100
AcDbSymbolTable
 70
     1
  0
DIMSTYLE
105
27
102
{ACAD_REACTORS
330
297
330
2AB
330
2B8
330
2C3
330
2CF
330
2DC
330
2EE
330
2FD
330
30D
330
31A
330
328
330
335
330
343
330
36B
330
379
330
386
330
392
330
3A8
330
3B4
330
3C0
330
3CC
330
3DB
330
3E7
330
3F3
330
3FF
330
40B
330
416
330
43E
330
454
330
460
330
46C
330
488
330
495
330
4A2
330
4B4
330
4C1
330
4CE
330
4DB
330
4EF
330
507
330
514
330
529
102
}
330
A
100
AcDbSymbolTableRecord
100
AcDbDimStyleTableRecord
  2
ISO-25
 70
     0
  3

  4

  5

  6

  7

 40
1.0
 41
2.5
 42
0.625
 43
3.75
 44
1.25
 45
0.0
 46
0.0
 47
0.0
 48
0.0
140
2.5
141
2.5
142
0.0
143
0.03937007874016
144
1.0
145
0.0
146
1.0
147
0.625
 71
     0
 72
     0
 73
     0
 74
     0
 75
     0
 76
     0
 77
     1
 78
     8
170
     0
171
     3
172
     1
173
     0
174
     0
175
     0
176
     0
177
     0
178
     0
270
     2
271
     2
272
     2
273
     2
274
     3
340
11
275
     0
280
     0
281
     0
282
     0
283
     0
284
     8
285
     0
286
     0
287
     3
288
     0
  0
ENDTAB
  0
TABLE
  2
BLOCK_RECORD
  5
1
330
0
100
AcDbSymbolTable
 70
    57
  0
BLOCK_RECORD
  5
1F
330
1
100
AcDbSymbolTableRecord
100
AcDbBlockTableRecord
  2
*MODEL_SPACE
  0
BLOCK_RECORD
  5
1B
330
1
100
AcDbSymbolTableRecord
100
AcDbBlockTableRecord
  2
*PAPER_SPACE
  0
BLOCK_RECORD
  5
298
330
1
100
AcDbSymbolTableRecord
100
AcDbBlockTableRecord
  2
_OPEN30
  0
BLOCK_RECORD
  5
29F
330
1
100
AcDbSymbolTableRecord
100
AcDbBlockTableRecord
  2
*D2
  0
BLOCK_RECORD
  5
2AC
330
1
100
AcDbSymbolTableRecord
100
AcDbBlockTableRecord
  2
*D3
  0
BLOCK_RECORD
  5
2B9
330
1
100
AcDbSymbolTableRecord
100
AcDbBlockTableRecord
  2
*D4
  0
BLOCK_RECORD
  5
2C4
330
1
100
AcDbSymbolTableRecord
100
AcDbBlockTableRecord
  2
*D5
  0
BLOCK_RECORD
  5
2D0
330
1
100
AcDbSymbolTableRecord
100
AcDbBlockTableRecord
  2
*D6
  0
BLOCK_RECORD
  5
2DD
330
1
100
AcDbSymbolTableRecord
100
AcDbBlockTableRecord
  2
_NONE
  0
BLOCK_RECORD
  5
2E0
330
1
100
AcDbSymbolTableRecord
100
AcDbBlockTableRecord
  2
*D8
  0
BLOCK_RECORD
  5
2EF
330
1
100
AcDbSymbolTableRecord
100
AcDbBlockTableRecord
  2
*D9
  0
BLOCK_RECORD
  5
2FE
330
1
100
AcDbSymbolTableRecord
100
AcDbBlockTableRecord
  2
*D10
  0
BLOCK_RECORD
  5
30E
330
1
100
AcDbSymbolTableRecord
100
AcDbBlockTableRecord
  2
*D11
  0
BLOCK_RECORD
  5
31B
330
1
100
AcDbSymbolTableRecord
100
AcDbBlockTableRecord
  2
*D12
  0
BLOCK_RECORD
  5
329
330
1
100
AcDbSymbolTableRecord
100
AcDbBlockTableRecord
  2
*D13
  0
BLOCK_RECORD
  5
336
330
1
100
AcDbSymbolTableRecord
100
AcDbBlockTableRecord
  2
*D14
  0
BLOCK_RECORD
  5
344
330
1
100
AcDbSymbolTableRecord
100
AcDbBlockTableRecord
  2
*D15
  0
BLOCK_RECORD
  5
352
330
1
100
AcDbSymbolTableRecord
100
AcDbBlockTableRecord
  2
SYM0001
  0
BLOCK_RECORD
  5
35A
330
1
100
AcDbSymbolTableRecord
100
AcDbBlockTableRecord
  2
SYM0002
  0
BLOCK_RECORD
  5
362
330
1
100
AcDbSymbolTableRecord
100
AcDbBlockTableRecord
  2
SYM0003
  0
BLOCK_RECORD
  5
36C
330
1
100
AcDbSymbolTableRecord
100
AcDbBlockTableRecord
  2
*D19
  0
BLOCK_RECORD
  5
37A
330
1
100
AcDbSymbolTableRecord
100
AcDbBlockTableRecord
  2
*D20
  0
BLOCK_RECORD
  5
387
330
1
100
AcDbSymbolTableRecord
100
AcDbBlockTableRecord
  2
*D21
  0
BLOCK_RECORD
  5
393
330
1
100
AcDbSymbolTableRecord
100
AcDbBlockTableRecord
  2
*D22
  0
BLOCK_RECORD
  5
39F
330
1
100
AcDbSymbolTableRecord
100
AcDbBlockTableRecord
  2
SYM0004
  0
BLOCK_RECORD
  5
3A9
330
1
100
AcDbSymbolTableRecord
100
AcDbBlockTableRecord
  2
*D24
  0
BLOCK_RECORD
  5
3B5
330
1
100
AcDbSymbolTableRecord
100
AcDbBlockTableRecord
  2
*D25
  0
BLOCK_RECORD
  5
3C1
330
1
100
AcDbSymbolTableRecord
100
AcDbBlockTableRecord
  2
*D26
  0
BLOCK_RECORD
  5
3CD
330
1
100
AcDbSymbolTableRecord
100
AcDbBlockTableRecord
  2
*D27
  0
BLOCK_RECORD
  5
3DC
330
1
100
AcDbSymbolTableRecord
100
AcDbBlockTableRecord
  2
*D28
  0
BLOCK_RECORD
  5
3E8
330
1
100
AcDbSymbolTableRecord
100
AcDbBlockTableRecord
  2
*D29
  0
BLOCK_RECORD
  5
3F4
330
1
100
AcDbSymbolTableRecord
100
AcDbBlockTableRecord
  2
*D30
  0
BLOCK_RECORD
  5
400
330
1
100
AcDbSymbolTableRecord
100
AcDbBlockTableRecord
  2
*D31
  0
BLOCK_RECORD
  5
40C
330
1
100
AcDbSymbolTableRecord
100
AcDbBlockTableRecord
  2
*D32
  0
BLOCK_RECORD
  5
417
330
1
100
AcDbSymbolTableRecord
100
AcDbBlockTableRecord
  2
*D33
  0
BLOCK_RECORD
  5
423
330
1
100
AcDbSymbolTableRecord
100
AcDbBlockTableRecord
  2
SYM0005
  0
BLOCK_RECORD
  5
42C
330
1
100
AcDbSymbolTableRecord
100
AcDbBlockTableRecord
  2
SYM0006
  0
BLOCK_RECORD
  5
435
330
1
100
AcDbSymbolTableRecord
100
AcDbBlockTableRecord
  2
SYM0007
  0
BLOCK_RECORD
  5
43F
330
1
100
AcDbSymbolTableRecord
100
AcDbBlockTableRecord
  2
*D37
  0
BLOCK_RECORD
  5
455
330
1
100
AcDbSymbolTableRecord
100
AcDbBlockTableRecord
  2
*D38
  0
BLOCK_RECORD
  5
461
330
1
100
AcDbSymbolTableRecord
100
AcDbBlockTableRecord
  2
*D39
  0
BLOCK_RECORD
  5
46D
330
1
100
AcDbSymbolTableRecord
100
AcDbBlockTableRecord
  2
_ORIGIN
  0
BLOCK_RECORD
  5
472
330
1
100
AcDbSymbolTableRecord
100
AcDbBlockTableRecord
  2
*D41
  0
BLOCK_RECORD
  5
489
330
1
100
AcDbSymbolTableRecord
100
AcDbBlockTableRecord
  2
*D42
  0
BLOCK_RECORD
  5
496
330
1
100
AcDbSymbolTableRecord
100
AcDbBlockTableRecord
  2
*D43
  0
BLOCK_RECORD
  5
4A3
330
1
100
AcDbSymbolTableRecord
100
AcDbBlockTableRecord
  2
*D44
  0
BLOCK_RECORD
  5
4B5
330
1
100
AcDbSymbolTableRecord
100
AcDbBlockTableRecord
  2
*D45
  0
BLOCK_RECORD
  5
4C2
330
1
100
AcDbSymbolTableRecord
100
AcDbBlockTableRecord
  2
*D46
  0
BLOCK_RECORD
  5
4CF
330
1
100
AcDbSymbolTableRecord
100
AcDbBlockTableRecord
  2
*D47
  0
BLOCK_RECORD
  5
4DC
330
1
100
AcDbSymbolTableRecord
100
AcDbBlockTableRecord
  2
*D48
  0
BLOCK_RECORD
  5
4E6
330
1
100
AcDbSymbolTableRecord
100
AcDbBlockTableRecord
  2
SYM0008
  0
BLOCK_RECORD
  5
4F0
330
1
100
AcDbSymbolTableRecord
100
AcDbBlockTableRecord
  2
*D50
  0
BLOCK_RECORD
  5
4FE
330
1
100
AcDbSymbolTableRecord
100
AcDbBlockTableRecord
  2
SYM0009
  0
BLOCK_RECORD
  5
508
330
1
100
AcDbSymbolTableRecord
100
AcDbBlockTableRecord
  2
*D52
  0
BLOCK_RECORD
  5
515
330
1
100
AcDbSymbolTableRecord
100
AcDbBlockTableRecord
  2
*D53
  0
BLOCK_RECORD
  5
520
330
1
100
AcDbSymbolTableRecord
100
AcDbBlockTableRecord
  2
SYM0010
  0
BLOCK_RECORD
  5
52A
330
1
100
AcDbSymbolTableRecord
100
AcDbBlockTableRecord
  2
*D55
  0
BLOCK_RECORD
  5
538
330
1
100
AcDbSymbolTableRecord
100
AcDbBlockTableRecord
  2
SYM0011
  0
BLOCK_RECORD
  5
5E3
330
1
100
AcDbSymbolTableRecord
100
AcDbBlockTableRecord
  2
$X0
  0
ENDTAB
  0
ENDSEC
  0
SECTION
  2
BLOCKS
  0
BLOCK
  5
20
330
1F
100
AcDbEntity
  8
0
100
AcDbBlockBegin
  2
*MODEL_SPACE
 70
     0
 10
0.0
 20
0.0
 30
0.0
  3
*MODEL_SPACE
  1

  0
ENDBLK
  5
21
330
1F
100
AcDbEntity
  8
0
100
AcDbBlockEnd
  0
BLOCK
  5
1C
330
1B
100
AcDbEntity
 67
     1
  8
0
100
AcDbBlockBegin
  2
*PAPER_SPACE
 70
     0
 10
0.0
 20
0.0
 30
0.0
  3
*PAPER_SPACE
  1

  0
ENDBLK
  5
1D
330
1B
100
AcDbEntity
 67
     1
  8
0
100
AcDbBlockEnd
  0
BLOCK
  5
299
330
298
100
AcDbEntity
  8
0
100
AcDbBlockBegin
  2
_OPEN30
 70
     0
 10
0.0
 20
0.0
 30
0.0
  3
_OPEN30
  1

  0
LINE
  5
29B
330
298
100
AcDbEntity
  8
0
  6
BYBLOCK
 62
     0
100
AcDbLine
 10
-1.0
 20
0.267949
 30
0.0
 11
0.0
 21
0.0
 31
0.0
  0
LINE
  5
29C
330
298
100
AcDbEntity
  8
0
  6
BYBLOCK
 62
     0
100
AcDbLine
 10
0.0
 20
0.0
 30
0.0
 11
-1.0
 21
-0.267949
 31
0.0
  0
LINE
  5
29D
330
298
100
AcDbEntity
  8
0
  6
BYBLOCK
 62
     0
100
AcDbLine
 10
0.0
 20
0.0
 30
0.0
 11
-1.0
 21
0.0
 31
0.0
  0
ENDBLK
  5
29A
330
298
100
AcDbEntity
  8
0
100
AcDbBlockEnd
  0
BLOCK
  5
2A0
330
29F
100
AcDbEntity
  8
0
100
AcDbBlockBegin
  2
*D2
 70
     1
 10
0.0
 20
0.0
 30
0.0
  3
*D2
  1

  0
LINE
  5
2A2
330
29F
100
AcDbEntity
  8
0
 62
     0
100
AcDbLine
 10
-550.0
 20
515.540015258789
 30
0.0
 11
-550.0
 21
545.7700042724609
 31
0.0
  0
LINE
  5
2A3
330
29F
100
AcDbEntity
  8
0
 62
     0
100
AcDbLine
 10
-498.698974609375
 20
517.5900030517578
 30
0.0
 11
-498.698974609375
 21
545.7700042724609
 31
0.0
  0
LINE
  5
2A4
330
29F
100
AcDbEntity
  8
0
 62
     0
100
AcDbLine
 10
-547.0
 20
544.5
 30
0.0
 11
-501.698974609375
 21
544.5
 31
0.0
  0
INSERT
  5
2A5
330
29F
100
AcDbEntity
  8
0
 62
     0
100
AcDbBlockReference
  2
_OPEN30
 10
-550.0
 20
544.5
 30
0.0
 41
3.0
 42
3.0
 43
3.0
 50
180.0
  0
INSERT
  5
2A6
330
29F
100
AcDbEntity
  8
0
 62
     0
100
AcDbBlockReference
  2
_OPEN30
 10
-498.698974609375
 20
544.5
 30
0.0
 41
3.0
 42
3.0
 43
3.0
  0
MTEXT
  5
2A7
330
29F
100
AcDbEntity
  8
0
 62
     0
100
AcDbMText
 10
-524.3484873046875
 20
547.14075
 30
0.0
 40
3.5
 41
0.0
 71
     5
 72
     1
  1
51
  0
POINT
  5
2A8
330
29F
100
AcDbEntity
  8
DEFPOINTS
 62
     0
100
AcDbPoint
 10
-550.0
 20
513.0000152587891
 30
0.0
  0
POINT
  5
2A9
330
29F
100
AcDbEntity
  8
DEFPOINTS
 62
     0
100
AcDbPoint
 10
-498.698974609375
 20
515.0500030517578
 30
0.0
  0
POINT
  5
2AA
330
29F
100
AcDbEntity
  8
DEFPOINTS
 62
     0
100
AcDbPoint
 10
-498.698974609375
 20
544.5
 30
0.0
  0
ENDBLK
  5
2A1
330
29F
100
AcDbEntity
  8
0
100
AcDbBlockEnd
  0
BLOCK
  5
2AD
330
2AC
100
AcDbEntity
  8
0
100
AcDbBlockBegin
  2
*D3
 70
     1
 10
0.0
 20
0.0
 30
0.0
  3
*D3
  1

  0
LINE
  5
2AF
330
2AC
100
AcDbEntity
  8
0
 62
     0
100
AcDbLine
 10
-496.158974609375
 20
404.0500030517578
 30
0.0
 11
-471.7300109863281
 21
404.0500030517578
 31
0.0
  0
LINE
  5
2B0
330
2AC
100
AcDbEntity
  8
0
 62
     0
100
AcDbLine
 10
-496.158974609375
 20
515.0500030517578
 30
0.0
 11
-471.7300109863281
 21
515.0500030517578
 31
0.0
  0
LINE
  5
2B1
330
2AC
100
AcDbEntity
  8
0
 62
     0
100
AcDbLine
 10
-473.0
 20
407.0500030517578
 30
0.0
 11
-473.0
 21
512.0500030517578
 31
0.0
  0
INSERT
  5
2B2
330
2AC
100
AcDbEntity
  8
0
 62
     0
100
AcDbBlockReference
  2
_OPEN30
 10
-473.0
 20
404.0500030517578
 30
0.0
 41
3.0
 42
3.0
 43
3.0
 50
270.0
  0
INSERT
  5
2B3
330
2AC
100
AcDbEntity
  8
0
 62
     0
100
AcDbBlockReference
  2
_OPEN30
 10
-473.0
 20
515.0500030517578
 30
0.0
 41
3.0
 42
3.0
 43
3.0
 50
90.0
  0
MTEXT
  5
2B4
330
2AC
100
AcDbEntity
  8
0
 62
     0
100
AcDbMText
 10
-475.625
 20
459.5510030517578
 30
0.0
 40
3.5
 41
0.0
 71
     5
 72
     1
  1
111
 11
0.0
 21
1.0
 31
0.0
  0
POINT
  5
2B5
330
2AC
100
AcDbEntity
  8
DEFPOINTS
 62
     0
100
AcDbPoint
 10
-498.698974609375
 20
404.0500030517578
 30
0.0
  0
POINT
  5
2B6
330
2AC
100
AcDbEntity
  8
DEFPOINTS
 62
     0
100
AcDbPoint
 10
-498.698974609375
 20
515.0500030517578
 30
0.0
  0
POINT
  5
2B7
330
2AC
100
AcDbEntity
  8
DEFPOINTS
 62
     0
100
AcDbPoint
 10
-473.0
 20
515.0500030517578
 30
0.0
  0
ENDBLK
  5
2AE
330
2AC
100
AcDbEntity
  8
0
100
AcDbBlockEnd
  0
BLOCK
  5
2BA
330
2B9
100
AcDbEntity
  8
0
100
AcDbBlockBegin
  2
*D4
 70
     1
 10
0.0
 20
0.0
 30
0.0
  3
*D4
  1

  0
LINE
  5
2BC
330
2B9
100
AcDbEntity
  8
0
 62
     0
100
AcDbLine
 10
-484.0
 20
497.0500030517578
 30
0.0
 11
-484.0
 21
512.0500030517578
 31
0.0
  0
INSERT
  5
2BD
330
2B9
100
AcDbEntity
  8
0
 62
     0
100
AcDbBlockReference
  2
_OPEN30
 10
-484.0
 20
494.0500030517578
 30
0.0
 41
3.0
 42
3.0
 43
3.0
 50
270.0
  0
INSERT
  5
2BE
330
2B9
100
AcDbEntity
  8
0
 62
     0
100
AcDbBlockReference
  2
_OPEN30
 10
-484.0
 20
515.0500030517578
 30
0.0
 41
3.0
 42
3.0
 43
3.0
 50
90.0
  0
MTEXT
  5
2BF
330
2B9
100
AcDbEntity
  8
0
 62
     0
100
AcDbMText
 10
-486.64075
 20
504.5510030517578
 30
0.0
 40
3.5
 41
0.0
 71
     5
 72
     1
  1
21
 11
0.0
 21
1.0
 31
0.0
  0
POINT
  5
2C0
330
2B9
100
AcDbEntity
  8
DEFPOINTS
 62
     0
100
AcDbPoint
 10
-490.5
 20
494.0500030517578
 30
0.0
  0
POINT
  5
2C1
330
2B9
100
AcDbEntity
  8
DEFPOINTS
 62
     0
100
AcDbPoint
 10
-498.698974609375
 20
515.0500030517578
 30
0.0
  0
POINT
  5
2C2
330
2B9
100
AcDbEntity
  8
DEFPOINTS
 62
     0
100
AcDbPoint
 10
-484.0
 20
515.0500030517578
 30
0.0
  0
ENDBLK
  5
2BB
330
2B9
100
AcDbEntity
  8
0
100
AcDbBlockEnd
  0
BLOCK
  5
2C5
330
2C4
100
AcDbEntity
  8
0
100
AcDbBlockBegin
  2
*D5
 70
     1
 10
0.0
 20
0.0
 30
0.0
  3
*D5
  1

  0
LINE
  5
2C7
330
2C4
100
AcDbEntity
  8
0
 62
     0
100
AcDbLine
 10
-491.1590051269531
 20
494.0500030517578
 30
0.0
 11
-482.7290109863281
 21
494.0500030517578
 31
0.0
  0
LINE
  5
2C8
330
2C4
100
AcDbEntity
  8
0
 62
     0
100
AcDbLine
 10
-483.999
 20
491.0500030517578
 30
0.0
 11
-483.999
 21
467.0500030517578
 31
0.0
  0
INSERT
  5
2C9
330
2C4
100
AcDbEntity
  8
0
 62
     0
100
AcDbBlockReference
  2
_OPEN30
 10
-483.999
 20
494.0500030517578
 30
0.0
 41
3.0
 42
3.0
 43
3.0
 50
90.0
  0
INSERT
  5
2CA
330
2C4
100
AcDbEntity
  8
0
 62
     0
100
AcDbBlockReference
  2
_OPEN30
 10
-483.999
 20
464.0500030517578
 30
0.0
 41
3.0
 42
3.0
 43
3.0
 50
270.0
  0
MTEXT
  5
2CB
330
2C4
100
AcDbEntity
  8
0
 62
     0
100
AcDbMText
 10
-486.63975
 20
479.0510030517578
 30
0.0
 40
3.5
 41
0.0
 71
     5
 72
     1
  1
30
 11
0.0
 21
1.0
 31
0.0
  0
POINT
  5
2CC
330
2C4
100
AcDbEntity
  8
DEFPOINTS
 62
     0
100
AcDbPoint
 10
-493.6990051269531
 20
494.0500030517578
 30
0.0
  0
POINT
  5
2CD
330
2C4
100
AcDbEntity
  8
DEFPOINTS
 62
     0
100
AcDbPoint
 10
-490.5
 20
464.0500030517578
 30
0.0
  0
POINT
  5
2CE
330
2C4
100
AcDbEntity
  8
DEFPOINTS
 62
     0
100
AcDbPoint
 10
-484.0
 20
464.0500030517578
 30
0.0
  0
ENDBLK
  5
2C6
330
2C4
100
AcDbEntity
  8
0
100
AcDbBlockEnd
  0
BLOCK
  5
2D1
330
2D0
100
AcDbEntity
  8
0
100
AcDbBlockBegin
  2
*D6
 70
     1
 10
0.0
 20
0.0
 30
0.0
  3
*D6
  1

  0
LINE
  5
2D3
330
2D0
100
AcDbEntity
  8
0
 62
     0
100
AcDbLine
 10
-660.54
 20
515.0
 30
0.0
 11
-727.26801953125
 21
515.0
 31
0.0
  0
LINE
  5
2D4
330
2D0
100
AcDbEntity
  8
0
 62
     0
100
AcDbLine
 10
-660.54
 20
211.0
 30
0.0
 11
-727.26801953125
 21
211.0
 31
0.0
  0
LINE
  5
2D5
330
2D0
100
AcDbEntity
  8
0
 62
     0
100
AcDbLine
 10
-725.998
 20
512.0
 30
0.0
 11
-725.998
 21
214.0
 31
0.0
  0
INSERT
  5
2D6
330
2D0
100
AcDbEntity
  8
0
 62
     0
100
AcDbBlockReference
  2
_OPEN30
 10
-725.998
 20
515.0
 30
0.0
 41
3.0
 42
3.0
 43
3.0
 50
90.0
  0
INSERT
  5
2D7
330
2D0
100
AcDbEntity
  8
0
 62
     0
100
AcDbBlockReference
  2
_OPEN30
 10
-725.998
 20
211.0
 30
0.0
 41
3.0
 42
3.0
 43
3.0
 50
270.0
  0
MTEXT
  5
2D8
330
2D0
100
AcDbEntity
  8
0
 62
     0
100
AcDbMText
 10
-728.6387500000001
 20
363.001
 30
0.0
 40
3.5
 41
0.0
 71
     5
 72
     1
  1
\U+2205304
 11
0.0
 21
1.0
 31
0.0
  0
POINT
  5
2D9
330
2D0
100
AcDbEntity
  8
DEFPOINTS
 62
     0
100
AcDbPoint
 10
-658.0
 20
515.0
 30
0.0
  0
POINT
  5
2DA
330
2D0
100
AcDbEntity
  8
DEFPOINTS
 62
     0
100
AcDbPoint
 10
-658.0
 20
211.0
 30
0.0
  0
POINT
  5
2DB
330
2D0
100
AcDbEntity
  8
DEFPOINTS
 62
     0
100
AcDbPoint
 10
-726.0
 20
211.0
 30
0.0
  0
ENDBLK
  5
2D2
330
2D0
100
AcDbEntity
  8
0
100
AcDbBlockEnd
  0
BLOCK
  5
2DE
330
2DD
100
AcDbEntity
  8
0
100
AcDbBlockBegin
  2
_NONE
 70
     0
 10
0.0
 20
0.0
 30
0.0
  3
_NONE
  1

  0
ENDBLK
  5
2DF
330
2DD
100
AcDbEntity
  8
0
100
AcDbBlockEnd
  0
BLOCK
  5
2E1
330
2E0
100
AcDbEntity
  8
0
100
AcDbBlockBegin
  2
*D8
 70
     1
 10
0.0
 20
0.0
 30
0.0
  3
*D8
  1

  0
MTEXT
  5
2E6
330
2E0
100
AcDbEntity
  8
0
 62
     0
100
AcDbMText
 10
-508.63975
 20
363.001
 30
0.0
 40
3.5
 41
0.0
 71
     5
 72
     1
  1
\U+2205128
 11
-4.440892098500626E-16
 21
1.0
 31
0.0
  0
POINT
  5
2E7
330
2E0
100
AcDbEntity
  8
DEFPOINTS
 62
     0
100
AcDbPoint
 10
-550.5
 20
427.0
 30
0.0
  0
POINT
  5
2E8
330
2E0
100
AcDbEntity
  8
DEFPOINTS
 62
     0
100
AcDbPoint
 10
-550.0
 20
299.0
 30
0.0
  0
POINT
  5
2E9
330
2E0
100
AcDbEntity
  8
DEFPOINTS
 62
     0
100
AcDbPoint
 10
-506.0
 20
299.0
 30
0.0
  0
LINE
  5
2EA
330
2E0
100
AcDbEntity
  8
0
  6
CONTINUOUS
 62
     7
100
AcDbLine
 10
-547.46
 20
299.0
 30
0.0
 11
-504.7300109863281
 21
299.0
 31
0.0
  0
LINE
  5
2EB
330
2E0
100
AcDbEntity
  8
0
  6
CONTINUOUS
 62
     7
100
AcDbLine
 10
-506.0
 20
385.0
 30
0.0
 11
-506.0
 21
299.0
 31
0.0
  0
LINE
  5
2EC
330
2E0
100
AcDbEntity
  8
0
  6
CONTINUOUS
 62
     7
100
AcDbLine
 10
-506.0
 20
299.0
 30
0.0
 11
-506.8184576843
 21
302.0545256620056
 31
0.0
  0
LINE
  5
2ED
330
2E0
100
AcDbEntity
  8
0
  6
CONTINUOUS
 62
     7
100
AcDbLine
 10
-506.0
 20
299.0
 30
0.0
 11
-505.1815423157
 21
302.0545256620056
 31
0.0
  0
ENDBLK
  5
2E2
330
2E0
100
AcDbEntity
  8
0
100
AcDbBlockEnd
  0
BLOCK
  5
2F0
330
2EF
100
AcDbEntity
  8
0
100
AcDbBlockBegin
  2
*D9
 70
     1
 10
0.0
 20
0.0
 30
0.0
  3
*D9
  1

  0
MTEXT
  5
2F5
330
2EF
100
AcDbEntity
  8
0
 62
     0
100
AcDbMText
 10
-519.62925
 20
363.001
 30
0.0
 40
3.5
 41
0.0
 71
     5
 72
     1
  1
\U+2205114
 11
0.0
 21
1.0
 31
0.0
  0
POINT
  5
2F6
330
2EF
100
AcDbEntity
  8
DEFPOINTS
 62
     0
100
AcDbPoint
 10
-543.578125
 20
420.0
 30
0.0
  0
POINT
  5
2F7
330
2EF
100
AcDbEntity
  8
DEFPOINTS
 62
     0
100
AcDbPoint
 10
-547.5
 20
306.0
 30
0.0
  0
POINT
  5
2F8
330
2EF
100
AcDbEntity
  8
DEFPOINTS
 62
     0
100
AcDbPoint
 10
-517.0
 20
306.0
 30
0.0
  0
LINE
  5
2F9
330
2EF
100
AcDbEntity
  8
0
  6
CONTINUOUS
 62
     7
100
AcDbLine
 10
-544.96
 20
306.0
 30
0.0
 11
-515.7300109863281
 21
306.0
 31
0.0
  0
LINE
  5
2FA
330
2EF
100
AcDbEntity
  8
0
  6
CONTINUOUS
 62
     7
100
AcDbLine
 10
-517.0
 20
385.0
 30
0.0
 11
-517.0
 21
306.0
 31
0.0
  0
LINE
  5
2FB
330
2EF
100
AcDbEntity
  8
0
  6
CONTINUOUS
 62
     7
100
AcDbLine
 10
-517.0
 20
306.0
 30
0.0
 11
-517.8184576843
 21
309.0545256620056
 31
0.0
  0
LINE
  5
2FC
330
2EF
100
AcDbEntity
  8
0
  6
CONTINUOUS
 62
     7
100
AcDbLine
 10
-517.0
 20
306.0
 30
0.0
 11
-516.1815423157
 21
309.0545256620056
 31
0.0
  0
ENDBLK
  5
2F1
330
2EF
100
AcDbEntity
  8
0
100
AcDbBlockEnd
  0
BLOCK
  5
2FF
330
2FE
100
AcDbEntity
  8
0
100
AcDbBlockBegin
  2
*D10
 70
     1
 10
0.0
 20
0.0
 30
0.0
  3
*D10
  1

  0
MTEXT
  5
305
330
2FE
100
AcDbEntity
  8
0
 62
     0
100
AcDbMText
 10
-412.4473300911698
 20
305.3098654838145
 30
0.0
 40
3.5
 41
0.0
 71
     5
 72
     1
  1
2
 11
0.8660253998985263
 21
0.5000000067305977
 31
0.0
  0
POINT
  5
306
330
2FE
100
AcDbEntity
  8
DEFPOINTS
 62
     0
100
AcDbPoint
 10
-398.3255006670307
 20
296.9941396470766
 30
0.0
  0
POINT
  5
307
330
2FE
100
AcDbEntity
  8
DEFPOINTS
 62
     0
100
AcDbPoint
 10
-390.8434497898319
 20
288.0348475617048
 30
0.0
  0
POINT
  5
308
330
2FE
100
AcDbEntity
  8
DEFPOINTS
 62
     0
100
AcDbPoint
 10
-402.4045957279292
 20
308.0593393608036
 30
0.0
  0
LINE
  5
309
330
2FE
100
AcDbEntity
  8
0
  6
CONTINUOUS
 62
     7
100
AcDbLine
 10
-409.6359078170819
 20
303.8843393046032
 30
0.0
 11
-402.4045957279292
 21
308.0593393608036
 31
0.0
  0
LINE
  5
30A
330
2FE
100
AcDbEntity
  8
0
  6
CONTINUOUS
 62
     7
100
AcDbLine
 10
-404.1366465277263
 20
307.0593393473424
 30
0.0
 11
-406.3727144880063
 21
304.8232713524349
 31
0.0
  0
LINE
  5
30B
330
2FE
100
AcDbEntity
  8
0
  6
CONTINUOUS
 62
     7
100
AcDbLine
 10
-404.1366465277263
 20
307.0593393473424
 30
0.0
 11
-407.1911721833237
 21
306.2408816391268
 31
0.0
  0
LINE
  5
30C
330
2FE
100
AcDbEntity
  8
0
  6
CONTINUOUS
 62
     7
100
AcDbLine
 10
-404.1366465277263
 20
307.0593393473424
 30
0.0
 11
-408.8541829914649
 21
304.335668351206
 31
0.0
  0
ENDBLK
  5
300
330
2FE
100
AcDbEntity
  8
0
100
AcDbBlockEnd
  0
BLOCK
  5
30F
330
30E
100
AcDbEntity
  8
0
100
AcDbBlockBegin
  2
*D11
 70
     1
 10
0.0
 20
0.0
 30
0.0
  3
*D11
  1

  0
LINE
  5
311
330
30E
100
AcDbEntity
  8
0
 62
     0
100
AcDbLine
 10
-406.0377027118593
 20
266.2720657805738
 30
0.0
 11
-439.8733347889354
 21
246.7370541420539
 31
0.0
  0
LINE
  5
312
330
30E
100
AcDbEntity
  8
0
 62
     0
100
AcDbLine
 10
-391.2877020364699
 20
240.724315657661
 30
0.0
 11
-425.123334113546
 21
221.1893040191411
 31
0.0
  0
LINE
  5
313
330
30E
100
AcDbEntity
  8
0
 62
     0
100
AcDbLine
 10
-437.2734920253118
 20
244.773972457742
 30
0.0
 11
-425.5234913903059
 21
224.4223747342204
 31
0.0
  0
INSERT
  5
314
330
30E
100
AcDbEntity
  8
0
 62
     0
100
AcDbBlockReference
  2
_OPEN30
 10
-438.7734920455035
 20
247.3720486574376
 30
0.0
 41
3.0
 42
3.0
 43
3.0
 50
120.000000445292
  0
INSERT
  5
315
330
30E
100
AcDbEntity
  8
0
 62
     0
100
AcDbBlockReference
  2
_OPEN30
 10
-424.0234913701141
 20
221.8242985345248
 30
0.0
 41
3.0
 42
3.0
 43
3.0
 50
300.000000445292
  0
MTEXT
  5
316
330
30E
100
AcDbEntity
  8
0
 62
     0
100
AcDbMText
 10
-429.1056547093327
 20
235.9223634211412
 30
0.0
 40
3.5
 41
0.0
 71
     5
 72
     1
  1
29.5
 11
0.5000000067305861
 21
-0.866025399898533
 31
0.0
  0
POINT
  5
317
330
30E
100
AcDbEntity
  8
DEFPOINTS
 62
     0
100
AcDbPoint
 10
-403.837998196117
 20
267.5420657976695
 30
0.0
  0
POINT
  5
318
330
30E
100
AcDbEntity
  8
DEFPOINTS
 62
     0
100
AcDbPoint
 10
-389.0879975207276
 20
241.9943156747566
 30
0.0
  0
POINT
  5
319
330
30E
100
AcDbEntity
  8
DEFPOINTS
 62
     0
100
AcDbPoint
 10
-424.0246747150535
 20
221.8236153299932
 30
0.0
  0
ENDBLK
  5
310
330
30E
100
AcDbEntity
  8
0
100
AcDbBlockEnd
  0
BLOCK
  5
31C
330
31B
100
AcDbEntity
  8
0
100
AcDbBlockBegin
  2
*D12
 70
     1
 10
0.0
 20
0.0
 30
0.0
  3
*D12
  1

  0
LINE
  5
31E
330
31B
100
AcDbEntity
  8
0
 62
     0
100
AcDbLine
 10
-368.4451902628373
 20
258.8199246271786
 30
0.0
 11
-358.9052936142168
 21
264.3277866241573
 31
0.0
  0
LINE
  5
31F
330
31B
100
AcDbEntity
  8
0
 62
     0
100
AcDbLine
 10
-378.9451899273425
 20
277.0064571991417
 30
0.0
 11
-369.405293278722
 21
282.5143191961204
 31
0.0
  0
LINE
  5
320
330
31B
100
AcDbEntity
  8
0
 62
     0
100
AcDbLine
 10
-361.5051495923394
 20
266.2908606790745
 30
0.0
 11
-369.0051492164611
 21
279.2812408516464
 31
0.0
  0
INSERT
  5
321
330
31B
100
AcDbEntity
  8
0
 62
     0
100
AcDbBlockReference
  2
_OPEN30
 10
-360.0051495721476
 20
263.6927844793789
 30
0.0
 41
3.0
 42
3.0
 43
3.0
 50
300.000000445292
  0
INSERT
  5
322
330
31B
100
AcDbEntity
  8
0
 62
     0
100
AcDbBlockReference
  2
_OPEN30
 10
-370.5051492366528
 20
281.879317051342
 30
0.0
 41
3.0
 42
3.0
 43
3.0
 50
120.000000445292
  0
POINT
  5
324
330
31B
100
AcDbEntity
  8
DEFPOINTS
 62
     0
100
AcDbPoint
 10
-370.6448947785796
 20
257.5499246100829
 30
0.0
  0
POINT
  5
325
330
31B
100
AcDbEntity
  8
DEFPOINTS
 62
     0
100
AcDbPoint
 10
-381.1448944430848
 20
275.736457182046
 30
0.0
  0
POINT
  5
326
330
31B
100
AcDbEntity
  8
DEFPOINTS
 62
     0
100
AcDbPoint
 10
-370.5055710163681
 20
281.8790735367055
 30
0.0
  0
MTEXT
  5
327
330
31B
100
AcDbEntity
  8
0
 62
     7
100
AcDbMText
 10
-365.2555847167969
 20
273.6608047485352
 30
0.0
 40
3.5
 41
0.0
 71
     8
 72
     1
  1
\W1;21h8
 11
0.5000000000000001
 21
-0.8660254037844386
 31
0.0
  0
ENDBLK
  5
31D
330
31B
100
AcDbEntity
  8
0
100
AcDbBlockEnd
  0
BLOCK
  5
32A
330
329
100
AcDbEntity
  8
0
100
AcDbBlockBegin
  2
*D13
 70
     1
 10
0.0
 20
0.0
 30
0.0
  3
*D13
  1

  0
LINE
  5
32C
330
329
100
AcDbEntity
  8
0
 62
     0
100
AcDbLine
 10
-234.0
 20
517.5900030517578
 30
0.0
 11
-234.0
 21
529.2700042724609
 31
0.0
  0
LINE
  5
32D
330
329
100
AcDbEntity
  8
0
 62
     0
100
AcDbLine
 10
-184.0
 20
517.5900030517578
 30
0.0
 11
-184.0
 21
529.2700042724609
 31
0.0
  0
LINE
  5
32E
330
329
100
AcDbEntity
  8
0
 62
     0
100
AcDbLine
 10
-231.0
 20
528.0
 30
0.0
 11
-187.0
 21
528.0
 31
0.0
  0
INSERT
  5
32F
330
329
100
AcDbEntity
  8
0
 62
     0
100
AcDbBlockReference
  2
_OPEN30
 10
-234.0
 20
528.0
 30
0.0
 41
3.0
 42
3.0
 43
3.0
 50
180.0
  0
INSERT
  5
330
330
329
100
AcDbEntity
  8
0
 62
     0
100
AcDbBlockReference
  2
_OPEN30
 10
-184.0
 20
528.0
 30
0.0
 41
3.0
 42
3.0
 43
3.0
  0
MTEXT
  5
331
330
329
100
AcDbEntity
  8
0
 62
     0
100
AcDbMText
 10
-208.999
 20
530.64075
 30
0.0
 40
3.5
 41
0.0
 71
     5
 72
     1
  1
50
  0
POINT
  5
332
330
329
100
AcDbEntity
  8
DEFPOINTS
 62
     0
100
AcDbPoint
 10
-234.0
 20
515.0500030517578
 30
0.0
  0
POINT
  5
333
330
329
100
AcDbEntity
  8
DEFPOINTS
 62
     0
100
AcDbPoint
 10
-184.0
 20
515.0500030517578
 30
0.0
  0
POINT
  5
334
330
329
100
AcDbEntity
  8
DEFPOINTS
 62
     0
100
AcDbPoint
 10
-184.0
 20
528.0
 30
0.0
  0
ENDBLK
  5
32B
330
329
100
AcDbEntity
  8
0
100
AcDbBlockEnd
  0
BLOCK
  5
337
330
336
100
AcDbEntity
  8
0
100
AcDbBlockBegin
  2
*D14
 70
     1
 10
0.0
 20
0.0
 30
0.0
  3
*D14
  1

  0
LINE
  5
339
330
336
100
AcDbEntity
  8
0
 62
     0
100
AcDbLine
 10
-181.5030730060493
 20
260.3800411350116
 30
0.0
 11
-163.1193358672587
 21
191.7710006750993
 31
0.0
  0
ARC
  5
33A
330
336
100
AcDbEntity
  8
0
 62
     0
100
AcDbCircle
 10
-208.9999999999996
 20
362.9999688683391
 30
0.0
 40
175.9992674737935
100
AcDbArc
 50
270.976648493969
 51
284.0233516260869
  0
INSERT
  5
33B
330
336
100
AcDbEntity
  8
0
 62
     0
100
AcDbBlockReference
  2
_OPEN30
 10
-208.9999999999996
 20
187.0007013945456
 30
0.0
 41
3.0
 42
3.0
 43
3.0
 50
180.4883242469845
  0
INSERT
  5
33C
330
336
100
AcDbEntity
  8
0
 62
     0
100
AcDbBlockReference
  2
_OPEN30
 10
-163.4480372974716
 20
192.9977311028926
 30
0.0
 41
3.0
 42
3.0
 43
3.0
 50
14.51167587307138
  0
POINT
  5
33E
330
336
100
AcDbEntity
  8
DEFPOINTS
 62
     0
100
AcDbPoint
 10
-208.9999999999996
 20
362.9999688683391
 30
0.0
  0
POINT
  5
33F
330
336
100
AcDbEntity
  8
DEFPOINTS
 62
     0
100
AcDbPoint
 10
-208.9999999999996
 20
201.0
 30
0.0
  0
POINT
  5
340
330
336
100
AcDbEntity
  8
DEFPOINTS
 62
     0
100
AcDbPoint
 10
-182.1604733857506
 20
262.8334927324083
 30
0.0
  0
POINT
  5
341
330
336
100
AcDbEntity
  8
DEFPOINTS
 62
     0
100
AcDbPoint
 10
-193.6606529978173
 20
187.6704317536289
 30
0.0
  0
MTEXT
  5
342
330
336
100
AcDbEntity
  8
0
 62
     7
100
AcDbMText
 10
-186.0273838043213
 20
189.3806762695312
 30
0.0
 40
3.5
 41
0.0
 71
     8
 72
     1
  1
\W1;15°
 11
0.9914448613738104
 21
0.1305261922200516
 31
0.0
  0
ENDBLK
  5
338
330
336
100
AcDbEntity
  8
0
100
AcDbBlockEnd
  0
BLOCK
  5
345
330
344
100
AcDbEntity
  8
0
100
AcDbBlockBegin
  2
*D15
 70
     1
 10
0.0
 20
0.0
 30
0.0
  3
*D15
  1

  0
LINE
  5
347
330
344
100
AcDbEntity
  8
0
 62
     0
100
AcDbLine
 10
-236.4969334045585
 20
260.3800428527288
 30
0.0
 11
-254.8805255122334
 21
191.7715436563049
 31
0.0
  0
LINE
  5
348
330
344
100
AcDbEntity
  8
0
 62
     0
100
AcDbLine
 10
-208.9999999999996
 20
203.46
 30
0.0
 11
-208.9999999999996
 21
185.7312578330956
 31
0.0
  0
ARC
  5
349
330
344
100
AcDbEntity
  8
0
 62
     0
100
AcDbCircle
 10
-208.9999999999996
 20
362.9999945107736
 30
0.0
 40
175.9987400346116
100
AcDbArc
 50
255.9766513008383
 51
269.0233485791059
  0
INSERT
  5
34A
330
344
100
AcDbEntity
  8
0
 62
     0
100
AcDbBlockReference
  2
_OPEN30
 10
-254.5518261912211
 20
192.9982662124544
 30
0.0
 41
3.0
 42
3.0
 43
3.0
 50
165.4883255903912
  0
INSERT
  5
34B
330
344
100
AcDbEntity
  8
0
 62
     0
100
AcDbBlockReference
  2
_OPEN30
 10
-208.9999999999996
 20
187.001254476162
 30
0.0
 41
3.0
 42
3.0
 43
3.0
 50
359.511674289553
  0
POINT
  5
34D
330
344
100
AcDbEntity
  8
DEFPOINTS
 62
     0
100
AcDbPoint
 10
-208.9999999999996
 20
362.9999945107736
 30
0.0
  0
POINT
  5
34E
330
344
100
AcDbEntity
  8
DEFPOINTS
 62
     0
100
AcDbPoint
 10
-235.8395330248572
 20
262.8334944501255
 30
0.0
  0
POINT
  5
34F
330
344
100
AcDbEntity
  8
DEFPOINTS
 62
     0
100
AcDbPoint
 10
-208.9999999999996
 20
206.0
 30
0.0
  0
POINT
  5
350
330
344
100
AcDbEntity
  8
DEFPOINTS
 62
     0
100
AcDbPoint
 10
-239.5618607208056
 20
189.6750708470003
 30
0.0
  0
MTEXT
  5
351
330
344
100
AcDbEntity
  8
0
 62
     7
100
AcDbMText
 10
-231.9726123809814
 20
189.3807067871094
 30
0.0
 40
3.5
 41
0.0
 71
     8
 72
     1
  1
\W1;15°
 11
0.9914448613738104
 21
-0.1305261922200517
 31
0.0
  0
ENDBLK
  5
346
330
344
100
AcDbEntity
  8
0
100
AcDbBlockEnd
  0
BLOCK
  5
358
330
352
100
AcDbEntity
  8
0
100
AcDbBlockBegin
  2
SYM0001
 70
     0
 10
0.0
 20
0.0
 30
0.0
  3
SYM0001
  1

  0
LINE
  5
353
330
352
100
AcDbEntity
  8
0
  6
CONTINUOUS
 62
     7
100
AcDbLine
 10
0.0
 20
0.0
 30
0.0
 11
-42.09276467773384
 21
17.49505310984398
 31
0.0
  0
CIRCLE
  5
354
330
352
100
AcDbEntity
  8
0
  6
CONTINUOUS
 62
     7
100
AcDbCircle
 10
0.0
 20
0.0
 30
0.0
 40
0.4
  0
LINE
  5
355
330
352
100
AcDbEntity
  8
0
  6
CONTINUOUS
 62
     7
100
AcDbLine
 10
-42.09276467773392
 20
17.49505310984409
 30
0.0
 11
-75.36329561304652
 21
17.49505310984409
 31
0.0
  0
MTEXT
  5
356
102
{ACAD_XDICTIONARY
360
5FA
102
}
330
352
100
AcDbEntity
  8
0
 62
     7
100
AcDbMText
 10
-40.36329561304652
 20
19.24504895371717
 30
0.0
 40
3.5
 41
33.48
 71
     9
 72
     1
  1
{\fＭＳ Ｐゴシック|b0|i0|c0|p0;\W0.83333x;\U+30B0\U+30EA\U+30FC\U+30B9\U+30CB\U+30C3\U+30D7\U+30EB}\P{\fＭＳ Ｐゴシック|b0|i0|c0|p0;\W0.83333x;\U+FF08\U+5186\U+5468\U+7B49\U+5206\U+FF13\U+30F6\U+6240\U+FF09}
1001
ACAD
1000
MTEXTBEGIN
1070
    44
1040
0.7875
1000
MTEXTEND
  0
ENDBLK
  5
359
330
352
100
AcDbEntity
  8
0
100
AcDbBlockEnd
  0
BLOCK
  5
360
330
35A
100
AcDbEntity
  8
0
100
AcDbBlockBegin
  2
SYM0002
 70
     0
 10
0.0
 20
0.0
 30
0.0
  3
SYM0002
  1

  0
LINE
  5
35B
330
35A
100
AcDbEntity
  8
0
  6
CONTINUOUS
 62
     7
100
AcDbLine
 10
0.0
 20
0.0
 30
0.0
 11
-20.16745612146644
 21
17.53469163598254
 31
0.0
  0
CIRCLE
  5
35C
330
35A
100
AcDbEntity
  8
0
  6
CONTINUOUS
 62
     7
100
AcDbCircle
 10
0.0
 20
0.0
 30
0.0
 40
0.4
  0
LINE
  5
35D
330
35A
100
AcDbEntity
  8
0
  6
CONTINUOUS
 62
     7
100
AcDbLine
 10
-20.16745612146644
 20
17.53469163598254
 30
0.0
 11
-52.66855612146639
 21
17.53469163598254
 31
0.0
  0
MTEXT
  5
35E
102
{ACAD_XDICTIONARY
360
5FC
102
}
330
35A
100
AcDbEntity
  8
0
 62
     7
100
AcDbMText
 10
-17.70149832546451
 20
19.28468517711053
 30
0.0
 40
3.5
 41
33.48
 71
     9
 72
     1
  1
{\fＭＳ Ｐゴシック|b0|i0|c0|p0;\W0.83333x;\U+30B0\U+30EA\U+30FC\U+30B9\U+30CB\U+30C3\U+30D7\U+30EB}\P{\fＭＳ Ｐゴシック|b0|i0|c0|p0;\W0.83333x;\U+FF08\U+5186\U+5468\U+7B49\U+5206\U+FF13\U+30F6\U+6240\U+FF09}
1001
ACAD
1000
MTEXTBEGIN
1070
    44
1040
0.7875
1000
MTEXTEND
  0
ENDBLK
  5
361
330
35A
100
AcDbEntity
  8
0
100
AcDbBlockEnd
  0
BLOCK
  5
369
330
362
100
AcDbEntity
  8
0
100
AcDbBlockBegin
  2
SYM0003
 70
     0
 10
0.0
 20
0.0
 30
0.0
  3
SYM0003
  1

  0
LINE
  5
363
330
362
100
AcDbEntity
  8
0
  6
CONTINUOUS
 62
     7
100
AcDbLine
 10
0.0
 20
0.0
 30
0.0
 11
-8.000000893335141
 21
-16.025839212422
 31
0.0
  0
LINE
  5
364
330
362
100
AcDbEntity
  8
0
  6
CONTINUOUS
 62
     7
100
AcDbLine
 10
0.0
 20
0.0
 30
0.0
 11
-0.631975889104751
 21
-3.098484545133431
 31
0.0
  0
LINE
  5
365
330
362
100
AcDbEntity
  8
0
  6
CONTINUOUS
 62
     7
100
AcDbLine
 10
0.0
 20
0.0
 30
0.0
 11
-2.096549446973995
 21
-2.367378384887786
 31
0.0
  0
LINE
  5
366
330
362
100
AcDbEntity
  8
0
  6
CONTINUOUS
 62
     7
100
AcDbLine
 10
-8.000000893335141
 20
-16.025839212422
 30
0.0
 11
-23.70376765882679
 21
-16.025839212422
 31
0.0
  0
MTEXT
  5
367
330
362
100
AcDbEntity
  8
0
 62
     7
100
AcDbMText
 10
-9.203767658826791
 20
-15.15083638800843
 30
0.0
 40
3.5
 41
0.0
 71
     9
 72
     1
  1
{\W1;3-M6}
  0
ENDBLK
  5
36A
330
362
100
AcDbEntity
  8
0
100
AcDbBlockEnd
  0
BLOCK
  5
36D
330
36C
100
AcDbEntity
  8
0
100
AcDbBlockBegin
  2
*D19
 70
     1
 10
0.0
 20
0.0
 30
0.0
  3
*D19
  1

  0
LINE
  5
36F
330
36C
100
AcDbEntity
  8
0
 62
     0
100
AcDbLine
 10
-588.54
 20
496.8045043945312
 30
0.0
 11
-599.9351643066407
 21
496.8045043945312
 31
0.0
  0
LINE
  5
370
330
36C
100
AcDbEntity
  8
0
 62
     0
100
AcDbLine
 10
-598.6651447753907
 20
503.8045043945312
 30
0.0
 11
-598.6651447753907
 21
496.8045043945312
 31
0.0
  0
LINE
  5
371
330
36C
100
AcDbEntity
  8
0
 62
     0
100
AcDbLine
 10
-598.6651447753907
 20
506.8045043945312
 30
0.0
 11
-598.6651447753907
 21
509.8045043945312
 31
0.0
  0
LINE
  5
372
330
36C
100
AcDbEntity
  8
0
 62
     0
100
AcDbLine
 10
-598.6651447753907
 20
493.8045043945312
 30
0.0
 11
-598.6651447753907
 21
490.8045043945312
 31
0.0
  0
INSERT
  5
373
330
36C
100
AcDbEntity
  8
0
 62
     0
100
AcDbBlockReference
  2
_OPEN30
 10
-598.6651447753907
 20
503.8045043945312
 30
0.0
 41
3.0
 42
3.0
 43
3.0
 50
270.0
  0
INSERT
  5
374
330
36C
100
AcDbEntity
  8
0
 62
     0
100
AcDbBlockReference
  2
_OPEN30
 10
-598.6651447753907
 20
496.8045043945312
 30
0.0
 41
3.0
 42
3.0
 43
3.0
 50
90.0
  0
MTEXT
  5
375
330
36C
100
AcDbEntity
  8
0
 62
     0
100
AcDbMText
 10
-601.2953947753906
 20
500.3055043945312
 30
0.0
 40
3.5
 41
0.0
 71
     5
 72
     1
  1
7
 11
0.0
 21
1.0
 31
0.0
  0
POINT
  5
376
330
36C
100
AcDbEntity
  8
DEFPOINTS
 62
     0
100
AcDbPoint
 10
-590.75
 20
503.8045043945312
 30
0.0
  0
POINT
  5
377
330
36C
100
AcDbEntity
  8
DEFPOINTS
 62
     0
100
AcDbPoint
 10
-586.0
 20
496.8045043945312
 30
0.0
  0
POINT
  5
378
330
36C
100
AcDbEntity
  8
DEFPOINTS
 62
     0
100
AcDbPoint
 10
-598.6671447753906
 20
496.8045043945312
 30
0.0
  0
ENDBLK
  5
36E
330
36C
100
AcDbEntity
  8
0
100
AcDbBlockEnd
  0
BLOCK
  5
37B
330
37A
100
AcDbEntity
  8
0
100
AcDbBlockBegin
  2
*D20
 70
     1
 10
0.0
 20
0.0
 30
0.0
  3
*D20
  1

  0
LINE
  5
37D
330
37A
100
AcDbEntity
  8
0
 62
     0
100
AcDbLine
 10
-594.54
 20
514.8000030517578
 30
0.0
 11
-599.9351643066407
 21
514.8000030517578
 31
0.0
  0
LINE
  5
37E
330
37A
100
AcDbEntity
  8
0
 62
     0
100
AcDbLine
 10
-593.29
 20
503.8045043945312
 30
0.0
 11
-599.9351643066407
 21
503.8045043945312
 31
0.0
  0
LINE
  5
37F
330
37A
100
AcDbEntity
  8
0
 62
     0
100
AcDbLine
 10
-598.6651447753907
 20
511.8000030517578
 30
0.0
 11
-598.6651447753907
 21
506.8045043945312
 31
0.0
  0
INSERT
  5
380
330
37A
100
AcDbEntity
  8
0
 62
     0
100
AcDbBlockReference
  2
_OPEN30
 10
-598.6651447753907
 20
514.8000030517578
 30
0.0
 41
3.0
 42
3.0
 43
3.0
 50
90.0
  0
INSERT
  5
381
330
37A
100
AcDbEntity
  8
0
 62
     0
100
AcDbBlockReference
  2
_OPEN30
 10
-598.6651447753907
 20
503.8045043945312
 30
0.0
 41
3.0
 42
3.0
 43
3.0
 50
270.0
  0
MTEXT
  5
382
330
37A
100
AcDbEntity
  8
0
 62
     0
100
AcDbMText
 10
-601.2901447753907
 20
509.30324609375
 30
0.0
 40
3.5
 41
0.0
 71
     5
 72
     1
  1
11
 11
0.0
 21
1.0
 31
0.0
  0
POINT
  5
383
330
37A
100
AcDbEntity
  8
DEFPOINTS
 62
     0
100
AcDbPoint
 10
-592.0
 20
514.8000030517578
 30
0.0
  0
POINT
  5
384
330
37A
100
AcDbEntity
  8
DEFPOINTS
 62
     0
100
AcDbPoint
 10
-590.75
 20
503.8045043945312
 30
0.0
  0
POINT
  5
385
330
37A
100
AcDbEntity
  8
DEFPOINTS
 62
     0
100
AcDbPoint
 10
-598.6671447753906
 20
503.8045043945312
 30
0.0
  0
ENDBLK
  5
37C
330
37A
100
AcDbEntity
  8
0
100
AcDbBlockEnd
  0
BLOCK
  5
388
330
387
100
AcDbEntity
  8
0
100
AcDbBlockBegin
  2
*D21
 70
     1
 10
0.0
 20
0.0
 30
0.0
  3
*D21
  1

  0
LINE
  5
38A
330
387
100
AcDbEntity
  8
0
 62
     0
100
AcDbLine
 10
-583.0
 20
530.4557562255859
 30
0.0
 11
-583.0
 21
534.7700042724609
 31
0.0
  0
LINE
  5
38B
330
387
100
AcDbEntity
  8
0
 62
     0
100
AcDbLine
 10
-580.0
 20
533.5
 30
0.0
 11
-553.0
 21
533.5
 31
0.0
  0
INSERT
  5
38C
330
387
100
AcDbEntity
  8
0
 62
     0
100
AcDbBlockReference
  2
_OPEN30
 10
-583.0
 20
533.5
 30
0.0
 41
3.0
 42
3.0
 43
3.0
 50
180.0
  0
INSERT
  5
38D
330
387
100
AcDbEntity
  8
0
 62
     0
100
AcDbBlockReference
  2
_OPEN30
 10
-550.0
 20
533.5
 30
0.0
 41
3.0
 42
3.0
 43
3.0
  0
MTEXT
  5
38E
330
387
100
AcDbEntity
  8
0
 62
     0
100
AcDbMText
 10
-566.499
 20
536.14075
 30
0.0
 40
3.5
 41
0.0
 71
     5
 72
     1
  1
33
  0
POINT
  5
38F
330
387
100
AcDbEntity
  8
DEFPOINTS
 62
     0
100
AcDbPoint
 10
-583.0
 20
527.9157562255859
 30
0.0
  0
POINT
  5
390
330
387
100
AcDbEntity
  8
DEFPOINTS
 62
     0
100
AcDbPoint
 10
-550.0
 20
513.0
 30
0.0
  0
POINT
  5
391
330
387
100
AcDbEntity
  8
DEFPOINTS
 62
     0
100
AcDbPoint
 10
-550.0
 20
533.5
 30
0.0
  0
ENDBLK
  5
389
330
387
100
AcDbEntity
  8
0
100
AcDbBlockEnd
  0
BLOCK
  5
394
330
393
100
AcDbEntity
  8
0
100
AcDbBlockBegin
  2
*D22
 70
     1
 10
0.0
 20
0.0
 30
0.0
  3
*D22
  1

  0
LINE
  5
396
330
393
100
AcDbEntity
  8
0
 62
     0
100
AcDbLine
 10
-590.75
 20
517.3445043945312
 30
0.0
 11
-590.75
 21
523.7700042724609
 31
0.0
  0
LINE
  5
397
330
393
100
AcDbEntity
  8
0
 62
     0
100
AcDbLine
 10
-575.25
 20
517.3445043945312
 30
0.0
 11
-575.25
 21
523.7700042724609
 31
0.0
  0
LINE
  5
398
330
393
100
AcDbEntity
  8
0
 62
     0
100
AcDbLine
 10
-587.75
 20
522.5
 30
0.0
 11
-578.25
 21
522.5
 31
0.0
  0
INSERT
  5
399
330
393
100
AcDbEntity
  8
0
 62
     0
100
AcDbBlockReference
  2
_OPEN30
 10
-590.75
 20
522.5
 30
0.0
 41
3.0
 42
3.0
 43
3.0
 50
180.0
  0
INSERT
  5
39A
330
393
100
AcDbEntity
  8
0
 62
     0
100
AcDbBlockReference
  2
_OPEN30
 10
-575.25
 20
522.5
 30
0.0
 41
3.0
 42
3.0
 43
3.0
  0
MTEXT
  5
39B
330
393
100
AcDbEntity
  8
0
 62
     0
100
AcDbMText
 10
-582.999
 20
525.14775
 30
0.0
 40
3.5
 41
0.0
 71
     5
 72
     1
  1
\U+220515.5
  0
POINT
  5
39C
330
393
100
AcDbEntity
  8
DEFPOINTS
 62
     0
100
AcDbPoint
 10
-590.75
 20
514.8045043945312
 30
0.0
  0
POINT
  5
39D
330
393
100
AcDbEntity
  8
DEFPOINTS
 62
     0
100
AcDbPoint
 10
-575.25
 20
514.8045043945312
 30
0.0
  0
POINT
  5
39E
330
393
100
AcDbEntity
  8
DEFPOINTS
 62
     0
100
AcDbPoint
 10
-575.25
 20
522.5
 30
0.0
  0
ENDBLK
  5
395
330
393
100
AcDbEntity
  8
0
100
AcDbBlockEnd
  0
BLOCK
  5
3A6
330
39F
100
AcDbEntity
  8
0
100
AcDbBlockBegin
  2
SYM0004
 70
     0
 10
0.0
 20
0.0
 30
0.0
  3
SYM0004
  1

  0
LINE
  5
3A0
330
39F
100
AcDbEntity
  8
0
  6
CONTINUOUS
 62
     7
100
AcDbLine
 10
0.0
 20
0.0
 30
0.0
 11
64.00000429351309
 21
26.7767797515221
 31
0.0
  0
LINE
  5
3A1
330
39F
100
AcDbEntity
  8
0
  6
CONTINUOUS
 62
     7
100
AcDbLine
 10
0.0
 20
0.0
 30
0.0
 11
2.501939971255524
 21
1.933984586565884
 31
0.0
  0
LINE
  5
3A2
330
39F
100
AcDbEntity
  8
0
  6
CONTINUOUS
 62
     7
100
AcDbLine
 10
0.0
 20
0.0
 30
0.0
 11
3.133735867109408
 21
0.423909797046917
 31
0.0
  0
LINE
  5
3A3
330
39F
100
AcDbEntity
  8
0
  6
CONTINUOUS
 62
     7
100
AcDbLine
 10
64.00000429351314
 20
26.77677975152199
 30
0.0
 11
109.0414743920814
 21
26.77677975152199
 31
0.0
  0
MTEXT
  5
3A4
330
39F
100
AcDbEntity
  8
0
 62
     7
100
AcDbMText
 10
66.6664743920814
 20
27.65178672116872
 30
0.0
 40
3.5
 41
0.0
 71
     7
 72
     1
  1
{\W0.833333;セレーションピッチ１．５}
  0
ENDBLK
  5
3A7
330
39F
100
AcDbEntity
  8
0
100
AcDbBlockEnd
  0
BLOCK
  5
3AA
330
3A9
100
AcDbEntity
  8
0
100
AcDbBlockBegin
  2
*D24
 70
     1
 10
0.0
 20
0.0
 30
0.0
  3
*D24
  1

  0
LINE
  5
3AC
330
3A9
100
AcDbEntity
  8
0
 62
     0
100
AcDbLine
 10
-592.0
 20
519.1482305908203
 30
0.0
 11
-592.0
 21
545.7700042724609
 31
0.0
  0
LINE
  5
3AD
330
3A9
100
AcDbEntity
  8
0
 62
     0
100
AcDbLine
 10
-589.0
 20
544.5
 30
0.0
 11
-553.0
 21
544.5
 31
0.0
  0
INSERT
  5
3AE
330
3A9
100
AcDbEntity
  8
0
 62
     0
100
AcDbBlockReference
  2
_OPEN30
 10
-592.0
 20
544.5
 30
0.0
 41
3.0
 42
3.0
 43
3.0
 50
180.0
  0
INSERT
  5
3AF
330
3A9
100
AcDbEntity
  8
0
 62
     0
100
AcDbBlockReference
  2
_OPEN30
 10
-550.0
 20
544.5
 30
0.0
 41
3.0
 42
3.0
 43
3.0
  0
MTEXT
  5
3B0
330
3A9
100
AcDbEntity
  8
0
 62
     0
100
AcDbMText
 10
-570.999
 20
547.14075
 30
0.0
 40
3.5
 41
0.0
 71
     5
 72
     1
  1
42
  0
POINT
  5
3B1
330
3A9
100
AcDbEntity
  8
DEFPOINTS
 62
     0
100
AcDbPoint
 10
-592.0
 20
516.6082305908203
 30
0.0
  0
POINT
  5
3B2
330
3A9
100
AcDbEntity
  8
DEFPOINTS
 62
     0
100
AcDbPoint
 10
-550.0
 20
513.0
 30
0.0
  0
POINT
  5
3B3
330
3A9
100
AcDbEntity
  8
DEFPOINTS
 62
     0
100
AcDbPoint
 10
-550.0
 20
544.5
 30
0.0
  0
ENDBLK
  5
3AB
330
3A9
100
AcDbEntity
  8
0
100
AcDbBlockEnd
  0
BLOCK
  5
3B6
330
3B5
100
AcDbEntity
  8
0
100
AcDbBlockBegin
  2
*D25
 70
     1
 10
0.0
 20
0.0
 30
0.0
  3
*D25
  1

  0
LINE
  5
3B8
330
3B5
100
AcDbEntity
  8
0
 62
     0
100
AcDbLine
 10
-677.0
 20
266.7600030517578
 30
0.0
 11
-677.0
 21
174.7309957275391
 31
0.0
  0
LINE
  5
3B9
330
3B5
100
AcDbEntity
  8
0
 62
     0
100
AcDbLine
 10
-657.0
 20
176.001
 30
0.0
 11
-674.0
 21
176.001
 31
0.0
  0
INSERT
  5
3BA
330
3B5
100
AcDbEntity
  8
0
 62
     0
100
AcDbBlockReference
  2
_OPEN30
 10
-654.0
 20
176.001
 30
0.0
 41
3.0
 42
3.0
 43
3.0
  0
INSERT
  5
3BB
330
3B5
100
AcDbEntity
  8
0
 62
     0
100
AcDbBlockReference
  2
_OPEN30
 10
-677.0
 20
176.001
 30
0.0
 41
3.0
 42
3.0
 43
3.0
 50
180.0
  0
MTEXT
  5
3BC
330
3B5
100
AcDbEntity
  8
0
 62
     0
100
AcDbMText
 10
-665.498
 20
178.64175
 30
0.0
 40
3.5
 41
0.0
 71
     5
 72
     1
  1
23
  0
POINT
  5
3BD
330
3B5
100
AcDbEntity
  8
DEFPOINTS
 62
     0
100
AcDbPoint
 10
-654.0
 20
253.0
 30
0.0
  0
POINT
  5
3BE
330
3B5
100
AcDbEntity
  8
DEFPOINTS
 62
     0
100
AcDbPoint
 10
-677.0
 20
269.3000030517578
 30
0.0
  0
POINT
  5
3BF
330
3B5
100
AcDbEntity
  8
DEFPOINTS
 62
     0
100
AcDbPoint
 10
-677.0
 20
176.0
 30
0.0
  0
ENDBLK
  5
3B7
330
3B5
100
AcDbEntity
  8
0
100
AcDbBlockEnd
  0
BLOCK
  5
3C2
330
3C1
100
AcDbEntity
  8
0
100
AcDbBlockBegin
  2
*D26
 70
     1
 10
0.0
 20
0.0
 30
0.0
  3
*D26
  1

  0
LINE
  5
3C4
330
3C1
100
AcDbEntity
  8
0
 62
     0
100
AcDbLine
 10
-654.0
 20
250.46
 30
0.0
 11
-654.0
 21
174.7309957275391
 31
0.0
  0
LINE
  5
3C5
330
3C1
100
AcDbEntity
  8
0
 62
     0
100
AcDbLine
 10
-651.0
 20
176.001
 30
0.0
 11
-553.0
 21
176.001
 31
0.0
  0
INSERT
  5
3C6
330
3C1
100
AcDbEntity
  8
0
 62
     0
100
AcDbBlockReference
  2
_OPEN30
 10
-654.0
 20
176.001
 30
0.0
 41
3.0
 42
3.0
 43
3.0
 50
180.0
  0
INSERT
  5
3C7
330
3C1
100
AcDbEntity
  8
0
 62
     0
100
AcDbBlockReference
  2
_OPEN30
 10
-550.0
 20
176.001
 30
0.0
 41
3.0
 42
3.0
 43
3.0
  0
MTEXT
  5
3C8
330
3C1
100
AcDbEntity
  8
0
 62
     0
100
AcDbMText
 10
-601.999
 20
178.64175
 30
0.0
 40
3.5
 41
0.0
 71
     5
 72
     1
  1
104
  0
POINT
  5
3C9
330
3C1
100
AcDbEntity
  8
DEFPOINTS
 62
     0
100
AcDbPoint
 10
-654.0
 20
253.0
 30
0.0
  0
POINT
  5
3CA
330
3C1
100
AcDbEntity
  8
DEFPOINTS
 62
     0
100
AcDbPoint
 10
-550.0
 20
213.0
 30
0.0
  0
POINT
  5
3CB
330
3C1
100
AcDbEntity
  8
DEFPOINTS
 62
     0
100
AcDbPoint
 10
-550.0
 20
176.0
 30
0.0
  0
ENDBLK
  5
3C3
330
3C1
100
AcDbEntity
  8
0
100
AcDbBlockEnd
  0
BLOCK
  5
3CE
330
3CD
100
AcDbEntity
  8
0
100
AcDbBlockBegin
  2
*D27
 70
     1
 10
0.0
 20
0.0
 30
0.0
  3
*D27
  1

  0
POINT
  5
3D4
330
3CD
100
AcDbEntity
  8
DEFPOINTS
 62
     0
100
AcDbPoint
 10
-189.7961795854993
 20
390.2100538872587
 30
0.0
  0
POINT
  5
3D5
330
3CD
100
AcDbEntity
  8
DEFPOINTS
 62
     0
100
AcDbPoint
 10
-297.5731991032392
 20
237.4998928053822
 30
0.0
  0
LINE
  5
3D6
330
3CD
100
AcDbEntity
  8
0
  6
CONTINUOUS
 62
     7
100
AcDbLine
 10
-189.7961795854993
 20
390.2100538872587
 30
0.0
 11
-297.5731991032392
 21
237.4998928053822
 31
0.0
  0
LINE
  5
3D7
330
3CD
100
AcDbEntity
  8
0
  6
CONTINUOUS
 62
     7
100
AcDbLine
 10
-297.5731991032392
 20
237.4998928053822
 30
0.0
 11
-296.4805976074252
 21
240.4674207281127
 31
0.0
  0
LINE
  5
3D8
330
3CD
100
AcDbEntity
  8
0
  6
CONTINUOUS
 62
     7
100
AcDbLine
 10
-297.5731991032392
 20
237.4998928053822
 30
0.0
 11
-295.143214490403
 21
239.5235466251399
 31
0.0
  0
LINE
  5
3D9
330
3CD
100
AcDbEntity
  8
0
  6
CONTINUOUS
 62
     7
100
AcDbLine
 10
-297.5731991032389
 20
237.499892805382
 30
0.0
 11
-309.8660996498022
 21
220.0819791255537
 31
0.0
  0
MTEXT
  5
3DA
330
3CD
100
AcDbEntity
  8
0
 62
     7
100
AcDbMText
 10
-304.4603118896484
 20
228.6164855957031
 30
0.0
 40
3.5
 41
0.0
 71
     8
 72
     1
  1
\W1;\U+2205307.2
 11
0.5764323161697934
 21
0.8171448983351285
 31
0.0
  0
ENDBLK
  5
3CF
330
3CD
100
AcDbEntity
  8
0
100
AcDbBlockEnd
  0
BLOCK
  5
3DD
330
3DC
100
AcDbEntity
  8
0
100
AcDbBlockBegin
  2
*D28
 70
     1
 10
0.0
 20
0.0
 30
0.0
  3
*D28
  1

  0
LINE
  5
3DF
330
3DC
100
AcDbEntity
  8
0
 62
     0
100
AcDbLine
 10
-557.54
 20
464.0500030517578
 30
0.0
 11
-573.2689890136719
 21
464.0500030517578
 31
0.0
  0
LINE
  5
3E0
330
3DC
100
AcDbEntity
  8
0
 62
     0
100
AcDbLine
 10
-571.999
 20
428.0499992370605
 30
0.0
 11
-571.999
 21
461.0500030517578
 31
0.0
  0
INSERT
  5
3E1
330
3DC
100
AcDbEntity
  8
0
 62
     0
100
AcDbBlockReference
  2
_OPEN30
 10
-571.999
 20
425.0499992370605
 30
0.0
 41
3.0
 42
3.0
 43
3.0
 50
270.0
  0
INSERT
  5
3E2
330
3DC
100
AcDbEntity
  8
0
 62
     0
100
AcDbBlockReference
  2
_OPEN30
 10
-571.999
 20
464.0500030517578
 30
0.0
 41
3.0
 42
3.0
 43
3.0
 50
90.0
  0
MTEXT
  5
3E3
330
3DC
100
AcDbEntity
  8
0
 62
     0
100
AcDbMText
 10
-577.5564166666667
 20
444.5510030517578
 30
0.0
 40
3.5
 41
0.0
 71
     5
 72
     1
  1
MAX 45\PMIN 15
 11
0.0
 21
1.0
 31
0.0
  0
POINT
  5
3E4
330
3DC
100
AcDbEntity
  8
DEFPOINTS
 62
     0
100
AcDbPoint
 10
-584.2699890136719
 20
425.0499992370605
 30
0.0
  0
POINT
  5
3E5
330
3DC
100
AcDbEntity
  8
DEFPOINTS
 62
     0
100
AcDbPoint
 10
-555.0
 20
464.0500030517578
 30
0.0
  0
POINT
  5
3E6
330
3DC
100
AcDbEntity
  8
DEFPOINTS
 62
     0
100
AcDbPoint
 10
-572.0
 20
464.0500030517578
 30
0.0
  0
ENDBLK
  5
3DE
330
3DC
100
AcDbEntity
  8
0
100
AcDbBlockEnd
  0
BLOCK
  5
3E9
330
3E8
100
AcDbEntity
  8
0
100
AcDbBlockBegin
  2
*D29
 70
     1
 10
0.0
 20
0.0
 30
0.0
  3
*D29
  1

  0
LINE
  5
3EB
330
3E8
100
AcDbEntity
  8
0
 62
     0
100
AcDbLine
 10
-550.54
 20
425.0499992370605
 30
0.0
 11
-584.2679890136719
 21
425.0499992370605
 31
0.0
  0
LINE
  5
3EC
330
3E8
100
AcDbEntity
  8
0
 62
     0
100
AcDbLine
 10
-582.998
 20
422.0499992370605
 30
0.0
 11
-582.998
 21
366.0
 31
0.0
  0
INSERT
  5
3ED
330
3E8
100
AcDbEntity
  8
0
 62
     0
100
AcDbBlockReference
  2
_OPEN30
 10
-582.998
 20
425.0499992370605
 30
0.0
 41
3.0
 42
3.0
 43
3.0
 50
90.0
  0
INSERT
  5
3EE
330
3E8
100
AcDbEntity
  8
0
 62
     0
100
AcDbBlockReference
  2
_OPEN30
 10
-582.998
 20
363.0
 30
0.0
 41
3.0
 42
3.0
 43
3.0
 50
270.0
  0
MTEXT
  5
3EF
330
3E8
100
AcDbEntity
  8
0
 62
     0
100
AcDbMText
 10
-588.5624166666666
 20
391.141001296997
 30
0.0
 40
3.5
 41
0.0
 71
     5
 72
     1
  1
MAX 62.05\PMIN 56.75
 11
0.0
 21
1.0
 31
0.0
  0
POINT
  5
3F0
330
3E8
100
AcDbEntity
  8
DEFPOINTS
 62
     0
100
AcDbPoint
 10
-548.0
 20
425.0499992370605
 30
0.0
  0
POINT
  5
3F1
330
3E8
100
AcDbEntity
  8
DEFPOINTS
 62
     0
100
AcDbPoint
 10
-545.0
 20
363.0
 30
0.0
  0
POINT
  5
3F2
330
3E8
100
AcDbEntity
  8
DEFPOINTS
 62
     0
100
AcDbPoint
 10
-583.0
 20
363.0
 30
0.0
  0
ENDBLK
  5
3EA
330
3E8
100
AcDbEntity
  8
0
100
AcDbBlockEnd
  0
BLOCK
  5
3F5
330
3F4
100
AcDbEntity
  8
0
100
AcDbBlockBegin
  2
*D30
 70
     1
 10
0.0
 20
0.0
 30
0.0
  3
*D30
  1

  0
LINE
  5
3F7
330
3F4
100
AcDbEntity
  8
0
 62
     0
100
AcDbLine
 10
-491.1590051269531
 20
464.0500030517578
 30
0.0
 11
-482.7290109863281
 21
464.0500030517578
 31
0.0
  0
LINE
  5
3F8
330
3F4
100
AcDbEntity
  8
0
 62
     0
100
AcDbLine
 10
-483.999
 20
461.0500030517578
 30
0.0
 11
-483.999
 21
407.0500030517578
 31
0.0
  0
INSERT
  5
3F9
330
3F4
100
AcDbEntity
  8
0
 62
     0
100
AcDbBlockReference
  2
_OPEN30
 10
-483.999
 20
464.0500030517578
 30
0.0
 41
3.0
 42
3.0
 43
3.0
 50
90.0
  0
INSERT
  5
3FA
330
3F4
100
AcDbEntity
  8
0
 62
     0
100
AcDbBlockReference
  2
_OPEN30
 10
-483.999
 20
404.0500030517578
 30
0.0
 41
3.0
 42
3.0
 43
3.0
 50
270.0
  0
MTEXT
  5
3FB
330
3F4
100
AcDbEntity
  8
0
 62
     0
100
AcDbMText
 10
-486.63975
 20
434.0510030517578
 30
0.0
 40
3.5
 41
0.0
 71
     5
 72
     1
  1
60
 11
0.0
 21
1.0
 31
0.0
  0
POINT
  5
3FC
330
3F4
100
AcDbEntity
  8
DEFPOINTS
 62
     0
100
AcDbPoint
 10
-493.6990051269531
 20
464.0500030517578
 30
0.0
  0
POINT
  5
3FD
330
3F4
100
AcDbEntity
  8
DEFPOINTS
 62
     0
100
AcDbPoint
 10
-498.6990051269531
 20
404.0500030517578
 30
0.0
  0
POINT
  5
3FE
330
3F4
100
AcDbEntity
  8
DEFPOINTS
 62
     0
100
AcDbPoint
 10
-484.0
 20
404.0500030517578
 30
0.0
  0
ENDBLK
  5
3F6
330
3F4
100
AcDbEntity
  8
0
100
AcDbBlockEnd
  0
BLOCK
  5
401
330
400
100
AcDbEntity
  8
0
100
AcDbBlockBegin
  2
*D31
 70
     1
 10
0.0
 20
0.0
 30
0.0
  3
*D31
  1

  0
LINE
  5
403
330
400
100
AcDbEntity
  8
0
 62
     0
100
AcDbLine
 10
-654.0
 20
396.001
 30
0.0
 11
-686.2264370117188
 21
396.001
 31
0.0
  0
LINE
  5
404
330
400
100
AcDbEntity
  8
0
 62
     0
100
AcDbLine
 10
-649.0
 20
396.001
 30
0.0
 11
-651.0
 21
396.001
 31
0.0
  0
INSERT
  5
405
330
400
100
AcDbEntity
  8
0
 62
     0
100
AcDbBlockReference
  2
_OPEN30
 10
-646.0
 20
396.001
 30
0.0
 41
3.0
 42
3.0
 43
3.0
  0
INSERT
  5
406
330
400
100
AcDbEntity
  8
0
 62
     0
100
AcDbBlockReference
  2
_OPEN30
 10
-654.0
 20
396.001
 30
0.0
 41
3.0
 42
3.0
 43
3.0
 50
180.0
  0
MTEXT
  5
407
330
400
100
AcDbEntity
  8
0
 62
     0
100
AcDbMText
 10
-674.6036752929688
 20
401.5584166666666
 30
0.0
 40
3.5
 41
0.0
 71
     5
 72
     1
  1
\A1;MAX{\H0.5x;\S ;}  8\PMIN{\H0.5x;\S ;}-15
  0
POINT
  5
408
330
400
100
AcDbEntity
  8
DEFPOINTS
 62
     0
100
AcDbPoint
 10
-646.0
 20
416.0
 30
0.0
  0
POINT
  5
409
330
400
100
AcDbEntity
  8
DEFPOINTS
 62
     0
100
AcDbPoint
 10
-654.0
 20
407.8603439331055
 30
0.0
  0
POINT
  5
40A
330
400
100
AcDbEntity
  8
DEFPOINTS
 62
     0
100
AcDbPoint
 10
-654.0
 20
396.0
 30
0.0
  0
ENDBLK
  5
402
330
400
100
AcDbEntity
  8
0
100
AcDbBlockEnd
  0
BLOCK
  5
40D
330
40C
100
AcDbEntity
  8
0
100
AcDbBlockBegin
  2
*D32
 70
     1
 10
0.0
 20
0.0
 30
0.0
  3
*D32
  1

  0
LINE
  5
40F
330
40C
100
AcDbEntity
  8
0
 62
     0
100
AcDbLine
 10
-684.54
 20
277.3000030517578
 30
0.0
 11
-705.2680195312499
 21
277.3000030517578
 31
0.0
  0
LINE
  5
410
330
40C
100
AcDbEntity
  8
0
 62
     0
100
AcDbLine
 10
-703.998
 20
448.6999969482422
 30
0.0
 11
-703.9979999999999
 21
280.3000030517578
 31
0.0
  0
INSERT
  5
411
330
40C
100
AcDbEntity
  8
0
 62
     0
100
AcDbBlockReference
  2
_OPEN30
 10
-703.9979999999999
 20
277.3000030517578
 30
0.0
 41
3.0
 42
3.0
 43
3.0
 50
270.0000000000001
  0
MTEXT
  5
412
330
40C
100
AcDbEntity
  8
0
 62
     0
100
AcDbMText
 10
-706.64575
 20
363.001
 30
0.0
 40
3.5
 41
0.0
 71
     5
 72
     1
  1
\A1;\U+2205171.4
 11
-6.632837909567037E-16
 21
1.0
 31
0.0
  0
POINT
  5
413
330
40C
100
AcDbEntity
  8
DEFPOINTS
 62
     0
100
AcDbPoint
 10
-693.9666442871094
 20
448.6999969482422
 30
0.0
  0
POINT
  5
414
330
40C
100
AcDbEntity
  8
DEFPOINTS
 62
     0
100
AcDbPoint
 10
-682.0
 20
277.3000030517578
 30
0.0
  0
POINT
  5
415
330
40C
100
AcDbEntity
  8
DEFPOINTS
 62
     0
100
AcDbPoint
 10
-704.0
 20
277.3000030517578
 30
0.0
  0
ENDBLK
  5
40E
330
40C
100
AcDbEntity
  8
0
100
AcDbBlockEnd
  0
BLOCK
  5
418
330
417
100
AcDbEntity
  8
0
100
AcDbBlockBegin
  2
*D33
 70
     1
 10
0.0
 20
0.0
 30
0.0
  3
*D33
  1

  0
LINE
  5
41A
330
417
100
AcDbEntity
  8
0
 62
     0
100
AcDbLine
 10
-660.0
 20
210.46
 30
0.0
 11
-660.0
 21
163.7309957275391
 31
0.0
  0
LINE
  5
41B
330
417
100
AcDbEntity
  8
0
 62
     0
100
AcDbLine
 10
-550.0
 20
210.46
 30
0.0
 11
-550.0
 21
163.7309957275391
 31
0.0
  0
LINE
  5
41C
330
417
100
AcDbEntity
  8
0
 62
     0
100
AcDbLine
 10
-657.0
 20
165.001
 30
0.0
 11
-553.0
 21
165.001
 31
0.0
  0
INSERT
  5
41D
330
417
100
AcDbEntity
  8
0
 62
     0
100
AcDbBlockReference
  2
_OPEN30
 10
-660.0
 20
165.001
 30
0.0
 41
3.0
 42
3.0
 43
3.0
 50
180.0
  0
INSERT
  5
41E
330
417
100
AcDbEntity
  8
0
 62
     0
100
AcDbBlockReference
  2
_OPEN30
 10
-550.0
 20
165.001
 30
0.0
 41
3.0
 42
3.0
 43
3.0
  0
MTEXT
  5
41F
330
417
100
AcDbEntity
  8
0
 62
     0
100
AcDbMText
 10
-604.999
 20
167.64175
 30
0.0
 40
3.5
 41
0.0
 71
     5
 72
     1
  1
\A1;110
  0
POINT
  5
420
330
417
100
AcDbEntity
  8
DEFPOINTS
 62
     0
100
AcDbPoint
 10
-660.0
 20
213.0
 30
0.0
  0
POINT
  5
421
330
417
100
AcDbEntity
  8
DEFPOINTS
 62
     0
100
AcDbPoint
 10
-550.0
 20
213.0
 30
0.0
  0
POINT
  5
422
330
417
100
AcDbEntity
  8
DEFPOINTS
 62
     0
100
AcDbPoint
 10
-550.0
 20
165.0
 30
0.0
  0
ENDBLK
  5
419
330
417
100
AcDbEntity
  8
0
100
AcDbBlockEnd
  0
BLOCK
  5
42A
330
423
100
AcDbEntity
  8
0
100
AcDbBlockBegin
  2
SYM0005
 70
     0
 10
0.0
 20
0.0
 30
0.0
  3
SYM0005
  1

  0
LINE
  5
424
330
423
100
AcDbEntity
  8
0
  6
CONTINUOUS
 62
     7
100
AcDbLine
 10
0.0
 20
0.0
 30
0.0
 11
3.036194360341028
 21
27.35518262820233
 31
0.0
  0
LINE
  5
425
330
423
100
AcDbEntity
  8
0
  6
CONTINUOUS
 62
     7
100
AcDbLine
 10
0.0
 20
0.0
 30
0.0
 11
-0.476505041021937
 21
3.126170652207179
 31
0.0
  0
LINE
  5
426
330
423
100
AcDbEntity
  8
0
  6
CONTINUOUS
 62
     7
100
AcDbLine
 10
0.0
 20
0.0
 30
0.0
 11
1.150419855377095
 21
2.945595721954192
 31
0.0
  0
LINE
  5
427
330
423
100
AcDbEntity
  8
0
  6
CONTINUOUS
 62
     7
100
AcDbLine
 10
3.036194360340971
 20
27.35518262820233
 30
0.0
 11
14.53729436034098
 21
27.35518262820233
 31
0.0
  0
MTEXT
  5
428
330
423
100
AcDbEntity
  8
0
 62
     7
100
AcDbMText
 10
4.050126451458482
 20
28.23018388357622
 30
0.0
 40
3.5
 41
0.0
 71
     7
 72
     1
  1
{\W0.833333;Ｍ１６}
  0
ENDBLK
  5
42B
330
423
100
AcDbEntity
  8
0
100
AcDbBlockEnd
  0
BLOCK
  5
433
330
42C
100
AcDbEntity
  8
0
100
AcDbBlockBegin
  2
SYM0006
 70
     0
 10
0.0
 20
0.0
 30
0.0
  3
SYM0006
  1

  0
LINE
  5
42D
330
42C
100
AcDbEntity
  8
0
  6
CONTINUOUS
 62
     7
100
AcDbLine
 10
0.0
 20
0.0
 30
0.0
 11
-25.64779918502029
 21
-76.80000044046733
 31
0.0
  0
LINE
  5
42E
330
42C
100
AcDbEntity
  8
0
  6
CONTINUOUS
 62
     7
100
AcDbLine
 10
0.0
 20
0.0
 30
0.0
 11
-0.191236482694762
 21
-3.156489918964951
 31
0.0
  0
LINE
  5
42F
330
42C
100
AcDbEntity
  8
0
  6
CONTINUOUS
 62
     7
100
AcDbLine
 10
0.0
 20
0.0
 30
0.0
 11
-1.743860611474133
 21
-2.637982215366435
 31
0.0
  0
LINE
  5
430
330
42C
100
AcDbEntity
  8
0
  6
CONTINUOUS
 62
     7
100
AcDbLine
 10
-25.64779918502029
 20
-76.80000044046733
 30
0.0
 11
-45.24600083990947
 21
-76.80000044046733
 31
0.0
  0
MTEXT
  5
431
330
42C
100
AcDbEntity
  8
0
 62
     7
100
AcDbMText
 10
-27.24600083990947
 20
-75.92500069901863
 30
0.0
 40
3.5
 41
0.0
 71
     9
 72
     1
  1
{\W1;6-M16}
  0
ENDBLK
  5
434
330
42C
100
AcDbEntity
  8
0
100
AcDbBlockEnd
  0
BLOCK
  5
43C
330
435
100
AcDbEntity
  8
0
100
AcDbBlockBegin
  2
SYM0007
 70
     0
 10
0.0
 20
0.0
 30
0.0
  3
SYM0007
  1

  0
LINE
  5
436
330
435
100
AcDbEntity
  8
0
  6
CONTINUOUS
 62
     7
100
AcDbLine
 10
0.0
 20
0.0
 30
0.0
 11
33.16314225766325
 21
-27.99999826796272
 31
0.0
  0
LINE
  5
437
330
435
100
AcDbEntity
  8
0
  6
CONTINUOUS
 62
     7
100
AcDbLine
 10
0.0
 20
0.0
 30
0.0
 11
2.86190716161741
 21
-1.345171884601825
 31
0.0
  0
LINE
  5
438
330
435
100
AcDbEntity
  8
0
  6
CONTINUOUS
 62
     7
100
AcDbLine
 10
0.0
 20
0.0
 30
0.0
 11
1.805898363082406
 21
-2.595906605226162
 31
0.0
  0
LINE
  5
439
330
435
100
AcDbEntity
  8
0
  6
CONTINUOUS
 62
     7
100
AcDbLine
 10
33.16314225766325
 20
-27.99999826796272
 30
0.0
 11
48.1642422576632
 21
-27.99999826796272
 31
0.0
  0
MTEXT
  5
43A
330
435
100
AcDbEntity
  8
0
 62
     7
100
AcDbMText
 10
33.99291647308701
 20
-27.12501140140211
 30
0.0
 40
3.5
 41
0.0
 71
     7
 72
     1
  1
{\W0.833333;３－Ｍ６}
  0
ENDBLK
  5
43D
330
435
100
AcDbEntity
  8
0
100
AcDbBlockEnd
  0
BLOCK
  5
440
330
43F
100
AcDbEntity
  8
0
100
AcDbBlockBegin
  2
*D37
 70
     1
 10
0.0
 20
0.0
 30
0.0
  3
*D37
  1

  0
MTEXT
  5
449
330
43F
100
AcDbEntity
  8
0
 62
     0
100
AcDbMText
 10
-567.03165234375
 20
189.64875
 30
0.0
 40
3.5
 41
0.0
 71
     5
 72
     1
  1
6.5
  0
POINT
  5
44A
330
43F
100
AcDbEntity
  8
DEFPOINTS
 62
     0
100
AcDbPoint
 10
-550.0
 20
163.7300109863281
 30
0.0
  0
POINT
  5
44B
330
43F
100
AcDbEntity
  8
DEFPOINTS
 62
     0
100
AcDbPoint
 10
-556.5
 20
299.0
 30
0.0
  0
POINT
  5
44C
330
43F
100
AcDbEntity
  8
DEFPOINTS
 62
     0
100
AcDbPoint
 10
-556.5
 20
187.0
 30
0.0
  0
LINE
  5
44D
330
43F
100
AcDbEntity
  8
0
  6
CONTINUOUS
 62
     7
100
AcDbLine
 10
-556.5
 20
296.46
 30
0.0
 11
-556.5
 21
185.7299957275391
 31
0.0
  0
LINE
  5
44E
330
43F
100
AcDbEntity
  8
0
  6
CONTINUOUS
 62
     7
100
AcDbLine
 10
-543.65
 20
187.0
 30
0.0
 11
-562.85
 21
187.0
 31
0.0
  0
LINE
  5
44F
330
43F
100
AcDbEntity
  8
0
  6
CONTINUOUS
 62
     7
100
AcDbLine
 10
-550.0
 20
187.0
 30
0.0
 11
-546.9454743379944
 21
187.8184576843
 31
0.0
  0
LINE
  5
450
330
43F
100
AcDbEntity
  8
0
  6
CONTINUOUS
 62
     7
100
AcDbLine
 10
-550.0
 20
187.0
 30
0.0
 11
-546.9454743379944
 21
186.1815423157
 31
0.0
  0
LINE
  5
451
330
43F
100
AcDbEntity
  8
0
  6
CONTINUOUS
 62
     7
100
AcDbLine
 10
-556.5
 20
187.0
 30
0.0
 11
-559.5545256620056
 21
186.1815423157
 31
0.0
  0
LINE
  5
452
330
43F
100
AcDbEntity
  8
0
  6
CONTINUOUS
 62
     7
100
AcDbLine
 10
-556.5
 20
187.0
 30
0.0
 11
-559.5545256620056
 21
187.8184576843
 31
0.0
  0
LINE
  5
453
330
43F
100
AcDbEntity
  8
0
  6
CONTINUOUS
 62
     7
100
AcDbLine
 10
-556.5
 20
187.0
 30
0.0
 11
-566.8712768554688
 21
187.0
 31
0.0
  0
ENDBLK
  5
441
330
43F
100
AcDbEntity
  8
0
100
AcDbBlockEnd
  0
BLOCK
  5
456
330
455
100
AcDbEntity
  8
0
100
AcDbBlockBegin
  2
*D38
 70
     1
 10
0.0
 20
0.0
 30
0.0
  3
*D38
  1

  0
LINE
  5
458
330
455
100
AcDbEntity
  8
0
 62
     0
100
AcDbLine
 10
-631.0
 20
414.46
 30
0.0
 11
-631.0
 21
394.7309995422363
 31
0.0
  0
LINE
  5
459
330
455
100
AcDbEntity
  8
0
 62
     0
100
AcDbLine
 10
-634.0
 20
396.001
 30
0.0
 11
-643.0
 21
396.001
 31
0.0
  0
INSERT
  5
45A
330
455
100
AcDbEntity
  8
0
 62
     0
100
AcDbBlockReference
  2
_OPEN30
 10
-631.0
 20
396.001
 30
0.0
 41
3.0
 42
3.0
 43
3.0
  0
INSERT
  5
45B
330
455
100
AcDbEntity
  8
0
 62
     0
100
AcDbBlockReference
  2
_OPEN30
 10
-646.0
 20
396.001
 30
0.0
 41
3.0
 42
3.0
 43
3.0
 50
180.0
  0
MTEXT
  5
45C
330
455
100
AcDbEntity
  8
0
 62
     0
100
AcDbMText
 10
-638.498
 20
398.64175
 30
0.0
 40
3.5
 41
0.0
 71
     5
 72
     1
  1
15
  0
POINT
  5
45D
330
455
100
AcDbEntity
  8
DEFPOINTS
 62
     0
100
AcDbPoint
 10
-631.0
 20
417.0
 30
0.0
  0
POINT
  5
45E
330
455
100
AcDbEntity
  8
DEFPOINTS
 62
     0
100
AcDbPoint
 10
-646.0
 20
416.0
 30
0.0
  0
POINT
  5
45F
330
455
100
AcDbEntity
  8
DEFPOINTS
 62
     0
100
AcDbPoint
 10
-646.0
 20
396.0
 30
0.0
  0
ENDBLK
  5
457
330
455
100
AcDbEntity
  8
0
100
AcDbBlockEnd
  0
BLOCK
  5
462
330
461
100
AcDbEntity
  8
0
100
AcDbBlockBegin
  2
*D39
 70
     1
 10
0.0
 20
0.0
 30
0.0
  3
*D39
  1

  0
LINE
  5
464
330
461
100
AcDbEntity
  8
0
 62
     0
100
AcDbLine
 10
-631.0
 20
449.54
 30
0.0
 11
-631.0
 21
463.2709966430664
 31
0.0
  0
LINE
  5
465
330
461
100
AcDbEntity
  8
0
 62
     0
100
AcDbLine
 10
-634.0
 20
462.001
 30
0.0
 11
-651.0
 21
462.001
 31
0.0
  0
INSERT
  5
466
330
461
100
AcDbEntity
  8
0
 62
     0
100
AcDbBlockReference
  2
_OPEN30
 10
-631.0
 20
462.001
 30
0.0
 41
3.0
 42
3.0
 43
3.0
  0
INSERT
  5
467
330
461
100
AcDbEntity
  8
0
 62
     0
100
AcDbBlockReference
  2
_OPEN30
 10
-654.0
 20
462.001
 30
0.0
 41
3.0
 42
3.0
 43
3.0
 50
180.0
  0
MTEXT
  5
468
330
461
100
AcDbEntity
  8
0
 62
     0
100
AcDbMText
 10
-641.6551044921875
 20
467.5584166666666
 30
0.0
 40
3.5
 41
0.0
 71
     5
 72
     1
  1
\A1;MAX{\H0.5x;\S ;}23\PMIN{\H0.5x;\S ;} 0
  0
POINT
  5
469
330
461
100
AcDbEntity
  8
DEFPOINTS
 62
     0
100
AcDbPoint
 10
-631.0
 20
447.0
 30
0.0
  0
POINT
  5
46A
330
461
100
AcDbEntity
  8
DEFPOINTS
 62
     0
100
AcDbPoint
 10
-654.0
 20
473.0
 30
0.0
  0
POINT
  5
46B
330
461
100
AcDbEntity
  8
DEFPOINTS
 62
     0
100
AcDbPoint
 10
-654.0
 20
462.0
 30
0.0
  0
ENDBLK
  5
463
330
461
100
AcDbEntity
  8
0
100
AcDbBlockEnd
  0
BLOCK
  5
46E
330
46D
100
AcDbEntity
  8
0
100
AcDbBlockBegin
  2
_ORIGIN
 70
     0
 10
0.0
 20
0.0
 30
0.0
  3
_ORIGIN
  1

  0
CIRCLE
  5
470
330
46D
100
AcDbEntity
  8
0
  6
BYBLOCK
 62
     0
100
AcDbCircle
 10
0.0
 20
0.0
 30
0.0
 40
0.5
  0
LINE
  5
471
330
46D
100
AcDbEntity
  8
0
  6
BYBLOCK
 62
     0
100
AcDbLine
 10
0.0
 20
0.0
 30
0.0
 11
-1.0
 21
0.0
 31
0.0
  0
ENDBLK
  5
46F
330
46D
100
AcDbEntity
  8
0
100
AcDbBlockEnd
  0
BLOCK
  5
473
330
472
100
AcDbEntity
  8
0
100
AcDbBlockBegin
  2
*D41
 70
     1
 10
0.0
 20
0.0
 30
0.0
  3
*D41
  1

  0
MTEXT
  5
47D
330
472
100
AcDbEntity
  8
0
 62
     0
100
AcDbMText
 10
-395.0018624971668
 20
315.3814292492132
 30
0.0
 40
3.5
 41
0.0
 71
     5
 72
     1
  1
\A1;2
 11
0.8660253998985314
 21
0.5000000067305885
 31
0.0
  0
POINT
  5
47E
330
472
100
AcDbEntity
  8
DEFPOINTS
 62
     0
100
AcDbPoint
 10
-390.3434744416921
 20
287.1688343541599
 30
0.0
  0
POINT
  5
47F
330
472
100
AcDbEntity
  8
DEFPOINTS
 62
     0
100
AcDbPoint
 10
-381.3613993625479
 20
275.6114547026448
 30
0.0
  0
POINT
  5
480
330
472
100
AcDbEntity
  8
DEFPOINTS
 62
     0
100
AcDbPoint
 10
-400.6725449281322
 20
309.0593393742648
 30
0.0
  0
LINE
  5
481
330
472
100
AcDbEntity
  8
0
  6
CONTINUOUS
 62
     7
100
AcDbLine
 10
-391.6134744587878
 20
289.3685388699022
 30
0.0
 11
-403.0396091798577
 21
309.159184385715
 31
0.0
  0
LINE
  5
482
330
472
100
AcDbEntity
  8
0
  6
CONTINUOUS
 62
     7
100
AcDbLine
 10
-382.6313993796436
 20
277.8111592183871
 30
0.0
 11
-401.3075451655618
 21
310.1591920285708
 31
0.0
  0
LINE
  5
483
330
472
100
AcDbEntity
  8
0
  6
CONTINUOUS
 62
     7
100
AcDbLine
 10
-402.4046089424281
 20
308.059331731409
 30
0.0
 11
-395.1732836387765
 21
312.234339417004
 31
0.0
  0
CIRCLE
  5
484
330
472
100
AcDbEntity
  8
0
  6
CONTINUOUS
 62
     7
100
AcDbCircle
 10
-402.4046089424281
 20
308.059331731409
 30
0.0
 40
1.5
  0
LINE
  5
485
330
472
100
AcDbEntity
  8
0
  6
CONTINUOUS
 62
     7
100
AcDbLine
 10
-400.6725449281322
 20
309.0593393742648
 30
0.0
 11
-398.4364769678522
 21
311.2954073691723
 31
0.0
  0
LINE
  5
486
330
472
100
AcDbEntity
  8
0
  6
CONTINUOUS
 62
     7
100
AcDbLine
 10
-400.6725449281322
 20
309.0593393742648
 30
0.0
 11
-397.6180192725348
 21
309.8777970824804
 31
0.0
  0
LINE
  5
487
330
472
100
AcDbEntity
  8
0
  6
CONTINUOUS
 62
     7
100
AcDbLine
 10
-400.6725449281322
 20
309.0593393742648
 30
0.0
 11
-395.4251731310053
 21
312.0889109482495
 31
0.0
  0
ENDBLK
  5
474
330
472
100
AcDbEntity
  8
0
100
AcDbBlockEnd
  0
BLOCK
  5
48A
330
489
100
AcDbEntity
  8
0
100
AcDbBlockBegin
  2
*D42
 70
     1
 10
0.0
 20
0.0
 30
0.0
  3
*D42
  1

  0
LINE
  5
48C
330
489
100
AcDbEntity
  8
0
 62
     0
100
AcDbLine
 10
-393.2820962691254
 20
241.2587077762491
 30
0.0
 11
-374.8264894718819
 21
209.2926596926438
 31
0.0
  0
LINE
  5
48D
330
489
100
AcDbEntity
  8
0
 62
     0
100
AcDbLine
 10
-375.4614916166602
 20
210.3925156505746
 30
0.0
 11
-388.5259177868296
 21
202.8497655490404
 31
0.0
  0
LINE
  5
48E
330
489
100
AcDbEntity
  8
0
 62
     0
100
AcDbLine
 10
-368.1002757175227
 20
214.6425157077846
 30
0.0
 11
-372.8634154169646
 21
211.8925156707664
 31
0.0
  0
INSERT
  5
48F
330
489
100
AcDbEntity
  8
0
 62
     0
100
AcDbBlockReference
  2
_OPEN30
 10
-365.5021995178271
 20
216.1425157279764
 30
0.0
 41
3.0
 42
3.0
 43
3.0
 50
30.00000044529202
  0
INSERT
  5
490
330
489
100
AcDbEntity
  8
0
 62
     0
100
AcDbBlockReference
  2
_OPEN30
 10
-375.4614916166602
 20
210.3925156505746
 30
0.0
 41
3.0
 42
3.0
 43
3.0
 50
210.000000445292
  0
MTEXT
  5
491
330
489
100
AcDbEntity
  8
0
 62
     0
100
AcDbMText
 10
-384.6166178194136
 20
208.164159342293
 30
0.0
 40
3.5
 41
0.0
 71
     5
 72
     1
  1
\A1;11.5
 11
0.8660253998985327
 21
0.5000000067305865
 31
0.0
  0
POINT
  5
492
330
489
100
AcDbEntity
  8
DEFPOINTS
 62
     0
100
AcDbPoint
 10
-382.2178055859291
 20
245.0947941975936
 30
0.0
  0
POINT
  5
493
330
489
100
AcDbEntity
  8
DEFPOINTS
 62
     0
100
AcDbPoint
 10
-394.5520962862211
 20
243.4584122919914
 30
0.0
  0
POINT
  5
494
330
489
100
AcDbEntity
  8
DEFPOINTS
 62
     0
100
AcDbPoint
 10
-375.4610554179661
 20
210.3917601322879
 30
0.0
  0
ENDBLK
  5
48B
330
489
100
AcDbEntity
  8
0
100
AcDbBlockEnd
  0
BLOCK
  5
497
330
496
100
AcDbEntity
  8
0
100
AcDbBlockBegin
  2
*D43
 70
     1
 10
0.0
 20
0.0
 30
0.0
  3
*D43
  1

  0
LINE
  5
499
330
496
100
AcDbEntity
  8
0
 62
     0
100
AcDbLine
 10
-369.5913972967612
 20
255.2252134854086
 30
0.0
 11
-351.0105395818371
 21
223.0422244525797
 31
0.0
  0
LINE
  5
49A
330
496
100
AcDbEntity
  8
0
 62
     0
100
AcDbLine
 10
-380.9478055688334
 20
242.8950896818513
 30
0.0
 11
-364.8669459802136
 21
215.0422243448903
 31
0.0
  0
LINE
  5
49B
330
496
100
AcDbEntity
  8
0
 62
     0
100
AcDbLine
 10
-354.243617926311
 20
222.6420803903187
 30
0.0
 11
-362.9038719252964
 21
217.6420803230129
 31
0.0
  0
INSERT
  5
49C
330
496
100
AcDbEntity
  8
0
 62
     0
100
AcDbBlockReference
  2
_OPEN30
 10
-351.6455417266154
 20
224.1420804105105
 30
0.0
 41
3.0
 42
3.0
 43
3.0
 50
30.00000044529208
  0
INSERT
  5
49D
330
496
100
AcDbEntity
  8
0
 62
     0
100
AcDbBlockReference
  2
_OPEN30
 10
-365.5019481249919
 20
216.1420803028211
 30
0.0
 41
3.0
 42
3.0
 43
3.0
 50
210.000000445292
  0
MTEXT
  5
49E
330
496
100
AcDbEntity
  8
0
 62
     0
100
AcDbMText
 10
-359.8929528986332
 20
222.4297107251727
 30
0.0
 40
3.5
 41
0.0
 71
     5
 72
     1
  1
\A1;16
 11
0.8660253998985321
 21
0.5000000067305874
 31
0.0
  0
POINT
  5
49F
330
496
100
AcDbEntity
  8
DEFPOINTS
 62
     0
100
AcDbPoint
 10
-370.8613973138569
 20
257.4249180011509
 30
0.0
  0
POINT
  5
4A0
330
496
100
AcDbEntity
  8
DEFPOINTS
 62
     0
100
AcDbPoint
 10
-382.2178055859291
 20
245.0947941975936
 30
0.0
  0
POINT
  5
4A1
330
496
100
AcDbEntity
  8
DEFPOINTS
 62
     0
100
AcDbPoint
 10
-365.501763319133
 20
216.1417602096896
 30
0.0
  0
ENDBLK
  5
498
330
496
100
AcDbEntity
  8
0
100
AcDbBlockEnd
  0
BLOCK
  5
4A4
330
4A3
100
AcDbEntity
  8
0
100
AcDbBlockBegin
  2
*D44
 70
     1
 10
0.0
 20
0.0
 30
0.0
  3
*D44
  1

  0
MTEXT
  5
4AB
330
4A3
100
AcDbEntity
  8
0
 62
     0
100
AcDbMText
 10
-656.998
 20
189.64175
 30
0.0
 40
3.5
 41
0.0
 71
     5
 72
     1
  1
\A1;6
  0
POINT
  5
4AC
330
4A3
100
AcDbEntity
  8
DEFPOINTS
 62
     0
100
AcDbPoint
 10
-654.0
 20
254.0
 30
0.0
  0
POINT
  5
4AD
330
4A3
100
AcDbEntity
  8
DEFPOINTS
 62
     0
100
AcDbPoint
 10
-660.0
 20
213.0
 30
0.0
  0
POINT
  5
4AE
330
4A3
100
AcDbEntity
  8
DEFPOINTS
 62
     0
100
AcDbPoint
 10
-660.0
 20
187.0
 30
0.0
  0
LINE
  5
4AF
330
4A3
100
AcDbEntity
  8
0
  6
CONTINUOUS
 62
     7
100
AcDbLine
 10
-647.65
 20
187.0
 30
0.0
 11
-666.35
 21
187.0
 31
0.0
  0
LINE
  5
4B0
330
4A3
100
AcDbEntity
  8
0
  6
CONTINUOUS
 62
     7
100
AcDbLine
 10
-654.0
 20
187.0
 30
0.0
 11
-650.9454743379944
 21
187.8184576843
 31
0.0
  0
LINE
  5
4B1
330
4A3
100
AcDbEntity
  8
0
  6
CONTINUOUS
 62
     7
100
AcDbLine
 10
-654.0
 20
187.0
 30
0.0
 11
-650.9454743379944
 21
186.1815423157
 31
0.0
  0
LINE
  5
4B2
330
4A3
100
AcDbEntity
  8
0
  6
CONTINUOUS
 62
     7
100
AcDbLine
 10
-660.0
 20
187.0
 30
0.0
 11
-663.0545256620056
 21
186.1815423157
 31
0.0
  0
LINE
  5
4B3
330
4A3
100
AcDbEntity
  8
0
  6
CONTINUOUS
 62
     7
100
AcDbLine
 10
-660.0
 20
187.0
 30
0.0
 11
-663.0545256620056
 21
187.8184576843
 31
0.0
  0
ENDBLK
  5
4A5
330
4A3
100
AcDbEntity
  8
0
100
AcDbBlockEnd
  0
BLOCK
  5
4B6
330
4B5
100
AcDbEntity
  8
0
100
AcDbBlockBegin
  2
*D45
 70
     1
 10
0.0
 20
0.0
 30
0.0
  3
*D45
  1

  0
LINE
  5
4B8
330
4B5
100
AcDbEntity
  8
0
 62
     0
100
AcDbLine
 10
-662.54
 20
253.0
 30
0.0
 11
-716.26901953125
 21
253.0
 31
0.0
  0
LINE
  5
4B9
330
4B5
100
AcDbEntity
  8
0
 62
     0
100
AcDbLine
 10
-662.54
 20
473.0
 30
0.0
 11
-716.26901953125
 21
473.0
 31
0.0
  0
LINE
  5
4BA
330
4B5
100
AcDbEntity
  8
0
 62
     0
100
AcDbLine
 10
-714.999
 20
256.0
 30
0.0
 11
-714.999
 21
470.0
 31
0.0
  0
INSERT
  5
4BB
330
4B5
100
AcDbEntity
  8
0
 62
     0
100
AcDbBlockReference
  2
_OPEN30
 10
-714.999
 20
253.0
 30
0.0
 41
3.0
 42
3.0
 43
3.0
 50
270.0
  0
INSERT
  5
4BC
330
4B5
100
AcDbEntity
  8
0
 62
     0
100
AcDbBlockReference
  2
_OPEN30
 10
-714.999
 20
473.0
 30
0.0
 41
3.0
 42
3.0
 43
3.0
 50
90.0
  0
MTEXT
  5
4BD
330
4B5
100
AcDbEntity
  8
0
 62
     0
100
AcDbMText
 10
-717.63975
 20
363.001
 30
0.0
 40
3.5
 41
0.0
 71
     5
 72
     1
  1
\A1;\U+2205220H6
 11
0.0
 21
1.0
 31
0.0
  0
POINT
  5
4BE
330
4B5
100
AcDbEntity
  8
DEFPOINTS
 62
     0
100
AcDbPoint
 10
-660.0
 20
253.0
 30
0.0
  0
POINT
  5
4BF
330
4B5
100
AcDbEntity
  8
DEFPOINTS
 62
     0
100
AcDbPoint
 10
-660.0
 20
473.0
 30
0.0
  0
POINT
  5
4C0
330
4B5
100
AcDbEntity
  8
DEFPOINTS
 62
     0
100
AcDbPoint
 10
-715.0
 20
473.0
 30
0.0
  0
ENDBLK
  5
4B7
330
4B5
100
AcDbEntity
  8
0
100
AcDbBlockEnd
  0
BLOCK
  5
4C3
330
4C2
100
AcDbEntity
  8
0
100
AcDbBlockBegin
  2
*D46
 70
     1
 10
0.0
 20
0.0
 30
0.0
  3
*D46
  1

  0
LINE
  5
4C5
330
4C2
100
AcDbEntity
  8
0
 62
     0
100
AcDbLine
 10
-647.54
 20
417.0
 30
0.0
 11
-694.2679890136719
 21
417.0
 31
0.0
  0
LINE
  5
4C6
330
4C2
100
AcDbEntity
  8
0
 62
     0
100
AcDbLine
 10
-647.54
 20
309.0
 30
0.0
 11
-694.2679890136719
 21
309.0
 31
0.0
  0
LINE
  5
4C7
330
4C2
100
AcDbEntity
  8
0
 62
     0
100
AcDbLine
 10
-692.998
 20
414.0
 30
0.0
 11
-692.998
 21
312.0
 31
0.0
  0
INSERT
  5
4C8
330
4C2
100
AcDbEntity
  8
0
 62
     0
100
AcDbBlockReference
  2
_OPEN30
 10
-692.998
 20
417.0
 30
0.0
 41
3.0
 42
3.0
 43
3.0
 50
90.0
  0
INSERT
  5
4C9
330
4C2
100
AcDbEntity
  8
0
 62
     0
100
AcDbBlockReference
  2
_OPEN30
 10
-692.998
 20
309.0
 30
0.0
 41
3.0
 42
3.0
 43
3.0
 50
270.0
  0
MTEXT
  5
4CA
330
4C2
100
AcDbEntity
  8
0
 62
     0
100
AcDbMText
 10
-695.6387500000001
 20
363.001
 30
0.0
 40
3.5
 41
0.0
 71
     5
 72
     1
  1
\A1;\U+2205108
 11
0.0
 21
1.0
 31
0.0
  0
POINT
  5
4CB
330
4C2
100
AcDbEntity
  8
DEFPOINTS
 62
     0
100
AcDbPoint
 10
-645.0
 20
417.0
 30
0.0
  0
POINT
  5
4CC
330
4C2
100
AcDbEntity
  8
DEFPOINTS
 62
     0
100
AcDbPoint
 10
-645.0
 20
309.0
 30
0.0
  0
POINT
  5
4CD
330
4C2
100
AcDbEntity
  8
DEFPOINTS
 62
     0
100
AcDbPoint
 10
-693.0
 20
309.0
 30
0.0
  0
ENDBLK
  5
4C4
330
4C2
100
AcDbEntity
  8
0
100
AcDbBlockEnd
  0
BLOCK
  5
4D0
330
4CF
100
AcDbEntity
  8
0
100
AcDbBlockBegin
  2
*D47
 70
     1
 10
0.0
 20
0.0
 30
0.0
  3
*D47
  1

  0
LINE
  5
4D2
330
4CF
100
AcDbEntity
  8
0
 62
     0
100
AcDbLine
 10
-648.54
 20
388.0
 30
0.0
 11
-683.2679890136719
 21
388.0
 31
0.0
  0
LINE
  5
4D3
330
4CF
100
AcDbEntity
  8
0
 62
     0
100
AcDbLine
 10
-648.54
 20
338.0
 30
0.0
 11
-683.2679890136719
 21
338.0
 31
0.0
  0
LINE
  5
4D4
330
4CF
100
AcDbEntity
  8
0
 62
     0
100
AcDbLine
 10
-681.998
 20
385.0
 30
0.0
 11
-681.998
 21
341.0
 31
0.0
  0
INSERT
  5
4D5
330
4CF
100
AcDbEntity
  8
0
 62
     0
100
AcDbBlockReference
  2
_OPEN30
 10
-681.998
 20
388.0
 30
0.0
 41
3.0
 42
3.0
 43
3.0
 50
90.0
  0
INSERT
  5
4D6
330
4CF
100
AcDbEntity
  8
0
 62
     0
100
AcDbBlockReference
  2
_OPEN30
 10
-681.998
 20
338.0
 30
0.0
 41
3.0
 42
3.0
 43
3.0
 50
270.0
  0
MTEXT
  5
4D7
330
4CF
100
AcDbEntity
  8
0
 62
     0
100
AcDbMText
 10
-684.6387500000001
 20
363.001
 30
0.0
 40
3.5
 41
0.0
 71
     5
 72
     1
  1
\A1;\U+220550
 11
0.0
 21
1.0
 31
0.0
  0
POINT
  5
4D8
330
4CF
100
AcDbEntity
  8
DEFPOINTS
 62
     0
100
AcDbPoint
 10
-646.0
 20
388.0
 30
0.0
  0
POINT
  5
4D9
330
4CF
100
AcDbEntity
  8
DEFPOINTS
 62
     0
100
AcDbPoint
 10
-646.0
 20
338.0
 30
0.0
  0
POINT
  5
4DA
330
4CF
100
AcDbEntity
  8
DEFPOINTS
 62
     0
100
AcDbPoint
 10
-682.0
 20
338.0
 30
0.0
  0
ENDBLK
  5
4D1
330
4CF
100
AcDbEntity
  8
0
100
AcDbBlockEnd
  0
BLOCK
  5
4DD
330
4DC
100
AcDbEntity
  8
0
100
AcDbBlockBegin
  2
*D48
 70
     1
 10
0.0
 20
0.0
 30
0.0
  3
*D48
  1

  0
LINE
  5
4DF
330
4DC
100
AcDbEntity
  8
0
 62
     0
100
AcDbLine
 10
-643.0
 20
325.0269590148926
 30
0.0
 11
-621.0
 21
325.0269590148926
 31
0.0
  0
INSERT
  5
4E0
330
4DC
100
AcDbEntity
  8
0
 62
     0
100
AcDbBlockReference
  2
_OPEN30
 10
-646.0
 20
325.0269590148926
 30
0.0
 41
3.0
 42
3.0
 43
3.0
 50
180.0
  0
INSERT
  5
4E1
330
4DC
100
AcDbEntity
  8
0
 62
     0
100
AcDbBlockReference
  2
_OPEN30
 10
-618.0
 20
325.0269590148926
 30
0.0
 41
3.0
 42
3.0
 43
3.0
  0
MTEXT
  5
4E2
330
4DC
100
AcDbEntity
  8
0
 62
     0
100
AcDbMText
 10
-631.999
 20
327.6677090148926
 30
0.0
 40
3.5
 41
0.0
 71
     5
 72
     1
  1
\A1;28
  0
POINT
  5
4E3
330
4DC
100
AcDbEntity
  8
DEFPOINTS
 62
     0
100
AcDbPoint
 10
-646.0
 20
388.0
 30
0.0
  0
POINT
  5
4E4
330
4DC
100
AcDbEntity
  8
DEFPOINTS
 62
     0
100
AcDbPoint
 10
-618.0
 20
363.0
 30
0.0
  0
POINT
  5
4E5
330
4DC
100
AcDbEntity
  8
DEFPOINTS
 62
     0
100
AcDbPoint
 10
-618.0
 20
325.0259590148926
 30
0.0
  0
ENDBLK
  5
4DE
330
4DC
100
AcDbEntity
  8
0
100
AcDbBlockEnd
  0
BLOCK
  5
4ED
330
4E6
100
AcDbEntity
  8
0
100
AcDbBlockBegin
  2
SYM0008
 70
     0
 10
0.0
 20
0.0
 30
0.0
  3
SYM0008
  1

  0
LINE
  5
4E7
330
4E6
100
AcDbEntity
  8
0
  6
CONTINUOUS
 62
     7
100
AcDbLine
 10
0.0
 20
0.0
 30
0.0
 11
-20.99999199230831
 21
-37.38548137486305
 31
0.0
  0
LINE
  5
4E8
330
4E6
100
AcDbEntity
  8
0
  6
CONTINUOUS
 62
     7
100
AcDbLine
 10
0.0
 20
0.0
 30
0.0
 11
-0.782340650909987
 21
-3.06397504995951
 31
0.0
  0
LINE
  5
4E9
330
4E6
100
AcDbEntity
  8
0
  6
CONTINUOUS
 62
     7
100
AcDbLine
 10
0.0
 20
0.0
 30
0.0
 11
-2.209514402950276
 21
-2.262309904499233
 31
0.0
  0
LINE
  5
4EA
330
4E6
100
AcDbEntity
  8
0
  6
CONTINUOUS
 62
     7
100
AcDbLine
 10
-20.99999199230842
 20
-37.38548137486296
 30
0.0
 11
16.46942697144254
 21
-37.38548137486296
 31
0.0
  0
MTEXT
  5
4EB
330
4E6
100
AcDbEntity
  8
0
 62
     7
100
AcDbMText
 10
-15.40557302855746
 20
-36.51047837094933
 30
0.0
 40
3.5
 41
0.0
 71
     7
 72
     1
  1
{\W0.833333;２－Ｍ１２{\H0.5x;\S　;}深サ２２}
  0
ENDBLK
  5
4EE
330
4E6
100
AcDbEntity
  8
0
100
AcDbBlockEnd
  0
BLOCK
  5
4F1
330
4F0
100
AcDbEntity
  8
0
100
AcDbBlockBegin
  2
*D50
 70
     1
 10
0.0
 20
0.0
 30
0.0
  3
*D50
  1

  0
POINT
  5
4F6
330
4F0
100
AcDbEntity
  8
DEFPOINTS
 62
     0
100
AcDbPoint
 10
-171.6503149793383
 20
403.3732712181879
 30
0.0
  0
POINT
  5
4F7
330
4F0
100
AcDbEntity
  8
DEFPOINTS
 62
     0
100
AcDbPoint
 10
-246.3496850206617
 20
322.6267287818121
 30
0.0
  0
LINE
  5
4F8
330
4F0
100
AcDbEntity
  8
0
  6
CONTINUOUS
 62
     7
100
AcDbLine
 10
-171.6503149793383
 20
403.3732712181879
 30
0.0
 11
-246.3496850206617
 21
322.6267287818121
 31
0.0
  0
LINE
  5
4F9
330
4F0
100
AcDbEntity
  8
0
  6
CONTINUOUS
 62
     7
100
AcDbLine
 10
-171.6503149793383
 20
403.3732712181879
 30
0.0
 11
-173.1238014756035
 21
400.5752652235259
 31
0.0
  0
LINE
  5
4FA
330
4F0
100
AcDbEntity
  8
0
  6
CONTINUOUS
 62
     7
100
AcDbLine
 10
-171.6503149793383
 20
403.3732712181879
 30
0.0
 11
-174.3253947144709
 21
401.6868701948475
 31
0.0
  0
LINE
  5
4FB
330
4F0
100
AcDbEntity
  8
0
  6
CONTINUOUS
 62
     7
100
AcDbLine
 10
-246.3496850206617
 20
322.6267287818121
 30
0.0
 11
-244.8761985243965
 21
325.4247347764742
 31
0.0
  0
LINE
  5
4FC
330
4F0
100
AcDbEntity
  8
0
  6
CONTINUOUS
 62
     7
100
AcDbLine
 10
-246.3496850206617
 20
322.6267287818121
 30
0.0
 11
-243.6746052855291
 21
324.3131298051525
 31
0.0
  0
MTEXT
  5
4FD
330
4F0
100
AcDbEntity
  8
0
 62
     7
100
AcDbMText
 10
-231.3960883977437
 20
339.6658707768642
 30
0.0
 40
3.5
 41
0.0
 71
     8
 72
     1
  1
\W1;\U+2205110
 11
0.6794413042615165
 21
0.7337298645028764
 31
0.0
  0
ENDBLK
  5
4F2
330
4F0
100
AcDbEntity
  8
0
100
AcDbBlockEnd
  0
BLOCK
  5
505
330
4FE
100
AcDbEntity
  8
0
100
AcDbBlockBegin
  2
SYM0009
 70
     0
 10
0.0
 20
0.0
 30
0.0
  3
SYM0009
  1

  0
LINE
  5
4FF
330
4FE
100
AcDbEntity
  8
0
  6
CONTINUOUS
 62
     7
100
AcDbLine
 10
0.0
 20
0.0
 30
0.0
 11
-50.95790349387565
 21
-115.5441418856375
 31
0.0
  0
LINE
  5
500
330
4FE
100
AcDbEntity
  8
0
  6
CONTINUOUS
 62
     7
100
AcDbLine
 10
0.0
 20
0.0
 30
0.0
 11
-0.483712706149248
 21
-3.12506352235448
 31
0.0
  0
LINE
  5
501
330
4FE
100
AcDbEntity
  8
0
  6
CONTINUOUS
 62
     7
100
AcDbLine
 10
0.0
 20
0.0
 30
0.0
 11
-1.981439252693434
 21
-2.464528045838847
 31
0.0
  0
LINE
  5
502
330
4FE
100
AcDbEntity
  8
0
  6
CONTINUOUS
 62
     7
100
AcDbLine
 10
-50.95790349387565
 20
-115.5441418856375
 30
0.0
 11
-87.66066036208
 21
-115.5441418856375
 31
0.0
  0
MTEXT
  5
503
330
4FE
100
AcDbEntity
  8
0
 62
     7
100
AcDbMText
 10
-52.16066036207999
 20
-114.6691418856376
 30
0.0
 40
3.5
 41
0.0
 71
     9
 72
     1
  1
{\W0.833333;３－Ｍ４　深サ６．５}
  0
ENDBLK
  5
506
330
4FE
100
AcDbEntity
  8
0
100
AcDbBlockEnd
  0
BLOCK
  5
509
330
508
100
AcDbEntity
  8
0
100
AcDbBlockBegin
  2
*D52
 70
     1
 10
0.0
 20
0.0
 30
0.0
  3
*D52
  1

  0
LINE
  5
50B
330
508
100
AcDbEntity
  8
0
 62
     0
100
AcDbLine
 10
-49.46
 20
363.0
 30
0.0
 11
-42.72900000000001
 21
363.0
 31
0.0
  0
LINE
  5
50C
330
508
100
AcDbEntity
  8
0
 62
     0
100
AcDbLine
 10
-198.46
 20
273.0
 30
0.0
 11
-42.72899999999997
 21
273.0
 31
0.0
  0
LINE
  5
50D
330
508
100
AcDbEntity
  8
0
 62
     0
100
AcDbLine
 10
-43.99900000000002
 20
360.0
 30
0.0
 11
-43.99899999999998
 21
276.0
 31
0.0
  0
INSERT
  5
50E
330
508
100
AcDbEntity
  8
0
 62
     0
100
AcDbBlockReference
  2
_OPEN30
 10
-43.99900000000002
 20
363.0
 30
0.0
 41
3.0
 42
3.0
 43
3.0
 50
90.00000000000001
  0
INSERT
  5
50F
330
508
100
AcDbEntity
  8
0
 62
     0
100
AcDbBlockReference
  2
_OPEN30
 10
-43.99899999999998
 20
273.0
 30
0.0
 41
3.0
 42
3.0
 43
3.0
 50
270.0
  0
MTEXT
  5
510
330
508
100
AcDbEntity
  8
0
 62
     0
100
AcDbMText
 10
-46.63975000000003
 20
318.001
 30
0.0
 40
3.5
 41
0.0
 71
     5
 72
     1
  1
90
 11
-3.947459643111667E-16
 21
1.0
 31
0.0
  0
POINT
  5
511
330
508
100
AcDbEntity
  8
DEFPOINTS
 62
     0
100
AcDbPoint
 10
-52.0
 20
363.0
 30
0.0
  0
POINT
  5
512
330
508
100
AcDbEntity
  8
DEFPOINTS
 62
     0
100
AcDbPoint
 10
-201.0
 20
273.0
 30
0.0
  0
POINT
  5
513
330
508
100
AcDbEntity
  8
DEFPOINTS
 62
     0
100
AcDbPoint
 10
-44.0
 20
273.0
 30
0.0
  0
ENDBLK
  5
50A
330
508
100
AcDbEntity
  8
0
100
AcDbBlockEnd
  0
BLOCK
  5
516
330
515
100
AcDbEntity
  8
0
100
AcDbBlockBegin
  2
*D53
 70
     1
 10
0.0
 20
0.0
 30
0.0
  3
*D53
  1

  0
LINE
  5
518
330
515
100
AcDbEntity
  8
0
 62
     0
100
AcDbLine
 10
-198.46
 20
233.0
 30
0.0
 11
-42.72899999999998
 21
233.0000000000001
 31
0.0
  0
LINE
  5
519
330
515
100
AcDbEntity
  8
0
 62
     0
100
AcDbLine
 10
-43.99900000000001
 20
270.0000000000001
 30
0.0
 11
-43.999
 21
236.0000000000001
 31
0.0
  0
INSERT
  5
51A
330
515
100
AcDbEntity
  8
0
 62
     0
100
AcDbBlockReference
  2
_OPEN30
 10
-43.99900000000001
 20
273.0000000000001
 30
0.0
 41
3.0
 42
3.0
 43
3.0
 50
90.00000000000001
  0
INSERT
  5
51B
330
515
100
AcDbEntity
  8
0
 62
     0
100
AcDbBlockReference
  2
_OPEN30
 10
-43.999
 20
233.0000000000001
 30
0.0
 41
3.0
 42
3.0
 43
3.0
 50
270.0
  0
MTEXT
  5
51C
330
515
100
AcDbEntity
  8
0
 62
     0
100
AcDbMText
 10
-46.63975
 20
253.001
 30
0.0
 40
3.5
 41
0.0
 71
     5
 72
     1
  1
40
 11
-3.552713678800496E-16
 21
1.0
 31
0.0
  0
POINT
  5
51D
330
515
100
AcDbEntity
  8
DEFPOINTS
 62
     0
100
AcDbPoint
 10
-201.0
 20
273.0
 30
0.0
  0
POINT
  5
51E
330
515
100
AcDbEntity
  8
DEFPOINTS
 62
     0
100
AcDbPoint
 10
-201.0
 20
233.0
 30
0.0
  0
POINT
  5
51F
330
515
100
AcDbEntity
  8
DEFPOINTS
 62
     0
100
AcDbPoint
 10
-44.0
 20
233.0
 30
0.0
  0
ENDBLK
  5
517
330
515
100
AcDbEntity
  8
0
100
AcDbBlockEnd
  0
BLOCK
  5
527
330
520
100
AcDbEntity
  8
0
100
AcDbBlockBegin
  2
SYM0010
 70
     0
 10
0.0
 20
0.0
 30
0.0
  3
SYM0010
  1

  0
LINE
  5
521
330
520
100
AcDbEntity
  8
0
  6
CONTINUOUS
 62
     7
100
AcDbLine
 10
0.0
 20
0.0
 30
0.0
 11
56.34503892466003
 21
-37.71857977601212
 31
0.0
  0
LINE
  5
522
330
520
100
AcDbEntity
  8
0
  6
CONTINUOUS
 62
     7
100
AcDbLine
 10
0.0
 20
0.0
 30
0.0
 11
2.993581996970192
 21
-1.019051926182641
 31
0.0
  0
LINE
  5
523
330
520
100
AcDbEntity
  8
0
  6
CONTINUOUS
 62
     7
100
AcDbLine
 10
0.0
 20
0.0
 30
0.0
 11
2.082992094734038
 21
-2.379315854214411
 31
0.0
  0
LINE
  5
524
330
520
100
AcDbEntity
  8
0
  6
CONTINUOUS
 62
     7
100
AcDbLine
 10
56.34503892466
 20
-37.71857977601212
 30
0.0
 11
88.84613892466001
 21
-37.71857977601212
 31
0.0
  0
MTEXT
  5
525
330
520
100
AcDbEntity
  8
0
 62
     7
100
AcDbMText
 10
56.97103892466001
 20
-36.84357977601204
 30
0.0
 40
3.5
 41
0.0
 71
     7
 72
     1
  1
{\W0.833333;６－Ｍ１０{\H0.5x;\S　;}深サ２０}
  0
ENDBLK
  5
528
330
520
100
AcDbEntity
  8
0
100
AcDbBlockEnd
  0
BLOCK
  5
52B
330
52A
100
AcDbEntity
  8
0
100
AcDbBlockBegin
  2
*D55
 70
     1
 10
0.0
 20
0.0
 30
0.0
  3
*D55
  1

  0
MTEXT
  5
530
330
52A
100
AcDbEntity
  8
0
 62
     0
100
AcDbMText
 10
-530.63975
 20
363.001
 30
0.0
 40
3.5
 41
0.0
 71
     5
 72
     1
  1
\U+220593
 11
0.0
 21
1.0
 31
0.0
  0
POINT
  5
531
330
52A
100
AcDbEntity
  8
DEFPOINTS
 62
     0
100
AcDbPoint
 10
-552.0
 20
409.5
 30
0.0
  0
POINT
  5
532
330
52A
100
AcDbEntity
  8
DEFPOINTS
 62
     0
100
AcDbPoint
 10
-552.0
 20
316.5
 30
0.0
  0
POINT
  5
533
330
52A
100
AcDbEntity
  8
DEFPOINTS
 62
     0
100
AcDbPoint
 10
-528.0
 20
316.5
 30
0.0
  0
LINE
  5
534
330
52A
100
AcDbEntity
  8
0
  6
CONTINUOUS
 62
     7
100
AcDbLine
 10
-549.46
 20
316.5
 30
0.0
 11
-526.73
 21
316.5
 31
0.0
  0
LINE
  5
535
330
52A
100
AcDbEntity
  8
0
  6
CONTINUOUS
 62
     7
100
AcDbLine
 10
-528.0
 20
385.0
 30
0.0
 11
-528.0
 21
316.5
 31
0.0
  0
LINE
  5
536
330
52A
100
AcDbEntity
  8
0
  6
CONTINUOUS
 62
     7
100
AcDbLine
 10
-528.0
 20
316.5
 30
0.0
 11
-528.8184576843
 21
319.5545256620056
 31
0.0
  0
LINE
  5
537
330
52A
100
AcDbEntity
  8
0
  6
CONTINUOUS
 62
     7
100
AcDbLine
 10
-528.0
 20
316.5
 30
0.0
 11
-527.1815423157
 21
319.5545256620056
 31
0.0
  0
ENDBLK
  5
52C
330
52A
100
AcDbEntity
  8
0
100
AcDbBlockEnd
  0
BLOCK
  5
53F
330
538
100
AcDbEntity
  8
0
100
AcDbBlockBegin
  2
SYM0011
 70
     0
 10
0.0
 20
0.0
 30
0.0
  3
SYM0011
  1

  0
LINE
  5
539
330
538
100
AcDbEntity
  8
0
  6
CONTINUOUS
 62
     7
100
AcDbLine
 10
0.0
 20
0.0
 30
0.0
 11
-78.68646275348738
 21
110.7703053830361
 31
0.0
  0
LINE
  5
53A
330
538
100
AcDbEntity
  8
0
  6
CONTINUOUS
 62
     7
100
AcDbLine
 10
0.0
 20
0.0
 30
0.0
 11
-2.436166876024572
 21
2.016207070963048
 31
0.0
  0
LINE
  5
53B
330
538
100
AcDbEntity
  8
0
  6
CONTINUOUS
 62
     7
100
AcDbLine
 10
0.0
 20
0.0
 30
0.0
 11
-1.101678867185228
 21
2.964169980692475
 31
0.0
  0
LINE
  5
53C
330
538
100
AcDbEntity
  8
0
  6
CONTINUOUS
 62
     7
100
AcDbLine
 10
-78.68646275348738
 20
110.770305383036
 30
0.0
 11
-125.9406348571879
 21
110.770305383036
 31
0.0
  0
MTEXT
  5
53D
330
538
100
AcDbEntity
  8
0
 62
     7
100
AcDbMText
 10
-83.44063485718789
 20
111.6453053830361
 30
0.0
 40
3.5
 41
0.0
 71
     9
 72
     1
  1
{\W0.833333;（ＭＡＸ　Ｍ１００×２）}
  0
ENDBLK
  5
540
330
538
100
AcDbEntity
  8
0
100
AcDbBlockEnd
  0
BLOCK
  5
5EA
330
5E3
100
AcDbEntity
  8
0
100
AcDbBlockBegin
  2
$X0
 70
     0
 10
0.0
 20
0.0
 30
0.0
  3
$X0
  1

  0
LINE
  5
5E4
330
5E3
100
AcDbEntity
  8
0
  6
CONTINUOUS
 62
     7
100
AcDbLine
 10
0.365630465840361
 20
-1.454755774159139
 30
0.0
 11
1.454756505417159
 21
-0.365627556328079
 31
0.0
  0
LINE
  5
5E5
330
5E3
100
AcDbEntity
  8
0
  6
CONTINUOUS
 62
     7
100
AcDbLine
 10
-0.426055913304552
 20
-1.438219857580279
 30
0.0
 11
1.438219005465569
 21
0.426058789743408
 31
0.0
  0
LINE
  5
5E6
330
5E3
100
AcDbEntity
  8
0
  6
CONTINUOUS
 62
     7
100
AcDbLine
 10
-0.953776570791987
 20
-1.157717691411968
 30
0.0
 11
1.157715783856517
 21
0.953778886225464
 31
0.0
  0
LINE
  5
5E7
330
5E3
100
AcDbEntity
  8
0
  6
CONTINUOUS
 62
     7
100
AcDbLine
 10
-1.318856710684997
 20
-0.714574682367882
 30
0.0
 11
0.714572044653025
 21
1.318858139831718
 31
0.0
  0
LINE
  5
5E8
330
5E3
100
AcDbEntity
  8
0
  6
CONTINUOUS
 62
     7
100
AcDbLine
 10
-1.497585206915446
 20
-0.085079656957561
 30
0.0
 11
0.085076661786978
 21
1.497585377071772
 31
0.0
  0
ENDBLK
  5
5EB
330
5E3
100
AcDbEntity
  8
0
100
AcDbBlockEnd
  0
ENDSEC
  0
SECTION
  2
ENTITIES
  0
LINE
  5
72
330
1F
100
AcDbEntity
  8
0
  6
CONTINUOUS
 62
     7
100
AcDbLine
 10
-462.0
 20
66.0
 30
0.0
 11
-382.0
 21
66.0
 31
0.0
  0
LINE
  5
73
330
1F
100
AcDbEntity
  8
0
  6
CONTINUOUS
 62
     7
100
AcDbLine
 10
-462.0
 20
114.0
 30
0.0
 11
-462.0
 21
66.0
 31
0.0
  0
LINE
  5
74
330
1F
100
AcDbEntity
  8
0
  6
CONTINUOUS
 62
     7
100
AcDbLine
 10
-442.0
 20
114.0
 30
0.0
 11
-442.0
 21
66.0
 31
0.0
  0
LINE
  5
75
330
1F
100
AcDbEntity
  8
0
  6
CONTINUOUS
 62
     7
100
AcDbLine
 10
-422.0
 20
114.0
 30
0.0
 11
-422.0
 21
66.0
 31
0.0
  0
LINE
  5
76
330
1F
100
AcDbEntity
  8
0
  6
CONTINUOUS
 62
     7
100
AcDbLine
 10
-402.0
 20
114.0
 30
0.0
 11
-402.0
 21
66.0
 31
0.0
  0
LINE
  5
77
330
1F
100
AcDbEntity
  8
0
  6
CONTINUOUS
 62
     7
100
AcDbLine
 10
-462.0
 20
78.0
 30
0.0
 11
-382.0
 21
78.0
 31
0.0
  0
LINE
  5
78
330
1F
100
AcDbEntity
  8
0
  6
CONTINUOUS
 62
     7
100
AcDbLine
 10
-382.0
 20
114.0
 30
0.0
 11
-382.0
 21
66.0
 31
0.0
  0
LINE
  5
79
330
1F
100
AcDbEntity
  8
0
  6
CONTINUOUS
 62
     7
100
AcDbLine
 10
-462.0
 20
90.0
 30
0.0
 11
-382.0
 21
90.0
 31
0.0
  0
LINE
  5
7A
330
1F
100
AcDbEntity
  8
0
  6
CONTINUOUS
 62
     7
100
AcDbLine
 10
-462.0
 20
102.0
 30
0.0
 11
-382.0
 21
102.0
 31
0.0
  0
LINE
  5
7B
330
1F
100
AcDbEntity
  8
0
  6
DASHED
 62
     7
100
AcDbLine
 10
-396.0
 20
80.81999969482422
 30
0.0
 11
-396.0
 21
66.0
 31
0.0
  0
LINE
  5
7C
330
1F
100
AcDbEntity
  8
0
  6
CONTINUOUS
 62
     7
100
AcDbLine
 10
-462.0
 20
114.0
 30
0.0
 11
-382.0
 21
114.0
 31
0.0
  0
LINE
  5
7D
330
1F
100
AcDbEntity
  8
0
  6
CONTINUOUS
 62
     7
100
AcDbLine
 10
-551.8000183105469
 20
514.8000030517578
 30
0.0
 11
-549.0
 21
514.8000030517578
 31
0.0
  0
LINE
  5
7E
330
1F
100
AcDbEntity
  8
0
  6
DASHED
 62
     7
100
AcDbLine
 10
-592.0
 20
514.8000030517578
 30
0.0
 11
-592.0
 21
510.1990509033203
 31
0.0
  0
LINE
  5
7F
330
1F
100
AcDbEntity
  8
0
  6
DASHED
 62
     7
100
AcDbLine
 10
-587.618814770826
 20
505.8045026902454
 30
0.0
 11
-585.8000034238629
 21
507.7384870810991
 31
0.0
  0
LINE
  5
80
330
1F
100
AcDbEntity
  8
0
  6
DASHED
 62
     7
100
AcDbLine
 10
-586.2999850048519
 20
509.6045259494642
 30
0.0
 11
-585.7999843291851
 21
507.7384980396972
 31
0.0
  0
LINE
  5
81
330
1F
100
AcDbEntity
  8
0
  6
DASHED
 62
     7
100
AcDbLine
 10
-578.3812156032407
 20
505.8045230939119
 30
0.0
 11
-580.2000060431247
 21
507.7384852537823
 31
0.0
  0
LINE
  5
82
330
1F
100
AcDbEntity
  8
0
  6
DASHED
 62
     7
100
AcDbLine
 10
-579.6999846976711
 20
509.6045000472076
 30
0.0
 11
-580.1999843860215
 21
507.7384758221551
 31
0.0
  0
LINE
  5
83
330
1F
100
AcDbEntity
  8
0
  6
DASHED
 62
     7
100
AcDbLine
 10
-585.7999877929688
 20
507.7384796142578
 30
0.0
 11
-580.2000122070312
 21
507.7384796142578
 31
0.0
  0
LINE
  5
84
330
1F
100
AcDbEntity
  8
0
  6
DASHED
 62
     7
100
AcDbLine
 10
-586.2999877929688
 20
509.6045074462891
 30
0.0
 11
-579.7000122070312
 21
509.6045074462891
 31
0.0
  0
LINE
  5
85
330
1F
100
AcDbEntity
  8
0
  6
DASHED
 62
     7
100
AcDbLine
 10
-579.7000142872513
 20
509.6045102178588
 30
0.0
 11
-580.6000107593327
 21
512.3044997189215
 31
0.0
  0
LINE
  5
86
330
1F
100
AcDbEntity
  8
0
  6
DASHED
 62
     7
100
AcDbLine
 10
-586.2999917678495
 20
509.6045019621529
 30
0.0
 11
-585.3999922799852
 21
512.3045005105647
 31
0.0
  0
LINE
  5
87
330
1F
100
AcDbEntity
  8
0
  6
DASHED
 62
     7
100
AcDbLine
 10
-587.6188049316406
 20
505.8045043945312
 30
0.0
 11
-578.3811950683594
 21
505.8045043945312
 31
0.0
  0
LINE
  5
88
330
1F
100
AcDbEntity
  8
0
  6
DASHED
 62
     7
100
AcDbLine
 10
-585.3999938964844
 20
512.3045043945312
 30
0.0
 11
-580.6000061035156
 21
512.3045043945312
 31
0.0
  0
LINE
  5
89
330
1F
100
AcDbEntity
  8
0
  6
DASHED
 62
     7
100
AcDbLine
 10
-578.3811950683594
 20
505.8045043945312
 30
0.0
 11
-578.3811950683594
 21
503.8045043945312
 31
0.0
  0
LINE
  5
8A
330
1F
100
AcDbEntity
  8
0
  6
DASHED
 62
     7
100
AcDbLine
 10
-580.6906127929688
 20
505.8045043945312
 30
0.0
 11
-580.6906127929688
 21
503.8045043945312
 31
0.0
  0
LINE
  5
8B
330
1F
100
AcDbEntity
  8
0
  6
DASHED
 62
     7
100
AcDbLine
 10
-587.6188049316406
 20
505.8045043945312
 30
0.0
 11
-587.6188049316406
 21
503.8045043945312
 31
0.0
  0
LINE
  5
8C
330
1F
100
AcDbEntity
  8
0
  6
DASHED
 62
     7
100
AcDbLine
 10
-585.3093872070312
 20
505.8045043945312
 30
0.0
 11
-585.3093872070312
 21
503.8045043945312
 31
0.0
  0
LINE
  5
8D
330
1F
100
AcDbEntity
  8
0
  6
DASHED
 62
     7
100
AcDbLine
 10
-586.0
 20
496.8045043945312
 30
0.0
 11
-580.0
 21
496.8045043945312
 31
0.0
  0
LINE
  5
8E
330
1F
100
AcDbEntity
  8
0
  6
DASHED
 62
     7
100
AcDbLine
 10
-590.75
 20
503.8045043945312
 30
0.0
 11
-575.25
 21
503.8045043945312
 31
0.0
  0
LINE
  5
8F
330
1F
100
AcDbEntity
  8
0
  6
DASHED
 62
     7
100
AcDbLine
 10
-585.5
 20
503.8045043945312
 30
0.0
 11
-585.5
 21
484.8045043945312
 31
0.0
  0
LINE
  5
90
330
1F
100
AcDbEntity
  8
0
  6
DASHED
 62
     7
100
AcDbLine
 10
-580.5
 20
503.8045043945312
 30
0.0
 11
-580.5
 21
484.8045043945312
 31
0.0
  0
LINE
  5
91
330
1F
100
AcDbEntity
  8
0
  6
DASHED
 62
     7
100
AcDbLine
 10
-586.0
 20
503.8045043945312
 30
0.0
 11
-586.0
 21
496.8045043945312
 31
0.0
  0
LINE
  5
92
330
1F
100
AcDbEntity
  8
0
  6
DASHED
 62
     7
100
AcDbLine
 10
-580.0
 20
503.8045043945312
 30
0.0
 11
-580.0
 21
496.8045043945312
 31
0.0
  0
LINE
  5
93
330
1F
100
AcDbEntity
  8
0
  6
DASHED
 62
     7
100
AcDbLine
 10
-590.75
 20
514.8045043945312
 30
0.0
 11
-590.75
 21
503.8045043945312
 31
0.0
  0
LINE
  5
94
330
1F
100
AcDbEntity
  8
0
  6
CENTER
 62
     7
100
AcDbLine
 10
-583.0
 20
518.0845794677734
 30
0.0
 11
-583.0
 21
480.0994033813477
 31
0.0
  0
LINE
  5
95
330
1F
100
AcDbEntity
  8
0
  6
DASHED
 62
     7
100
AcDbLine
 10
-575.25
 20
514.8045043945312
 30
0.0
 11
-575.25
 21
503.8045043945312
 31
0.0
  0
LINE
  5
96
330
1F
100
AcDbEntity
  8
0
  6
CONTINUOUS
 62
     7
100
AcDbLine
 10
-677.0
 20
285.3000030517578
 30
0.0
 11
-677.0
 21
269.3000030517578
 31
0.0
  0
LINE
  5
97
330
1F
100
AcDbEntity
  8
0
  6
CENTER
 62
     7
100
AcDbLine
 10
-274.3931754552831
 20
380.5220487006105
 30
0.0
 11
-309.166505182166
 21
389.8395343971642
 31
0.0
  0
LINE
  5
98
330
1F
100
AcDbEntity
  8
0
  6
CENTER
 62
     7
100
AcDbLine
 10
-256.8711269284106
 20
410.8711269284107
 30
0.0
 11
-282.3269710511263
 21
436.3269710511264
 31
0.0
  0
LINE
  5
99
330
1F
100
AcDbEntity
  8
0
  6
CENTER
 62
     7
100
AcDbLine
 10
-161.1288730715894
 20
410.8711269284107
 30
0.0
 11
-135.6730289488737
 21
436.3269710511264
 31
0.0
  0
LINE
  5
9A
330
1F
100
AcDbEntity
  8
0
  6
CENTER
 62
     7
100
AcDbLine
 10
-143.606824544717
 20
380.5220487006105
 30
0.0
 11
-108.8334948178341
 21
389.8395343971642
 31
0.0
  0
LINE
  5
9B
330
1F
100
AcDbEntity
  8
0
  6
CENTER
 62
     7
100
AcDbLine
 10
-191.4779512993895
 20
297.606824544717
 30
0.0
 11
-182.1604656028358
 21
262.8334948178341
 31
0.0
  0
LINE
  5
9C
330
1F
100
AcDbEntity
  8
0
  6
PHANTOM
 62
     7
100
AcDbLine
 10
-549.0
 20
516.6082305908203
 30
0.0
 11
-549.0
 21
514.8000030517578
 31
0.0
  0
LINE
  5
9D
330
1F
100
AcDbEntity
  8
0
  6
PHANTOM
 62
     7
100
AcDbLine
 10
-592.0
 20
516.6082305908203
 30
0.0
 11
-549.0
 21
516.6082305908203
 31
0.0
  0
LINE
  5
9E
330
1F
100
AcDbEntity
  8
0
  6
CONTINUOUS
 62
     7
100
AcDbLine
 10
-332.1815693771809
 20
279.7567307770404
 30
0.0
 11
-324.4315692728568
 21
266.3333370786132
 31
0.0
  0
LINE
  5
9F
330
1F
100
AcDbEntity
  8
0
  6
CONTINUOUS
 62
     7
100
AcDbLine
 10
-332.3310884203742
 20
278.515705372094
 30
0.0
 11
-325.5810883295113
 21
266.8243624734638
 31
0.0
  0
LINE
  5
A0
330
1F
100
AcDbEntity
  8
0
  6
CONTINUOUS
 62
     7
100
AcDbLine
 10
-330.8825312773332
 20
280.5067307871363
 30
0.0
 11
-323.1325311730091
 21
267.0833370887091
 31
0.0
  0
LINE
  5
A1
330
1F
100
AcDbEntity
  8
0
  6
CONTINUOUS
 62
     7
100
AcDbLine
 10
-331.0320503205264
 20
279.2657053821898
 30
0.0
 11
-324.2820502296635
 21
267.5743624835596
 31
0.0
  0
LINE
  5
A2
330
1F
100
AcDbEntity
  8
0
  6
CONTINUOUS
 62
     7
100
AcDbLine
 10
-258.1363976858564
 20
322.5067313525055
 30
0.0
 11
-250.3863975815323
 21
309.0833376540783
 31
0.0
  0
LINE
  5
A3
330
1F
100
AcDbEntity
  8
0
  6
CONTINUOUS
 62
     7
100
AcDbLine
 10
-258.2859167290497
 20
321.2657059475591
 30
0.0
 11
-251.5359166381868
 21
309.5743630489289
 31
0.0
  0
LINE
  5
A4
330
1F
100
AcDbEntity
  8
0
  6
CONTINUOUS
 62
     7
100
AcDbLine
 10
-259.4354357857043
 20
321.7567313424098
 30
0.0
 11
-251.6854356813801
 21
308.3333376439825
 31
0.0
  0
LINE
  5
A5
330
1F
100
AcDbEntity
  8
0
  6
CONTINUOUS
 62
     7
100
AcDbLine
 10
-256.986878629202
 20
322.015705957655
 30
0.0
 11
-250.236878538339
 21
310.3243630590248
 31
0.0
  0
LINE
  5
A6
330
1F
100
AcDbEntity
  8
0
  6
CONTINUOUS
 62
     7
100
AcDbLine
 10
-342.6815695185232
 20
297.9432641749096
 30
0.0
 11
-350.4315696228474
 21
311.3666578733369
 31
0.0
  0
LINE
  5
A7
330
1F
100
AcDbEntity
  8
0
  6
CONTINUOUS
 62
     7
100
AcDbLine
 10
-342.5320504753299
 20
299.1842895798561
 30
0.0
 11
-349.2820505661929
 21
310.8756324784863
 31
0.0
  0
LINE
  5
A8
330
1F
100
AcDbEntity
  8
0
  6
CONTINUOUS
 62
     7
100
AcDbLine
 10
-341.3825314186755
 20
298.6932641850055
 30
0.0
 11
-349.1325315229996
 21
312.1166578834328
 31
0.0
  0
LINE
  5
A9
330
1F
100
AcDbEntity
  8
0
  6
CONTINUOUS
 62
     7
100
AcDbLine
 10
-343.8310885751777
 20
298.4342895697602
 30
0.0
 11
-350.5810886660406
 21
310.1256324683904
 31
0.0
  0
LINE
  5
AA
330
1F
100
AcDbEntity
  8
0
  6
CONTINUOUS
 62
     7
100
AcDbLine
 10
-268.6363978271988
 20
340.6932647503747
 30
0.0
 11
-276.3863979315229
 21
354.116658448802
 31
0.0
  0
LINE
  5
AB
330
1F
100
AcDbEntity
  8
0
  6
CONTINUOUS
 62
     7
100
AcDbLine
 10
-269.9354359270466
 20
339.9432647402789
 30
0.0
 11
-277.6854360313707
 21
353.3666584387062
 31
0.0
  0
LINE
  5
AC
330
1F
100
AcDbEntity
  8
0
  6
CONTINUOUS
 62
     7
100
AcDbLine
 10
-269.7859168838532
 20
341.1842901452254
 30
0.0
 11
-276.5359169747161
 21
352.8756330438555
 31
0.0
  0
LINE
  5
AD
330
1F
100
AcDbEntity
  8
0
  6
CONTINUOUS
 62
     7
100
AcDbLine
 10
-268.4868787840055
 20
341.9342901553213
 30
0.0
 11
-275.2368788748684
 21
353.6256330539514
 31
0.0
  0
LINE
  5
AE
330
1F
100
AcDbEntity
  8
0
  6
CONTINUOUS
 62
     7
100
AcDbLine
 10
-66.26939227730483
 20
310.616657863241
 30
0.0
 11
-66.76939228403542
 21
309.7506324633424
 31
0.0
  0
LINE
  5
AF
330
1F
100
AcDbEntity
  8
0
  6
CONTINUOUS
 62
     7
100
AcDbLine
 10
-64.07366399498937
 20
317.1703446207477
 30
0.0
 11
-65.51015285925556
 21
309.0236116761414
 31
0.0
  0
LINE
  5
B0
330
1F
100
AcDbEntity
  8
0
  6
CONTINUOUS
 62
     7
100
AcDbLine
 10
-142.9126401683249
 20
354.866658458898
 30
0.0
 11
-143.4126401750554
 21
354.0006330589994
 31
0.0
  0
LINE
  5
B1
330
1F
100
AcDbEntity
  8
0
  6
CONTINUOUS
 62
     7
100
AcDbLine
 10
-168.9126405183154
 20
309.8333376641742
 30
0.0
 11
-168.4126405115848
 21
310.6993630640728
 31
0.0
  0
LINE
  5
B2
330
1F
100
AcDbEntity
  8
0
  6
CENTER
 62
     7
100
AcDbLine
 10
-104.5073697752225
 20
281.8865387420917
 30
0.0
 11
-86.50736953292133
 21
313.0634531384389
 31
0.0
  0
LINE
  5
B3
330
1F
100
AcDbEntity
  8
0
  6
CONTINUOUS
 62
     7
100
AcDbLine
 10
-96.84718433906906
 20
260.4049410578486
 30
0.0
 11
-90.51015117938059
 21
265.7223434933337
 31
0.0
  0
LINE
  5
B4
330
1F
100
AcDbEntity
  8
0
  6
CENTER
 62
     7
100
AcDbLine
 10
-130.488130818504
 20
296.8865405958217
 30
0.0
 11
-112.4881305762029
 21
328.0634549921689
 31
0.0
  0
LINE
  5
B5
330
1F
100
AcDbEntity
  8
0
  6
CONTINUOUS
 62
     7
100
AcDbLine
 10
-64.82083513426365
 20
308.6256324481986
 30
0.0
 11
-160.9496545230008
 21
364.1256331952937
 31
0.0
  0
LINE
  5
B6
330
1F
100
AcDbEntity
  8
0
  6
CONTINUOUS
 62
     7
100
AcDbLine
 10
-89.82083547079297
 20
265.324362453272
 30
0.0
 11
-185.9496548595301
 21
320.8243632003671
 31
0.0
  0
LINE
  5
B7
330
1F
100
AcDbEntity
  8
0
  6
CONTINUOUS
 62
     7
100
AcDbLine
 10
-64.82083513426375
 20
308.6256324481987
 30
0.0
 11
-89.82083547079309
 21
265.324362453272
 31
0.0
  0
LINE
  5
B8
330
1F
100
AcDbEntity
  8
0
  6
CONTINUOUS
 62
     7
100
AcDbLine
 10
-160.9496545230008
 20
364.1256331952938
 30
0.0
 11
-185.9496548595301
 21
320.8243632003672
 31
0.0
  0
LINE
  5
B9
330
1F
100
AcDbEntity
  8
0
  6
CONTINUOUS
 62
     7
100
AcDbLine
 10
-92.26939262729535
 20
265.5833370685173
 30
0.0
 11
-91.76939262056476
 21
266.4493624684158
 31
0.0
  0
LINE
  5
BA
330
1F
100
AcDbEntity
  8
0
  6
CONTINUOUS
 62
     7
100
AcDbLine
 10
-65.32536169040061
 20
310.0716215399862
 30
0.0
 11
-148.3686028305854
 21
358.0166600271795
 31
0.0
  0
LINE
  5
BB
330
1F
100
AcDbEntity
  8
0
  6
CONTINUOUS
 62
     7
100
AcDbLine
 10
-91.3253620403911
 20
265.0383007452625
 30
0.0
 11
-174.3686031805759
 21
312.9833392324559
 31
0.0
  0
LINE
  5
BC
330
1F
100
AcDbEntity
  8
0
  6
CONTINUOUS
 62
     7
100
AcDbLine
 10
-183.0
 20
512.8000030517578
 30
0.0
 11
-184.0
 21
512.8000030517578
 31
0.0
  0
LINE
  5
BD
330
1F
100
AcDbEntity
  8
0
  6
CONTINUOUS
 62
     7
100
AcDbLine
 10
-176.2264753610704
 20
511.4247158082499
 30
0.0
 11
-183.9999974345385
 21
514.2540465597172
 31
0.0
  0
LINE
  5
BE
330
1F
100
AcDbEntity
  8
0
  6
CONTINUOUS
 62
     7
100
AcDbLine
 10
-235.0
 20
512.8000030517578
 30
0.0
 11
-234.0
 21
512.8000030517578
 31
0.0
  0
LINE
  5
BF
330
1F
100
AcDbEntity
  8
0
  6
CONTINUOUS
 62
     7
100
AcDbLine
 10
-241.7735246389296
 20
511.4247158082499
 30
0.0
 11
-234.0000025654615
 21
514.2540465597172
 31
0.0
  0
LINE
  5
C0
330
1F
100
AcDbEntity
  8
0
  6
CONTINUOUS
 62
     7
100
AcDbLine
 10
-183.0
 20
424.3000030517578
 30
0.0
 11
-184.0
 21
424.3000030517578
 31
0.0
  0
LINE
  5
C1
330
1F
100
AcDbEntity
  8
0
  6
CONTINUOUS
 62
     7
100
AcDbLine
 10
-235.0
 20
424.3000030517578
 30
0.0
 11
-234.0
 21
424.3000030517578
 31
0.0
  0
LINE
  5
C2
330
1F
100
AcDbEntity
  8
0
  6
CENTER
 62
     7
100
AcDbLine
 10
-190.9999980926514
 20
494.0500030517578
 30
0.0
 11
-226.9999980926514
 21
494.0500030517578
 31
0.0
  0
LINE
  5
C3
330
1F
100
AcDbEntity
  8
0
  6
CENTER
 62
     7
100
AcDbLine
 10
-191.0
 20
464.0500030517578
 30
0.0
 11
-227.0
 21
464.0500030517578
 31
0.0
  0
LINE
  5
C4
330
1F
100
AcDbEntity
  8
0
  6
CONTINUOUS
 62
     7
100
AcDbLine
 10
-548.6989939600176
 20
406.473203632569
 30
0.0
 11
-547.9999998262128
 21
406.8767680911266
 31
0.0
  0
LINE
  5
C5
330
1F
100
AcDbEntity
  8
0
  6
CONTINUOUS
 62
     7
100
AcDbLine
 10
-548.6990051269531
 20
406.473217010498
 30
0.0
 11
-548.6990051269531
 21
406.1267852783203
 31
0.0
  0
LINE
  5
C6
330
1F
100
AcDbEntity
  8
0
  6
CONTINUOUS
 62
     7
100
AcDbLine
 10
-588.9413757324219
 20
268.3000030517578
 30
0.0
 11
-567.0
 21
268.3000030517578
 31
0.0
  0
LINE
  5
C7
330
1F
100
AcDbEntity
  8
0
  6
CONTINUOUS
 62
     7
100
AcDbLine
 10
-588.4910888671875
 20
269.3000030517578
 30
0.0
 11
-567.0
 21
269.3000030517578
 31
0.0
  0
LINE
  5
C8
330
1F
100
AcDbEntity
  8
0
  6
CONTINUOUS
 62
     7
100
AcDbLine
 10
-550.0
 20
311.75
 30
0.0
 11
-554.5
 21
311.75
 31
0.0
  0
LINE
  5
C9
330
1F
100
AcDbEntity
  8
0
  6
CONTINUOUS
 62
     7
100
AcDbLine
 10
-550.0
 20
300.25
 30
0.0
 11
-554.5
 21
300.25
 31
0.0
  0
LINE
  5
CA
330
1F
100
AcDbEntity
  8
0
  6
CONTINUOUS
 62
     7
100
AcDbLine
 10
-554.0
 20
311.25
 30
0.0
 11
-554.5
 21
311.25
 31
0.0
  0
LINE
  5
CB
330
1F
100
AcDbEntity
  8
0
  6
CONTINUOUS
 62
     7
100
AcDbLine
 10
-550.2999877929688
 20
303.449104309082
 30
0.0
 11
-550.2999877929688
 21
308.550895690918
 31
0.0
  0
LINE
  5
CC
330
1F
100
AcDbEntity
  8
0
  6
CONTINUOUS
 62
     7
100
AcDbLine
 10
-554.0
 20
300.75
 30
0.0
 11
-554.5
 21
300.75
 31
0.0
  0
LINE
  5
CD
330
1F
100
AcDbEntity
  8
0
  6
CONTINUOUS
 62
     7
100
AcDbLine
 10
-554.5
 20
300.25
 30
0.0
 11
-554.5
 21
311.75
 31
0.0
  0
LINE
  5
CE
330
1F
100
AcDbEntity
  8
0
  6
CONTINUOUS
 62
     7
100
AcDbLine
 10
-566.5
 20
303.5
 30
0.0
 11
-556.5
 21
303.5
 31
0.0
  0
LINE
  5
CF
330
1F
100
AcDbEntity
  8
0
  6
CONTINUOUS
 62
     7
100
AcDbLine
 10
-566.5
 20
308.5
 30
0.0
 11
-556.5
 21
308.5
 31
0.0
  0
LINE
  5
D0
330
1F
100
AcDbEntity
  8
0
  6
CONTINUOUS
 62
     7
100
AcDbLine
 10
-566.5
 20
309.0
 30
0.0
 11
-566.5
 21
303.0
 31
0.0
  0
LINE
  5
D1
330
1F
100
AcDbEntity
  8
0
  6
CONTINUOUS
 62
     7
100
AcDbLine
 10
-566.5
 20
309.0
 30
0.0
 11
-554.5
 21
309.0
 31
0.0
  0
LINE
  5
D2
330
1F
100
AcDbEntity
  8
0
  6
CONTINUOUS
 62
     7
100
AcDbLine
 10
-566.5
 20
303.0
 30
0.0
 11
-554.5
 21
303.0
 31
0.0
  0
LINE
  5
D3
330
1F
100
AcDbEntity
  8
0
  6
CENTER
 62
     7
100
AcDbLine
 10
-569.5
 20
306.0
 30
0.0
 11
-547.5
 21
306.0
 31
0.0
  0
LINE
  5
D4
330
1F
100
AcDbEntity
  8
0
  6
CONTINUOUS
 62
     7
100
AcDbLine
 10
-631.0
 20
439.0
 30
0.0
 11
-625.32568359375
 21
439.0
 31
0.0
  0
LINE
  5
D5
330
1F
100
AcDbEntity
  8
0
  6
CONTINUOUS
 62
     7
100
AcDbLine
 10
-620.0
 20
306.75
 30
0.0
 11
-631.0
 21
306.75
 31
0.0
  0
LINE
  5
D6
330
1F
100
AcDbEntity
  8
0
  6
CONTINUOUS
 62
     7
100
AcDbLine
 10
-620.0
 20
289.25
 30
0.0
 11
-631.0
 21
289.25
 31
0.0
  0
LINE
  5
D7
330
1F
100
AcDbEntity
  8
0
  6
CONTINUOUS
 62
     7
100
AcDbLine
 10
-616.0
 20
303.5
 30
0.0
 11
-620.0
 21
303.5
 31
0.0
  0
LINE
  5
D8
330
1F
100
AcDbEntity
  8
0
  6
CONTINUOUS
 62
     7
100
AcDbLine
 10
-616.0
 20
292.5
 30
0.0
 11
-620.0
 21
292.5
 31
0.0
  0
LINE
  5
D9
330
1F
100
AcDbEntity
  8
0
  6
CONTINUOUS
 62
     7
100
AcDbLine
 10
-617.0
 20
303.0
 30
0.0
 11
-617.0
 21
293.0
 31
0.0
  0
LINE
  5
DA
330
1F
100
AcDbEntity
  8
0
  6
CONTINUOUS
 62
     7
100
AcDbLine
 10
-600.0
 20
303.0
 30
0.0
 11
-600.0
 21
293.0
 31
0.0
  0
LINE
  5
DB
330
1F
100
AcDbEntity
  8
0
  6
CONTINUOUS
 62
     7
100
AcDbLine
 10
-630.0
 20
306.0
 30
0.0
 11
-630.0
 21
290.0
 31
0.0
  0
LINE
  5
DC
330
1F
100
AcDbEntity
  8
0
  6
CONTINUOUS
 62
     7
100
AcDbLine
 10
-620.0
 20
306.0
 30
0.0
 11
-630.0
 21
306.0
 31
0.0
  0
LINE
  5
DD
330
1F
100
AcDbEntity
  8
0
  6
CONTINUOUS
 62
     7
100
AcDbLine
 10
-620.0
 20
290.0
 30
0.0
 11
-630.0
 21
290.0
 31
0.0
  0
LINE
  5
DE
330
1F
100
AcDbEntity
  8
0
  6
CONTINUOUS
 62
     7
100
AcDbLine
 10
-600.0
 20
303.0
 30
0.0
 11
-620.0
 21
303.0
 31
0.0
  0
LINE
  5
DF
330
1F
100
AcDbEntity
  8
0
  6
CONTINUOUS
 62
     7
100
AcDbLine
 10
-600.0
 20
293.0
 30
0.0
 11
-620.0
 21
293.0
 31
0.0
  0
LINE
  5
E0
330
1F
100
AcDbEntity
  8
0
  6
CONTINUOUS
 62
     7
100
AcDbLine
 10
-600.0
 20
302.25
 30
0.0
 11
-617.0
 21
302.25
 31
0.0
  0
LINE
  5
E1
330
1F
100
AcDbEntity
  8
0
  6
CONTINUOUS
 62
     7
100
AcDbLine
 10
-600.0
 20
293.75
 30
0.0
 11
-617.0
 21
293.75
 31
0.0
  0
LINE
  5
E2
330
1F
100
AcDbEntity
  8
0
  6
CONTINUOUS
 62
     7
100
AcDbLine
 10
-620.0
 20
306.75
 30
0.0
 11
-620.0
 21
289.25
 31
0.0
  0
LINE
  5
E3
330
1F
100
AcDbEntity
  8
0
  6
CENTER
 62
     7
100
AcDbLine
 10
-595.0
 20
298.0
 30
0.0
 11
-635.0
 21
298.0
 31
0.0
  0
LINE
  5
E4
330
1F
100
AcDbEntity
  8
0
  6
CONTINUOUS
 62
     7
100
AcDbLine
 10
-660.0
 20
269.3000030517578
 30
0.0
 11
-660.0
 21
213.0
 31
0.0
  0
LINE
  5
E5
330
1F
100
AcDbEntity
  8
0
  6
CONTINUOUS
 62
     7
100
AcDbLine
 10
-543.6990051269531
 20
456.0500030517578
 30
0.0
 11
-543.6990051269531
 21
404.0500030517578
 31
0.0
  0
LINE
  5
E6
330
1F
100
AcDbEntity
  8
0
  6
CONTINUOUS
 62
     7
100
AcDbLine
 10
-543.6990051269531
 20
486.0500030517578
 30
0.0
 11
-543.6990051269531
 21
472.0500030517578
 31
0.0
  0
LINE
  5
E7
330
1F
100
AcDbEntity
  8
0
  6
CONTINUOUS
 62
     7
100
AcDbLine
 10
-543.6990051269531
 20
515.0500030517578
 30
0.0
 11
-543.6990051269531
 21
502.0500030517578
 31
0.0
  0
LINE
  5
E8
330
1F
100
AcDbEntity
  8
0
  6
CONTINUOUS
 62
     7
100
AcDbLine
 10
-633.0
 20
274.6395485518293
 30
0.0
 11
-633.0
 21
269.3000030517578
 31
0.0
  0
LINE
  5
E9
330
1F
100
AcDbEntity
  8
0
  6
PHANTOM
 62
     7
100
AcDbLine
 10
-592.0
 20
516.6082305908203
 30
0.0
 11
-592.0
 21
515.0
 31
0.0
  0
LINE
  5
EA
330
1F
100
AcDbEntity
  8
0
  6
CONTINUOUS
 62
     7
100
AcDbLine
 10
-176.3686046663312
 20
315.2927411929217
 30
0.0
 11
-182.4441891597369
 21
304.7695203535387
 31
0.0
  0
LINE
  5
EB
330
1F
100
AcDbEntity
  8
0
  6
CONTINUOUS
 62
     7
100
AcDbLine
 10
-173.8686031738454
 20
313.8493646323544
 30
0.0
 11
-177.7316708527999
 21
307.1583352594201
 31
0.0
  0
LINE
  5
EC
330
1F
100
AcDbEntity
  8
0
  6
CONTINUOUS
 62
     7
100
AcDbLine
 10
-145.0055351583615
 20
363.8416640002154
 30
0.0
 11
-148.868602837316
 21
357.1506346272811
 31
0.0
  0
LINE
  5
ED
330
1F
100
AcDbEntity
  8
0
  6
CONTINUOUS
 62
     7
100
AcDbLine
 10
-145.2930198363963
 20
369.1172320272312
 30
0.0
 11
-151.3686043298019
 21
358.5940111878483
 31
0.0
  0
LINE
  5
EE
330
1F
100
AcDbEntity
  8
0
  6
CENTER
 62
     7
100
AcDbLine
 10
-555.0
 20
464.0500030517578
 30
0.0
 11
-493.6990051269531
 21
464.0500030517578
 31
0.0
  0
LINE
  5
EF
330
1F
100
AcDbEntity
  8
0
  6
CONTINUOUS
 62
     7
100
AcDbLine
 10
-614.5
 20
420.6536979675293
 30
0.0
 11
-614.5
 21
409.5
 31
0.0
  0
LINE
  5
F0
330
1F
100
AcDbEntity
  8
0
  6
CONTINUOUS
 62
     7
100
AcDbLine
 10
-606.7009619176388
 20
326.5
 30
0.0
 11
-606.7009619176388
 21
316.5
 31
0.0
  0
LINE
  5
F1
330
1F
100
AcDbEntity
  8
0
  6
CONTINUOUS
 62
     7
100
AcDbLine
 10
-606.7009619176389
 20
399.5
 30
0.0
 11
-606.7009619176389
 21
409.5
 31
0.0
  0
LINE
  5
F2
330
1F
100
AcDbEntity
  8
0
  6
CENTER
 62
     7
100
AcDbLine
 10
-665.0
 20
363.0
 30
0.0
 11
-545.0
 21
363.0
 31
0.0
  0
LINE
  5
F3
330
1F
100
AcDbEntity
  8
0
  6
DASHED
 62
     7
100
AcDbLine
 10
-233.9999995335787
 20
500.0500008627153
 30
0.0
 11
-233.7113184994193
 21
499.5499906533439
 31
0.0
  0
LINE
  5
F4
330
1F
100
AcDbEntity
  8
0
  6
DASHED
 62
     7
100
AcDbLine
 10
-233.9999973037987
 20
499.050005426646
 30
0.0
 11
-233.7113238990339
 21
499.5500024215183
 31
0.0
  0
LINE
  5
F5
330
1F
100
AcDbEntity
  8
0
  6
CENTER
 62
     7
100
AcDbLine
 10
-234.739933013916
 20
499.5500030517578
 30
0.0
 11
-233.1167659759521
 21
499.5500030517578
 31
0.0
  0
LINE
  5
F6
330
1F
100
AcDbEntity
  8
0
  6
CENTER
 62
     7
100
AcDbLine
 10
-549.5
 20
500.9093475341797
 30
0.0
 11
-549.5
 21
498.2909698486328
 31
0.0
  0
LINE
  5
F7
330
1F
100
AcDbEntity
  8
0
  6
CENTER
 62
     7
100
AcDbLine
 10
-550.6635131835938
 20
499.5500030517578
 30
0.0
 11
-548.2257080078125
 21
499.5500030517578
 31
0.0
  0
LINE
  5
F8
330
1F
100
AcDbEntity
  8
0
  6
CONTINUOUS
 62
     7
100
AcDbLine
 10
-236.0
 20
494.3500061035156
 30
0.0
 11
-241.0
 21
494.3500061035156
 31
0.0
  0
LINE
  5
F9
330
1F
100
AcDbEntity
  8
0
  6
CONTINUOUS
 62
     7
100
AcDbLine
 10
-236.0
 20
499.6499938964844
 30
0.0
 11
-241.0
 21
499.6499938964844
 31
0.0
  0
LINE
  5
FA
330
1F
100
AcDbEntity
  8
0
  6
CONTINUOUS
 62
     7
100
AcDbLine
 10
-236.0
 20
495.6499938964844
 30
0.0
 11
-241.0
 21
495.6499938964844
 31
0.0
  0
LINE
  5
FB
330
1F
100
AcDbEntity
  8
0
  6
CONTINUOUS
 62
     7
100
AcDbLine
 10
-236.0
 20
498.3500061035156
 30
0.0
 11
-241.0
 21
498.3500061035156
 31
0.0
  0
LINE
  5
FC
330
1F
100
AcDbEntity
  8
0
  6
CONTINUOUS
 62
     7
100
AcDbLine
 10
-241.0
 20
498.3500061035156
 30
0.0
 11
-241.0
 21
495.6499938964844
 31
0.0
  0
LINE
  5
FD
330
1F
100
AcDbEntity
  8
0
  6
CONTINUOUS
 62
     7
100
AcDbLine
 10
-351.7306077226952
 20
310.616657863241
 30
0.0
 11
-343.9806076183711
 21
297.1932641648137
 31
0.0
  0
LINE
  5
FE
330
1F
100
AcDbEntity
  8
0
  6
CONTINUOUS
 62
     7
100
AcDbLine
 10
-325.7306073727046
 20
265.5833370685173
 30
0.0
 11
-333.4806074770288
 21
279.0067307669445
 31
0.0
  0
LINE
  5
FF
330
1F
100
AcDbEntity
  8
0
  6
CONTINUOUS
 62
     7
100
AcDbLine
 10
-549.0
 20
512.8000030517578
 30
0.0
 11
-549.0
 21
514.8000030517578
 31
0.0
  0
LINE
  5
100
330
1F
100
AcDbEntity
  8
0
  6
CONTINUOUS
 62
     7
100
AcDbLine
 10
-549.0
 20
512.8000030517578
 30
0.0
 11
-548.6990051269531
 21
512.8000030517578
 31
0.0
  0
LINE
  5
101
330
1F
100
AcDbEntity
  8
0
  6
CONTINUOUS
 62
     7
100
AcDbLine
 10
-629.0
 20
449.0
 30
0.0
 11
-629.0
 21
449.0
 31
0.0
  0
LINE
  5
102
330
1F
100
AcDbEntity
  8
0
  6
CENTER
 62
     7
100
AcDbLine
 10
-52.0
 20
363.0
 30
0.0
 11
-366.0
 21
363.0
 31
0.0
  0
LINE
  5
103
330
1F
100
AcDbEntity
  8
0
  6
CENTER
 62
     7
100
AcDbLine
 10
-209.0
 20
520.0
 30
0.0
 11
-209.0
 21
206.0
 31
0.0
  0
LINE
  5
104
330
1F
100
AcDbEntity
  8
0
  6
CENTER
 62
     7
100
AcDbLine
 10
-226.5220487006106
 20
297.606824544717
 30
0.0
 11
-235.8395343971643
 21
262.8334948178341
 31
0.0
  0
LINE
  5
105
330
1F
100
AcDbEntity
  8
0
  6
CONTINUOUS
 62
     7
100
AcDbLine
 10
-567.0
 20
289.3000030517578
 30
0.0
 11
-551.0
 21
289.3000030517578
 31
0.0
  0
LINE
  5
106
330
1F
100
AcDbEntity
  8
0
  6
CONTINUOUS
 62
     7
100
AcDbLine
 10
-567.0
 20
265.3000030517578
 30
0.0
 11
-551.0
 21
265.3000030517578
 31
0.0
  0
LINE
  5
107
330
1F
100
AcDbEntity
  8
0
  6
CONTINUOUS
 62
     7
100
AcDbLine
 10
-551.0
 20
289.3000030517578
 30
0.0
 11
-551.0
 21
265.3000030517578
 31
0.0
  0
LINE
  5
108
330
1F
100
AcDbEntity
  8
0
  6
CONTINUOUS
 62
     7
100
AcDbLine
 10
-184.0
 20
415.1132469177246
 30
0.0
 11
-171.8488311767578
 21
415.1132469177246
 31
0.0
  0
LINE
  5
109
330
1F
100
AcDbEntity
  8
0
  6
CONTINUOUS
 62
     7
100
AcDbLine
 10
-184.0
 20
418.0
 30
0.0
 11
-176.2738647460938
 21
418.0
 31
0.0
  0
LINE
  5
10A
330
1F
100
AcDbEntity
  8
0
  6
CONTINUOUS
 62
     7
100
AcDbLine
 10
-321.1528375776379
 20
260.4049594481501
 30
0.0
 11
-328.7126607984794
 21
266.7484046208934
 31
0.0
  0
LINE
  5
10B
330
1F
100
AcDbEntity
  8
0
  6
CONTINUOUS
 62
     7
100
AcDbLine
 10
-234.0
 20
515.0500030517578
 30
0.0
 11
-234.0
 21
404.0500030517578
 31
0.0
  0
LINE
  5
10C
330
1F
100
AcDbEntity
  8
0
  6
CONTINUOUS
 62
     7
100
AcDbLine
 10
-184.0
 20
515.0500030517578
 30
0.0
 11
-184.0
 21
404.0500030517578
 31
0.0
  0
LINE
  5
10D
330
1F
100
AcDbEntity
  8
0
  6
CONTINUOUS
 62
     7
100
AcDbLine
 10
-234.0
 20
515.0500030517578
 30
0.0
 11
-184.0
 21
515.0500030517578
 31
0.0
  0
LINE
  5
10E
330
1F
100
AcDbEntity
  8
0
  6
CONTINUOUS
 62
     7
100
AcDbLine
 10
-234.0
 20
404.0500030517578
 30
0.0
 11
-184.0
 21
404.0500030517578
 31
0.0
  0
LINE
  5
10F
330
1F
100
AcDbEntity
  8
0
  6
CONTINUOUS
 62
     7
100
AcDbLine
 10
-235.0
 20
513.8900756835938
 30
0.0
 11
-235.0
 21
418.0
 31
0.0
  0
LINE
  5
110
330
1F
100
AcDbEntity
  8
0
  6
CONTINUOUS
 62
     7
100
AcDbLine
 10
-183.0
 20
513.8900756835938
 30
0.0
 11
-183.0
 21
418.0
 31
0.0
  0
LINE
  5
111
330
1F
100
AcDbEntity
  8
0
  6
PHANTOM
 62
     7
100
AcDbLine
 10
-548.6990051269531
 20
509.9732055664062
 30
0.0
 11
-548.6990051269531
 21
427.1267929077148
 31
0.0
  0
LINE
  5
112
330
1F
100
AcDbEntity
  8
0
  6
PHANTOM
 62
     7
100
AcDbLine
 10
-548.0
 20
510.3767700195312
 30
0.0
 11
-548.0
 21
426.723217010498
 31
0.0
  0
LINE
  5
113
330
1F
100
AcDbEntity
  8
0
  6
CONTINUOUS
 62
     7
100
AcDbLine
 10
-548.6990051269531
 20
511.4732055664062
 30
0.0
 11
-548.6990051269531
 21
511.1268005371094
 31
0.0
  0
LINE
  5
114
330
1F
100
AcDbEntity
  8
0
  6
CONTINUOUS
 62
     7
100
AcDbLine
 10
-548.6989907264656
 20
509.9731966386611
 30
0.0
 11
-547.9999965926608
 21
510.3767610972186
 31
0.0
  0
LINE
  5
115
330
1F
100
AcDbEntity
  8
0
  6
CONTINUOUS
 62
     7
100
AcDbLine
 10
-548.0
 20
510.7232208251953
 30
0.0
 11
-548.0
 21
510.3767852783203
 31
0.0
  0
LINE
  5
116
330
1F
100
AcDbEntity
  8
0
  6
CONTINUOUS
 62
     7
100
AcDbLine
 10
-548.6990129764627
 20
511.1267974719152
 30
0.0
 11
-548.0000188426578
 21
510.7232330133577
 31
0.0
  0
LINE
  5
117
330
1F
100
AcDbEntity
  8
0
  6
CONTINUOUS
 62
     7
100
AcDbLine
 10
-284.5501711626636
 20
307.2567354095215
 30
0.0
 11
-282.9945634810072
 21
313.0623422654479
 31
0.0
  0
LINE
  5
118
330
1F
100
AcDbEntity
  8
0
  6
DASHED
 62
     7
100
AcDbLine
 10
-295.0501689639543
 20
325.443265168724
 30
0.0
 11
-300.8557758198807
 21
326.9988728503804
 31
0.0
  0
LINE
  5
119
330
1F
100
AcDbEntity
  8
0
  6
DASHED
 62
     7
100
AcDbLine
 10
-339.4339737920666
 20
299.8182633742431
 30
0.0
 11
-341.5589738206717
 21
303.4988713238118
 31
0.0
  0
LINE
  5
11A
330
1F
100
AcDbEntity
  8
0
  6
CONTINUOUS
 62
     7
100
AcDbLine
 10
-328.9339736507243
 20
281.6317299763739
 30
0.0
 11
-339.4339737920666
 21
299.8182633742431
 31
0.0
  0
LINE
  5
11B
330
1F
100
AcDbEntity
  8
0
  6
CENTER
 62
     7
100
AcDbLine
 10
-315.9926312121048
 20
286.2166673933967
 30
0.0
 11
-328.9926313871
 21
308.7333277907586
 31
0.0
  0
LINE
  5
11C
330
1F
100
AcDbEntity
  8
0
  6
CONTINUOUS
 62
     7
100
AcDbLine
 10
-289.2445621080279
 20
323.8876574870677
 30
0.0
 11
-295.0501689639543
 21
325.443265168724
 31
0.0
  0
LINE
  5
11D
330
1F
100
AcDbEntity
  8
0
  6
DASHED
 62
     7
100
AcDbLine
 10
-286.10577884432
 20
301.4511285535951
 30
0.0
 11
-284.5501711626636
 21
307.2567354095215
 31
0.0
  0
LINE
  5
11E
330
1F
100
AcDbEntity
  8
0
  6
DASHED
 62
     7
100
AcDbLine
 10
-341.5589742975088
 20
303.4988721497181
 30
0.0
 11
-300.8557805022778
 21
326.9988724660556
 31
0.0
  0
LINE
  5
11F
330
1F
100
AcDbEntity
  8
0
  6
DASHED
 62
     7
100
AcDbLine
 10
-326.8089740989565
 20
277.9511228527114
 30
0.0
 11
-286.1057803037254
 21
301.4511231690489
 31
0.0
  0
LINE
  5
120
330
1F
100
AcDbEntity
  8
0
  6
CENTER
 62
     7
100
AcDbLine
 10
-290.0118701688232
 20
301.2166692471267
 30
0.0
 11
-303.0118703438184
 21
323.7333296444885
 31
0.0
  0
LINE
  5
121
330
1F
100
AcDbEntity
  8
0
  6
DASHED
 62
     7
100
AcDbLine
 10
-326.8089736221193
 20
277.9511220268051
 30
0.0
 11
-328.9339736507243
 21
281.6317299763739
 31
0.0
  0
LINE
  5
122
330
1F
100
AcDbEntity
  8
0
  6
CONTINUOUS
 62
     7
100
AcDbLine
 10
-282.9945639849608
 20
313.0623382994902
 30
0.0
 11
-289.2445640690931
 21
323.8876557982219
 31
0.0
  0
LINE
  5
123
330
1F
100
AcDbEntity
  8
0
  6
CONTINUOUS
 62
     7
100
AcDbLine
 10
-546.0
 20
502.0500030517578
 30
0.0
 11
-531.6990051269531
 21
502.0500030517578
 31
0.0
  0
LINE
  5
124
330
1F
100
AcDbEntity
  8
0
  6
CONTINUOUS
 62
     7
100
AcDbLine
 10
-546.0
 20
501.0500030517578
 30
0.0
 11
-535.6990051269531
 21
501.0500030517578
 31
0.0
  0
LINE
  5
125
330
1F
100
AcDbEntity
  8
0
  6
CONTINUOUS
 62
     7
100
AcDbLine
 10
-546.0
 20
486.0500030517578
 30
0.0
 11
-531.6990051269531
 21
486.0500030517578
 31
0.0
  0
LINE
  5
126
330
1F
100
AcDbEntity
  8
0
  6
CONTINUOUS
 62
     7
100
AcDbLine
 10
-546.0
 20
487.0500030517578
 30
0.0
 11
-535.6990051269531
 21
487.0500030517578
 31
0.0
  0
LINE
  5
127
330
1F
100
AcDbEntity
  8
0
  6
CONTINUOUS
 62
     7
100
AcDbLine
 10
-535.6990051269531
 20
502.0500030517578
 30
0.0
 11
-535.6990051269531
 21
486.0500030517578
 31
0.0
  0
LINE
  5
128
330
1F
100
AcDbEntity
  8
0
  6
CONTINUOUS
 62
     7
100
AcDbLine
 10
-531.6990051269531
 20
506.0500030517578
 30
0.0
 11
-515.6990051269531
 21
506.0500030517578
 31
0.0
  0
LINE
  5
129
330
1F
100
AcDbEntity
  8
0
  6
CONTINUOUS
 62
     7
100
AcDbLine
 10
-531.6990051269531
 20
482.0500030517578
 30
0.0
 11
-515.6990051269531
 21
482.0500030517578
 31
0.0
  0
LINE
  5
12A
330
1F
100
AcDbEntity
  8
0
  6
CONTINUOUS
 62
     7
100
AcDbLine
 10
-515.6990051269531
 20
506.0500030517578
 30
0.0
 11
-515.6990051269531
 21
482.0500030517578
 31
0.0
  0
LINE
  5
12B
330
1F
100
AcDbEntity
  8
0
  6
CONTINUOUS
 62
     7
100
AcDbLine
 10
-531.6990051269531
 20
481.0500030517578
 30
0.0
 11
-498.6990051269531
 21
481.0500030517578
 31
0.0
  0
LINE
  5
12C
330
1F
100
AcDbEntity
  8
0
  6
CONTINUOUS
 62
     7
100
AcDbLine
 10
-531.6990051269531
 20
507.0500030517578
 30
0.0
 11
-498.6990051269531
 21
507.0500030517578
 31
0.0
  0
LINE
  5
12D
330
1F
100
AcDbEntity
  8
0
  6
CONTINUOUS
 62
     7
100
AcDbLine
 10
-531.6990051269531
 20
507.0500030517578
 30
0.0
 11
-531.6990051269531
 21
481.0500030517578
 31
0.0
  0
LINE
  5
12E
330
1F
100
AcDbEntity
  8
0
  6
CONTINUOUS
 62
     7
100
AcDbLine
 10
-543.6990051269531
 20
502.8000030517578
 30
0.0
 11
-531.6990051269531
 21
502.8000030517578
 31
0.0
  0
LINE
  5
12F
330
1F
100
AcDbEntity
  8
0
  6
CONTINUOUS
 62
     7
100
AcDbLine
 10
-543.6990051269531
 20
485.3000030517578
 30
0.0
 11
-531.6990051269531
 21
485.3000030517578
 31
0.0
  0
LINE
  5
130
330
1F
100
AcDbEntity
  8
0
  6
CONTINUOUS
 62
     7
100
AcDbLine
 10
-546.0
 20
457.0500030517578
 30
0.0
 11
-535.6990051269531
 21
457.0500030517578
 31
0.0
  0
LINE
  5
131
330
1F
100
AcDbEntity
  8
0
  6
CONTINUOUS
 62
     7
100
AcDbLine
 10
-546.0
 20
456.0500030517578
 30
0.0
 11
-531.6990051269531
 21
456.0500030517578
 31
0.0
  0
LINE
  5
132
330
1F
100
AcDbEntity
  8
0
  6
CONTINUOUS
 62
     7
100
AcDbLine
 10
-546.0
 20
471.0500030517578
 30
0.0
 11
-535.6990051269531
 21
471.0500030517578
 31
0.0
  0
LINE
  5
133
330
1F
100
AcDbEntity
  8
0
  6
CONTINUOUS
 62
     7
100
AcDbLine
 10
-546.0
 20
472.0500030517578
 30
0.0
 11
-531.6990051269531
 21
472.0500030517578
 31
0.0
  0
LINE
  5
134
330
1F
100
AcDbEntity
  8
0
  6
CONTINUOUS
 62
     7
100
AcDbLine
 10
-535.6990051269531
 20
472.0500030517578
 30
0.0
 11
-535.6990051269531
 21
456.0500030517578
 31
0.0
  0
LINE
  5
135
330
1F
100
AcDbEntity
  8
0
  6
CONTINUOUS
 62
     7
100
AcDbLine
 10
-531.6990051269531
 20
476.0500030517578
 30
0.0
 11
-515.6990051269531
 21
476.0500030517578
 31
0.0
  0
LINE
  5
136
330
1F
100
AcDbEntity
  8
0
  6
CONTINUOUS
 62
     7
100
AcDbLine
 10
-531.6990051269531
 20
452.0500030517578
 30
0.0
 11
-515.6990051269531
 21
452.0500030517578
 31
0.0
  0
LINE
  5
137
330
1F
100
AcDbEntity
  8
0
  6
CONTINUOUS
 62
     7
100
AcDbLine
 10
-515.6990051269531
 20
476.0500030517578
 30
0.0
 11
-515.6990051269531
 21
452.0500030517578
 31
0.0
  0
LINE
  5
138
330
1F
100
AcDbEntity
  8
0
  6
CONTINUOUS
 62
     7
100
AcDbLine
 10
-543.6990051269531
 20
455.3000030517578
 30
0.0
 11
-531.6990051269531
 21
455.3000030517578
 31
0.0
  0
LINE
  5
139
330
1F
100
AcDbEntity
  8
0
  6
CONTINUOUS
 62
     7
100
AcDbLine
 10
-543.6990051269531
 20
472.8000030517578
 30
0.0
 11
-531.6990051269531
 21
472.8000030517578
 31
0.0
  0
LINE
  5
13A
330
1F
100
AcDbEntity
  8
0
  6
CONTINUOUS
 62
     7
100
AcDbLine
 10
-531.6990051269531
 20
451.0500030517578
 30
0.0
 11
-498.6990051269531
 21
451.0500030517578
 31
0.0
  0
LINE
  5
13B
330
1F
100
AcDbEntity
  8
0
  6
CONTINUOUS
 62
     7
100
AcDbLine
 10
-531.6990051269531
 20
477.0500030517578
 30
0.0
 11
-498.6990051269531
 21
477.0500030517578
 31
0.0
  0
LINE
  5
13C
330
1F
100
AcDbEntity
  8
0
  6
CONTINUOUS
 62
     7
100
AcDbLine
 10
-531.6990051269531
 20
477.0500030517578
 30
0.0
 11
-531.6990051269531
 21
451.0500030517578
 31
0.0
  0
LINE
  5
13D
330
1F
100
AcDbEntity
  8
0
  6
CONTINUOUS
 62
     7
100
AcDbLine
 10
-548.6990096509405
 20
512.9732293764293
 30
0.0
 11
-548.0000155171357
 21
513.3767938349869
 31
0.0
  0
LINE
  5
13E
330
1F
100
AcDbEntity
  8
0
  6
CONTINUOUS
 62
     7
100
AcDbLine
 10
-548.0
 20
514.8767852783203
 30
0.0
 11
-548.0
 21
515.0500030517578
 31
0.0
  0
LINE
  5
13F
330
1F
100
AcDbEntity
  8
0
  6
CONTINUOUS
 62
     7
100
AcDbLine
 10
-548.0
 20
513.7232208251953
 30
0.0
 11
-548.0
 21
513.3767852783203
 31
0.0
  0
LINE
  5
140
330
1F
100
AcDbEntity
  8
0
  6
CONTINUOUS
 62
     7
100
AcDbLine
 10
-548.6990051269531
 20
514.1267852783203
 30
0.0
 11
-548.6990051269531
 21
514.4732208251953
 31
0.0
  0
LINE
  5
141
330
1F
100
AcDbEntity
  8
0
  6
CONTINUOUS
 62
     7
100
AcDbLine
 10
-548.6990112181256
 20
514.1268004770607
 30
0.0
 11
-548.0000170843208
 21
513.7232360185033
 31
0.0
  0
LINE
  5
142
330
1F
100
AcDbEntity
  8
0
  6
CONTINUOUS
 62
     7
100
AcDbLine
 10
-548.6990114837834
 20
514.4732325308146
 30
0.0
 11
-548.0000173499786
 21
514.876796989372
 31
0.0
  0
LINE
  5
143
330
1F
100
AcDbEntity
  8
0
  6
PHANTOM
 62
     7
100
AcDbLine
 10
-548.6990051269531
 20
406.473201751709
 30
0.0
 11
-548.6990051269531
 21
424.3000030517578
 31
0.0
  0
LINE
  5
144
330
1F
100
AcDbEntity
  8
0
  6
PHANTOM
 62
     7
100
AcDbLine
 10
-548.0
 20
406.8767700195312
 30
0.0
 11
-548.0
 21
424.8767738342285
 31
0.0
  0
LINE
  5
145
330
1F
100
AcDbEntity
  8
0
  6
CONTINUOUS
 62
     7
100
AcDbLine
 10
-548.6989921271747
 20
404.973200478184
 30
0.0
 11
-547.9999979933699
 21
405.3767649367414
 31
0.0
  0
LINE
  5
146
330
1F
100
AcDbEntity
  8
0
  6
CONTINUOUS
 62
     7
100
AcDbLine
 10
-548.6990051269531
 20
404.973217010498
 30
0.0
 11
-548.6990051269531
 21
404.6267852783203
 31
0.0
  0
LINE
  5
147
330
1F
100
AcDbEntity
  8
0
  6
CONTINUOUS
 62
     7
100
AcDbLine
 10
-548.6990172232936
 20
404.6267915498032
 30
0.0
 11
-548.0000230894888
 21
404.2232270912457
 31
0.0
  0
LINE
  5
148
330
1F
100
AcDbEntity
  8
0
  6
CONTINUOUS
 62
     7
100
AcDbLine
 10
-548.0
 20
404.223217010498
 30
0.0
 11
-548.0
 21
404.0500030517578
 31
0.0
  0
LINE
  5
149
330
1F
100
AcDbEntity
  8
0
  6
CONTINUOUS
 62
     7
100
AcDbLine
 10
-548.0
 20
405.3767852783203
 30
0.0
 11
-548.0
 21
405.723217010498
 31
0.0
  0
LINE
  5
14A
330
1F
100
AcDbEntity
  8
0
  6
CONTINUOUS
 62
     7
100
AcDbLine
 10
-548.6990153904505
 20
406.1267947041883
 30
0.0
 11
-548.0000212566458
 21
405.7232302456309
 31
0.0
  0
LINE
  5
14B
330
1F
100
AcDbEntity
  8
0
  6
CONTINUOUS
 62
     7
100
AcDbLine
 10
-548.0
 20
404.0500030517578
 30
0.0
 11
-498.6990051269531
 21
404.0500030517578
 31
0.0
  0
LINE
  5
14C
330
1F
100
AcDbEntity
  8
0
  6
CONTINUOUS
 62
     7
100
AcDbLine
 10
-548.0
 20
515.0500030517578
 30
0.0
 11
-498.6990051269531
 21
515.0500030517578
 31
0.0
  0
LINE
  5
14D
330
1F
100
AcDbEntity
  8
0
  6
CONTINUOUS
 62
     7
100
AcDbLine
 10
-498.6990051269531
 20
515.0500030517578
 30
0.0
 11
-498.6990051269531
 21
404.0500030517578
 31
0.0
  0
LINE
  5
14E
330
1F
100
AcDbEntity
  8
0
  6
CENTER
 62
     7
100
AcDbLine
 10
-555.0
 20
494.0500030517578
 30
0.0
 11
-493.6990051269531
 21
494.0500030517578
 31
0.0
  0
LINE
  5
14F
330
1F
100
AcDbEntity
  8
0
  6
DASHED
 62
     7
100
AcDbLine
 10
-332.7165565203484
 20
273.6743530825737
 30
0.0
 11
-267.7646515279584
 21
311.1743535873677
 31
0.0
  0
LINE
  5
150
330
1F
100
AcDbEntity
  8
0
  6
DASHED
 62
     7
100
AcDbLine
 10
-348.2165567289966
 20
300.5211404794283
 30
0.0
 11
-283.2646517366066
 21
338.0211409842223
 31
0.0
  0
LINE
  5
151
330
1F
100
AcDbEntity
  8
0
  6
CONTINUOUS
 62
     7
100
AcDbLine
 10
-265.2067025026249
 20
337.7528582599677
 30
0.0
 11
-275.0873598316751
 21
354.866658458898
 31
0.0
  0
LINE
  5
152
330
1F
100
AcDbEntity
  8
0
  6
CONTINUOUS
 62
     7
100
AcDbLine
 10
-335.2126582768258
 20
278.0067307534834
 30
0.0
 11
-256.8373595860087
 21
323.2567313626015
 31
0.0
  0
LINE
  5
153
330
1F
100
AcDbEntity
  8
0
  6
CONTINUOUS
 62
     7
100
AcDbLine
 10
-345.7126584181681
 20
296.1932641513525
 30
0.0
 11
-267.337359727351
 21
341.4432647604706
 31
0.0
  0
LINE
  5
154
330
1F
100
AcDbEntity
  8
0
  6
CONTINUOUS
 62
     7
100
AcDbLine
 10
-249.0873594816846
 20
309.8333376641743
 30
0.0
 11
-258.9680168107348
 21
326.9471378631045
 31
0.0
  0
LINE
  5
155
330
1F
100
AcDbEntity
  8
0
  6
CONTINUOUS
 62
     7
100
AcDbLine
 10
-352.2126573406088
 20
307.4515927688616
 30
0.0
 11
-353.9263303643557
 21
317.17031431841
 31
0.0
  0
LINE
  5
156
330
1F
100
AcDbEntity
  8
0
  6
CONTINUOUS
 62
     7
100
AcDbLine
 10
-328.7126572356539
 20
266.7483989029901
 30
0.0
 11
-352.2126575519915
 21
307.4515926982211
 31
0.0
  0
LINE
  5
157
330
1F
100
AcDbEntity
  8
0
  6
CONTINUOUS
 62
     7
100
AcDbLine
 10
-548.0
 20
507.5500030517578
 30
0.0
 11
-546.0
 21
507.5500030517578
 31
0.0
  0
LINE
  5
158
330
1F
100
AcDbEntity
  8
0
  6
CONTINUOUS
 62
     7
100
AcDbLine
 10
-405.3020964309287
 20
262.0779583898098
 30
0.0
 11
-394.5520962862211
 21
243.4584122919914
 31
0.0
  0
LINE
  5
159
330
1F
100
AcDbEntity
  8
0
  6
CONTINUOUS
 62
     7
100
AcDbLine
 10
-397.7178053177402
 20
271.9415807685419
 30
0.0
 11
-395.2178052840873
 21
267.6114537690493
 31
0.0
  0
LINE
  5
15A
330
1F
100
AcDbEntity
  8
0
  6
CONTINUOUS
 62
     7
100
AcDbLine
 10
-391.7094872894552
 20
287.5348564988864
 30
0.0
 11
-390.3434604129009
 21
287.1688306974066
 31
0.0
  0
LINE
  5
15B
330
1F
100
AcDbEntity
  8
0
  6
CONTINUOUS
 62
     7
100
AcDbLine
 10
-383.5934418374536
 20
275.4774878849028
 30
0.0
 11
-383.9594676389334
 21
274.1114610083486
 31
0.0
  0
LINE
  5
15C
330
1F
100
AcDbEntity
  8
0
  6
CONTINUOUS
 62
     7
100
AcDbLine
 10
-365.7094789420718
 20
242.5015316156784
 30
0.0
 11
-365.3434531405921
 21
243.8675584922327
 31
0.0
  0
LINE
  5
15D
330
1F
100
AcDbEntity
  8
0
  6
CONTINUOUS
 62
     7
100
AcDbLine
 10
-372.0934402636901
 20
255.5589007756352
 30
0.0
 11
-373.4594671402443
 21
255.9249265771149
 31
0.0
  0
LINE
  5
15E
330
1F
100
AcDbEntity
  8
0
  6
CONTINUOUS
 62
     7
100
AcDbLine
 10
-385.6280590374062
 20
231.001526605447
 30
0.0
 11
-365.7094748397399
 21
242.5015267602505
 31
0.0
  0
LINE
  5
15F
330
1F
100
AcDbEntity
  8
0
  6
CONTINUOUS
 62
     7
100
AcDbLine
 10
-408.1101101165226
 20
265.9415806877749
 30
0.0
 11
-397.7178053177402
 21
271.9415807685419
 31
0.0
  0
LINE
  5
160
330
1F
100
AcDbEntity
  8
0
  6
CONTINUOUS
 62
     7
100
AcDbLine
 10
-366.5754992859642
 20
242.0015251017074
 30
0.0
 11
-349.8934092558006
 21
213.1072981116263
 31
0.0
  0
LINE
  5
161
330
1F
100
AcDbEntity
  8
0
  6
CONTINUOUS
 62
     7
100
AcDbLine
 10
-408.3505557336204
 20
314.3580440594343
 30
0.0
 11
-392.5754996359547
 21
287.0348458964311
 31
0.0
  0
LINE
  5
162
330
1F
100
AcDbEntity
  8
0
  6
CONTINUOUS
 62
     7
100
AcDbLine
 10
-395.466516158178
 20
212.0422343854633
 30
0.0
 11
-379.8780589600044
 21
221.0422345066139
 31
0.0
  0
LINE
  5
163
330
1F
100
AcDbEntity
  8
0
  6
CONTINUOUS
 62
     7
100
AcDbLine
 10
-411.6280593873967
 20
276.0348474001706
 30
0.0
 11
-391.7094751897304
 21
287.5348475549741
 31
0.0
  0
LINE
  5
164
330
1F
100
AcDbEntity
  8
0
  6
CENTER
 62
     7
100
AcDbLine
 10
-422.8519800096243
 20
239.5324995586857
 30
0.0
 11
-371.7812718155469
 21
269.018187211457
 31
0.0
  0
LINE
  5
165
330
1F
100
AcDbEntity
  8
0
  6
CONTINUOUS
 62
     7
100
AcDbLine
 10
-432.966516662972
 20
276.9941393778532
 30
0.0
 11
-417.3780594647984
 21
285.9941394990037
 31
0.0
  0
LINE
  5
166
330
1F
100
AcDbEntity
  8
0
  6
CONTINUOUS
 62
     7
100
AcDbLine
 10
-417.3780594647984
 20
285.9941394990037
 30
0.0
 11
-411.6280593873967
 21
276.0348474001706
 31
0.0
  0
LINE
  5
167
330
1F
100
AcDbEntity
  8
0
  6
CONTINUOUS
 62
     7
100
AcDbLine
 10
-391.298307592209
 20
287.4246741364132
 30
0.0
 11
-383.8493099943781
 21
274.5226320630805
 31
0.0
  0
LINE
  5
168
330
1F
100
AcDbEntity
  8
0
  6
CONTINUOUS
 62
     7
100
AcDbLine
 10
-372.0934485837606
 20
255.5588934136974
 30
0.0
 11
-365.3434484928977
 21
243.8675505150673
 31
0.0
  0
LINE
  5
169
330
1F
100
AcDbEntity
  8
0
  6
CONTINUOUS
 62
     7
100
AcDbLine
 10
-392.6101099078744
 20
239.0947932909204
 30
0.0
 11
-382.217805109092
 21
245.0947933716874
 31
0.0
  0
LINE
  5
16A
330
1F
100
AcDbEntity
  8
0
  6
CONTINUOUS
 62
     7
100
AcDbLine
 10
-382.217805109092
 20
245.0947933716874
 30
0.0
 11
-384.7178051427449
 21
249.42492037118
 31
0.0
  0
LINE
  5
16B
330
1F
100
AcDbEntity
  8
0
  6
CONTINUOUS
 62
     7
100
AcDbLine
 10
-403.8379958119313
 20
267.5420616681386
 30
0.0
 11
-397.3428053126922
 21
271.292061718618
 31
0.0
  0
LINE
  5
16C
330
1F
100
AcDbEntity
  8
0
  6
CONTINUOUS
 62
     7
100
AcDbLine
 10
-381.3613979320364
 20
275.6114522249263
 30
0.0
 11
-370.8613977906941
 21
257.4249188270571
 31
0.0
  0
LINE
  5
16D
330
1F
100
AcDbEntity
  8
0
  6
CONTINUOUS
 62
     7
100
AcDbLine
 10
-379.8780589600044
 20
221.0422345066138
 30
0.0
 11
-385.6280590374061
 21
231.001526605447
 31
0.0
  0
LINE
  5
16E
330
1F
100
AcDbEntity
  8
0
  6
CONTINUOUS
 62
     7
100
AcDbLine
 10
-390.343448829427
 20
287.1688205099939
 30
0.0
 11
-383.5934487385641
 21
275.4774776113637
 31
0.0
  0
LINE
  5
16F
330
1F
100
AcDbEntity
  8
0
  6
CONTINUOUS
 62
     7
100
AcDbLine
 10
-395.2178052840873
 20
267.6114537690492
 30
0.0
 11
-381.3613988857107
 21
275.6114538767386
 31
0.0
  0
LINE
  5
170
330
1F
100
AcDbEntity
  8
0
  6
CONTINUOUS
 62
     7
100
AcDbLine
 10
-408.1101101165225
 20
265.9415806877749
 30
0.0
 11
-392.6101099078743
 21
239.0947932909204
 31
0.0
  0
LINE
  5
171
330
1F
100
AcDbEntity
  8
0
  6
CONTINUOUS
 62
     7
100
AcDbLine
 10
-384.717805142745
 20
249.4249203711801
 30
0.0
 11
-370.8613987443684
 21
257.4249204788695
 31
0.0
  0
LINE
  5
172
330
1F
100
AcDbEntity
  8
0
  6
CONTINUOUS
 62
     7
100
AcDbLine
 10
-373.0483073465426
 20
255.8147470401168
 30
0.0
 11
-365.5993097487117
 21
242.9127049667841
 31
0.0
  0
LINE
  5
173
330
1F
100
AcDbEntity
  8
0
  6
CONTINUOUS
 62
     7
100
AcDbLine
 10
-548.6990130509683
 20
512.6267973226754
 30
0.0
 11
-548.0000189171635
 21
512.223232864118
 31
0.0
  0
LINE
  5
174
330
1F
100
AcDbEntity
  8
0
  6
CONTINUOUS
 62
     7
100
AcDbLine
 10
-548.6990051269531
 20
512.6267852783203
 30
0.0
 11
-548.6990051269531
 21
512.9732208251953
 31
0.0
  0
LINE
  5
175
330
1F
100
AcDbEntity
  8
0
  6
CONTINUOUS
 62
     7
100
AcDbLine
 10
-548.0
 20
512.2232208251953
 30
0.0
 11
-548.0
 21
511.8767852783203
 31
0.0
  0
LINE
  5
176
330
1F
100
AcDbEntity
  8
0
  6
CONTINUOUS
 62
     7
100
AcDbLine
 10
-548.6990057738074
 20
511.4731921636519
 30
0.0
 11
-547.9999984255037
 21
511.876764251604
 31
0.0
  0
LINE
  5
177
330
1F
100
AcDbEntity
  8
0
  6
CONTINUOUS
 62
     7
100
AcDbLine
 10
-548.6990126188347
 20
427.1267992220834
 30
0.0
 11
-548.0000184850298
 21
426.7232347635259
 31
0.0
  0
LINE
  5
178
330
1F
100
AcDbEntity
  8
0
  6
CONTINUOUS
 62
     7
100
AcDbLine
 10
-548.0
 20
426.3767852783203
 30
0.0
 11
-548.0
 21
426.723217010498
 31
0.0
  0
LINE
  5
179
330
1F
100
AcDbEntity
  8
0
  6
CONTINUOUS
 62
     7
100
AcDbLine
 10
-548.0
 20
425.223217010498
 30
0.0
 11
-548.0
 21
424.8767852783203
 31
0.0
  0
LINE
  5
17A
330
1F
100
AcDbEntity
  8
0
  6
CONTINUOUS
 62
     7
100
AcDbLine
 10
-548.6990051269531
 20
424.3000030517578
 30
0.0
 11
-548.6990051269531
 21
424.473217010498
 31
0.0
  0
LINE
  5
17B
330
1F
100
AcDbEntity
  8
0
  6
CONTINUOUS
 62
     7
100
AcDbLine
 10
-548.698993065948
 20
424.4732018416939
 30
0.0
 11
-547.9999989321432
 21
424.8767663002514
 31
0.0
  0
LINE
  5
17C
330
1F
100
AcDbEntity
  8
0
  6
CONTINUOUS
 62
     7
100
AcDbLine
 10
-548.6990051269531
 20
425.973217010498
 30
0.0
 11
-548.6990051269531
 21
425.6267852783203
 31
0.0
  0
LINE
  5
17D
330
1F
100
AcDbEntity
  8
0
  6
CONTINUOUS
 62
     7
100
AcDbLine
 10
-548.6990144516776
 20
425.6267960676983
 30
0.0
 11
-548.0000203178728
 21
425.2232316091408
 31
0.0
  0
LINE
  5
17E
330
1F
100
AcDbEntity
  8
0
  6
CONTINUOUS
 62
     7
100
AcDbLine
 10
-548.6989948987907
 20
425.9732049960788
 30
0.0
 11
-548.000000764986
 21
426.3767694546364
 31
0.0
  0
LINE
  5
17F
330
1F
100
AcDbEntity
  8
0
  6
DASHED
 62
     7
100
AcDbLine
 10
-592.0
 20
514.8000030517578
 30
0.0
 11
-551.8000183105469
 21
514.8000030517578
 31
0.0
  0
LINE
  5
180
330
1F
100
AcDbEntity
  8
0
  6
CONTINUOUS
 62
     7
100
AcDbLine
 10
-550.0
 20
424.3000030517578
 30
0.0
 11
-550.0
 21
213.0
 31
0.0
  0
LINE
  5
181
330
1F
100
AcDbEntity
  8
0
  6
CONTINUOUS
 62
     7
100
AcDbLine
 10
-556.5
 20
424.3000030517578
 30
0.0
 11
-548.6990051269531
 21
424.3000030517578
 31
0.0
  0
LINE
  5
182
330
1F
100
AcDbEntity
  8
0
  6
CONTINUOUS
 62
     7
100
AcDbLine
 10
-554.9999890598773
 20
417.9999922599494
 30
0.0
 11
-549.999992682155
 21
415.1132429535122
 31
0.0
  0
LINE
  5
183
330
1F
100
AcDbEntity
  8
0
  6
CONTINUOUS
 62
     7
100
AcDbLine
 10
-556.5
 20
424.3000030517578
 30
0.0
 11
-556.5
 21
411.0
 31
0.0
  0
LINE
  5
184
330
1F
100
AcDbEntity
  8
0
  6
CONTINUOUS
 62
     7
100
AcDbLine
 10
-556.5
 20
418.0
 30
0.0
 11
-555.0
 21
418.0
 31
0.0
  0
LINE
  5
185
330
1F
100
AcDbEntity
  8
0
  6
CONTINUOUS
 62
     7
100
AcDbLine
 10
-552.0000139388238
 20
409.5000059226496
 30
0.0
 11
-550.0000225710095
 21
411.499997290464
 31
0.0
  0
LINE
  5
186
330
1F
100
AcDbEntity
  8
0
  6
CONTINUOUS
 62
     7
100
AcDbLine
 10
-552.0
 20
399.5
 30
0.0
 11
-552.0
 21
409.5
 31
0.0
  0
LINE
  5
187
330
1F
100
AcDbEntity
  8
0
  6
CONTINUOUS
 62
     7
100
AcDbLine
 10
-607.9999893151997
 20
410.2499938311276
 30
0.0
 11
-606.7009619176389
 21
409.5
 31
0.0
  0
LINE
  5
188
330
1F
100
AcDbEntity
  8
0
  6
CONTINUOUS
 62
     7
100
AcDbLine
 10
-606.7009619176389
 20
409.5
 30
0.0
 11
-552.0
 21
409.5
 31
0.0
  0
LINE
  5
189
330
1F
100
AcDbEntity
  8
0
  6
CONTINUOUS
 62
     7
100
AcDbLine
 10
-616.0
 20
287.0
 30
0.0
 11
-616.0
 21
293.75
 31
0.0
  0
LINE
  5
18A
330
1F
100
AcDbEntity
  8
0
  6
CONTINUOUS
 62
     7
100
AcDbLine
 10
-552.0
 20
326.5
 30
0.0
 11
-552.0
 21
316.5
 31
0.0
  0
LINE
  5
18B
330
1F
100
AcDbEntity
  8
0
  6
CONTINUOUS
 62
     7
100
AcDbLine
 10
-552.0000139388238
 20
316.4999940773504
 30
0.0
 11
-550.0000225710095
 21
314.500002709536
 31
0.0
  0
LINE
  5
18C
330
1F
100
AcDbEntity
  8
0
  6
CONTINUOUS
 62
     7
100
AcDbLine
 10
-608.0
 20
315.7499999999999
 30
0.0
 11
-606.7009619176387
 21
316.5
 31
0.0
  0
LINE
  5
18D
330
1F
100
AcDbEntity
  8
0
  6
CONTINUOUS
 62
     7
100
AcDbLine
 10
-608.0
 20
411.0
 30
0.0
 11
-608.0
 21
315.0
 31
0.0
  0
LINE
  5
18E
330
1F
100
AcDbEntity
  8
0
  6
CONTINUOUS
 62
     7
100
AcDbLine
 10
-606.7009619176388
 20
316.5
 30
0.0
 11
-552.0
 21
316.5
 31
0.0
  0
LINE
  5
18F
330
1F
100
AcDbEntity
  8
0
  6
CONTINUOUS
 62
     7
100
AcDbLine
 10
-609.0
 20
411.0
 30
0.0
 11
-556.5
 21
411.0
 31
0.0
  0
LINE
  5
190
330
1F
100
AcDbEntity
  8
0
  6
CONTINUOUS
 62
     7
100
AcDbLine
 10
-609.0
 20
315.0
 30
0.0
 11
-556.5
 21
315.0
 31
0.0
  0
LINE
  5
191
330
1F
100
AcDbEntity
  8
0
  6
CONTINUOUS
 62
     7
100
AcDbLine
 10
-631.0
 20
447.0
 30
0.0
 11
-631.0
 21
417.0
 31
0.0
  0
LINE
  5
192
330
1F
100
AcDbEntity
  8
0
  6
CONTINUOUS
 62
     7
100
AcDbLine
 10
-631.0
 20
287.0
 30
0.0
 11
-631.0
 21
279.0
 31
0.0
  0
LINE
  5
193
330
1F
100
AcDbEntity
  8
0
  6
CONTINUOUS
 62
     7
100
AcDbLine
 10
-616.0
 20
302.25
 30
0.0
 11
-616.0
 21
309.0
 31
0.0
  0
LINE
  5
194
330
1F
100
AcDbEntity
  8
0
  6
CONTINUOUS
 62
     7
100
AcDbLine
 10
-631.0
 20
287.0
 30
0.0
 11
-616.0
 21
287.0
 31
0.0
  0
LINE
  5
195
330
1F
100
AcDbEntity
  8
0
  6
CONTINUOUS
 62
     7
100
AcDbLine
 10
-631.0
 20
287.0
 30
0.0
 11
-631.0
 21
309.0
 31
0.0
  0
LINE
  5
196
330
1F
100
AcDbEntity
  8
0
  6
CONTINUOUS
 62
     7
100
AcDbLine
 10
-646.0
 20
388.0
 30
0.0
 11
-623.0
 21
388.0
 31
0.0
  0
LINE
  5
197
330
1F
100
AcDbEntity
  8
0
  6
CONTINUOUS
 62
     7
100
AcDbLine
 10
-623.0
 20
413.5
 30
0.0
 11
-618.0
 21
413.5
 31
0.0
  0
LINE
  5
198
330
1F
100
AcDbEntity
  8
0
  6
CONTINUOUS
 62
     7
100
AcDbLine
 10
-646.0000182306414
 20
415.9999924337417
 30
0.0
 11
-645.0000171519375
 21
416.9999935124455
 31
0.0
  0
LINE
  5
199
330
1F
100
AcDbEntity
  8
0
  6
CONTINUOUS
 62
     7
100
AcDbLine
 10
-645.0
 20
417.0
 30
0.0
 11
-616.0
 21
417.0
 31
0.0
  0
LINE
  5
19A
330
1F
100
AcDbEntity
  8
0
  6
CONTINUOUS
 62
     7
100
AcDbLine
 10
-615.9999766763816
 20
420.9999935342749
 30
0.0
 11
-608.9999924743836
 21
419.3839198088506
 31
0.0
  0
LINE
  5
19B
330
1F
100
AcDbEntity
  8
0
  6
CONTINUOUS
 62
     7
100
AcDbLine
 10
-616.0
 20
421.0
 30
0.0
 11
-616.0
 21
417.0
 31
0.0
  0
LINE
  5
19C
330
1F
100
AcDbEntity
  8
0
  6
CONTINUOUS
 62
     7
100
AcDbLine
 10
-646.0
 20
338.0
 30
0.0
 11
-623.0
 21
338.0
 31
0.0
  0
LINE
  5
19D
330
1F
100
AcDbEntity
  8
0
  6
CONTINUOUS
 62
     7
100
AcDbLine
 10
-623.0
 20
312.5
 30
0.0
 11
-618.0
 21
312.5
 31
0.0
  0
LINE
  5
19E
330
1F
100
AcDbEntity
  8
0
  6
CONTINUOUS
 62
     7
100
AcDbLine
 10
-623.0
 20
312.5
 30
0.0
 11
-623.0
 21
413.5
 31
0.0
  0
LINE
  5
19F
330
1F
100
AcDbEntity
  8
0
  6
CONTINUOUS
 62
     7
100
AcDbLine
 10
-618.0
 20
312.5
 30
0.0
 11
-618.0
 21
413.5
 31
0.0
  0
LINE
  5
1A0
330
1F
100
AcDbEntity
  8
0
  6
CONTINUOUS
 62
     7
100
AcDbLine
 10
-615.9999766763815
 20
305.0000064657251
 30
0.0
 11
-608.9999924743835
 21
306.6160801911495
 31
0.0
  0
LINE
  5
1A1
330
1F
100
AcDbEntity
  8
0
  6
CONTINUOUS
 62
     7
100
AcDbLine
 10
-609.0
 20
306.6160774230957
 30
0.0
 11
-609.0
 21
419.3839225769043
 31
0.0
  0
LINE
  5
1A2
330
1F
100
AcDbEntity
  8
0
  6
CONTINUOUS
 62
     7
100
AcDbLine
 10
-646.0000182306414
 20
310.0000075662584
 30
0.0
 11
-645.0000171519375
 21
309.0000064875546
 31
0.0
  0
LINE
  5
1A3
330
1F
100
AcDbEntity
  8
0
  6
CONTINUOUS
 62
     7
100
AcDbLine
 10
-645.0
 20
309.0
 30
0.0
 11
-616.0
 21
309.0
 31
0.0
  0
LINE
  5
1A4
330
1F
100
AcDbEntity
  8
0
  6
CONTINUOUS
 62
     7
100
AcDbLine
 10
-646.0
 20
310.0
 30
0.0
 11
-646.0
 21
416.0
 31
0.0
  0
LINE
  5
1A5
330
1F
100
AcDbEntity
  8
0
  6
CENTER
 62
     7
100
AcDbLine
 10
-682.0
 20
277.3000030517578
 30
0.0
 11
-545.0
 21
277.3000030517578
 31
0.0
  0
LINE
  5
1A6
330
1F
100
AcDbEntity
  8
0
  6
CONTINUOUS
 62
     7
100
AcDbLine
 10
-589.8222351074219
 20
285.3000030517578
 30
0.0
 11
-567.0
 21
285.3000030517578
 31
0.0
  0
LINE
  5
1A7
330
1F
100
AcDbEntity
  8
0
  6
CONTINUOUS
 62
     7
100
AcDbLine
 10
-654.0
 20
473.0
 30
0.0
 11
-654.0
 21
285.3000030517578
 31
0.0
  0
LINE
  5
1A8
330
1F
100
AcDbEntity
  8
0
  6
CONTINUOUS
 62
     7
100
AcDbLine
 10
-654.0
 20
269.3000030517578
 30
0.0
 11
-654.0
 21
253.0
 31
0.0
  0
LINE
  5
1A9
330
1F
100
AcDbEntity
  8
0
  6
CONTINUOUS
 62
     7
100
AcDbLine
 10
-677.0
 20
284.3000030517578
 30
0.0
 11
-641.8504943847656
 21
284.3000030517578
 31
0.0
  0
LINE
  5
1AA
330
1F
100
AcDbEntity
  8
0
  6
CONTINUOUS
 62
     7
100
AcDbLine
 10
-677.0
 20
270.3000030517578
 30
0.0
 11
-633.0
 21
270.3000030517578
 31
0.0
  0
LINE
  5
1AB
330
1F
100
AcDbEntity
  8
0
  6
CONTINUOUS
 62
     7
100
AcDbLine
 10
-677.0
 20
269.3000030517578
 30
0.0
 11
-630.5029602050781
 21
269.3000030517578
 31
0.0
  0
LINE
  5
1AC
330
1F
100
AcDbEntity
  8
0
  6
CONTINUOUS
 62
     7
100
AcDbLine
 10
-677.0
 20
285.3000030517578
 30
0.0
 11
-642.1040954589844
 21
285.3000030517578
 31
0.0
  0
LINE
  5
1AD
330
1F
100
AcDbEntity
  8
0
  6
CONTINUOUS
 62
     7
100
AcDbLine
 10
-589.56103515625
 20
286.3000030517578
 30
0.0
 11
-567.0
 21
286.3000030517578
 31
0.0
  0
LINE
  5
1AE
330
1F
100
AcDbEntity
  8
0
  6
CONTINUOUS
 62
     7
100
AcDbLine
 10
-654.0
 20
268.3000030517578
 30
0.0
 11
-630.2798461914062
 21
268.3000030517578
 31
0.0
  0
LINE
  5
1AF
330
1F
100
AcDbEntity
  8
0
  6
CONTINUOUS
 62
     7
100
AcDbLine
 10
-567.0
 20
264.3000030517578
 30
0.0
 11
-550.0
 21
264.3000030517578
 31
0.0
  0
LINE
  5
1B0
330
1F
100
AcDbEntity
  8
0
  6
CONTINUOUS
 62
     7
100
AcDbLine
 10
-567.0
 20
290.3000030517578
 30
0.0
 11
-550.0
 21
290.3000030517578
 31
0.0
  0
LINE
  5
1B1
330
1F
100
AcDbEntity
  8
0
  6
CONTINUOUS
 62
     7
100
AcDbLine
 10
-567.0
 20
290.3000030517578
 30
0.0
 11
-567.0
 21
264.3000030517578
 31
0.0
  0
LINE
  5
1B2
330
1F
100
AcDbEntity
  8
0
  6
CONTINUOUS
 62
     7
100
AcDbLine
 10
-556.5
 20
299.0
 30
0.0
 11
-550.0
 21
299.0
 31
0.0
  0
LINE
  5
1B3
330
1F
100
AcDbEntity
  8
0
  6
CONTINUOUS
 62
     7
100
AcDbLine
 10
-556.5
 20
315.0
 30
0.0
 11
-556.5
 21
299.0
 31
0.0
  0
LINE
  5
1B4
330
1F
100
AcDbEntity
  8
0
  6
CONTINUOUS
 62
     7
100
AcDbLine
 10
-654.0
 20
449.0
 30
0.0
 11
-625.32568359375
 21
449.0
 31
0.0
  0
LINE
  5
1B5
330
1F
100
AcDbEntity
  8
0
  6
CONTINUOUS
 62
     7
100
AcDbLine
 10
-635.6751403808594
 20
277.0
 30
0.0
 11
-588.3453979492188
 21
277.0
 31
0.0
  0
LINE
  5
1B6
330
1F
100
AcDbEntity
  8
0
  6
CONTINUOUS
 62
     7
100
AcDbLine
 10
-660.0
 20
473.0
 30
0.0
 11
-654.0
 21
473.0
 31
0.0
  0
LINE
  5
1B7
330
1F
100
AcDbEntity
  8
0
  6
CONTINUOUS
 62
     7
100
AcDbLine
 10
-660.0
 20
253.0
 30
0.0
 11
-654.0
 21
253.0
 31
0.0
  0
LINE
  5
1B8
330
1F
100
AcDbEntity
  8
0
  6
CONTINUOUS
 62
     7
100
AcDbLine
 10
-552.0000031492308
 20
514.9999913294847
 30
0.0
 11
-550.0000225710096
 21
513.0000107512635
 31
0.0
  0
LINE
  5
1B9
330
1F
100
AcDbEntity
  8
0
  6
CONTINUOUS
 62
     7
100
AcDbLine
 10
-552.0000031492307
 20
211.0000086705155
 30
0.0
 11
-550.0000225710096
 21
212.9999892487366
 31
0.0
  0
LINE
  5
1BA
330
1F
100
AcDbEntity
  8
0
  6
CONTINUOUS
 62
     7
100
AcDbLine
 10
-660.0000225429011
 20
213.0000000383299
 30
0.0
 11
-658.0000203854935
 21
210.9999978809223
 31
0.0
  0
LINE
  5
1BB
330
1F
100
AcDbEntity
  8
0
  6
CONTINUOUS
 62
     7
100
AcDbLine
 10
-658.0000203854935
 20
515.000002119078
 30
0.0
 11
-660.0000225429011
 21
512.9999999616704
 31
0.0
  0
LINE
  5
1BC
330
1F
100
AcDbEntity
  8
0
  6
CONTINUOUS
 62
     7
100
AcDbLine
 10
-658.0
 20
211.0
 30
0.0
 11
-552.0
 21
211.0
 31
0.0
  0
LINE
  5
1BD
330
1F
100
AcDbEntity
  8
0
  6
CONTINUOUS
 62
     7
100
AcDbLine
 10
-658.0
 20
515.0
 30
0.0
 11
-552.0
 21
515.0
 31
0.0
  0
LINE
  5
1BE
330
1F
100
AcDbEntity
  8
0
  6
CONTINUOUS
 62
     7
100
AcDbLine
 10
-660.0
 20
513.0
 30
0.0
 11
-660.0
 21
285.3000030517578
 31
0.0
  0
LINE
  5
1BF
330
1F
100
AcDbEntity
  8
0
  6
CONTINUOUS
 62
     7
100
AcDbLine
 10
-550.0
 20
513.0
 30
0.0
 11
-550.0
 21
442.0261383056641
 31
0.0
  0
LINE
  5
1C0
330
1F
100
AcDbEntity
  8
0
  6
DASHED
 62
     7
100
AcDbLine
 10
-403.9270973660939
 20
259.6963901919012
 30
0.0
 11
-380.1113988688843
 21
273.4463903769923
 31
0.0
  0
LINE
  5
1C1
330
1F
100
AcDbEntity
  8
0
  6
CONTINUOUS
 62
     7
100
AcDbLine
 10
-548.0
 20
452.0500030517578
 30
0.0
 11
-546.0
 21
452.0500030517578
 31
0.0
  0
LINE
  5
1C2
330
1F
100
AcDbEntity
  8
0
  6
CONTINUOUS
 62
     7
100
AcDbLine
 10
-546.0
 20
507.5500030517578
 30
0.0
 11
-546.0
 21
452.0500030517578
 31
0.0
  0
LINE
  5
1C3
330
1F
100
AcDbEntity
  8
0
  6
CENTER
 62
     7
100
AcDbLine
 10
-73.0340122159304
 20
284.4999989432979
 30
0.0
 11
-344.9659877840696
 21
441.5000010567022
 31
0.0
  0
LINE
  5
1C4
330
1F
100
AcDbEntity
  8
0
  6
CENTER
 62
     7
100
AcDbLine
 10
-344.9659877840696
 20
284.4999989432979
 30
0.0
 11
-73.03401221593043
 21
441.5000010567022
 31
0.0
  0
LINE
  5
1C5
330
1F
100
AcDbEntity
  8
0
  6
CONTINUOUS
 62
     7
100
AcDbLine
 10
-246.1511688232422
 20
415.1132469177246
 30
0.0
 11
-234.0
 21
415.1132469177246
 31
0.0
  0
LINE
  5
1C6
330
1F
100
AcDbEntity
  8
0
  6
CONTINUOUS
 62
     7
100
AcDbLine
 10
-241.7261352539062
 20
418.0
 30
0.0
 11
-234.0
 21
418.0
 31
0.0
  0
LINE
  5
1C7
330
1F
100
AcDbEntity
  8
0
  6
CONTINUOUS
 62
     7
100
AcDbLine
 10
-235.5558108402632
 20
304.7695203535388
 30
0.0
 11
-272.7069801636037
 21
369.1172320272312
 31
0.0
  0
LINE
  5
1C8
330
1F
100
AcDbEntity
  8
0
  6
CONTINUOUS
 62
     7
100
AcDbLine
 10
-240.2683291472
 20
307.1583352594201
 30
0.0
 11
-272.9944648416385
 21
363.8416640002154
 31
0.0
  0
LINE
  5
1C9
330
1F
100
AcDbEntity
  8
0
  6
CONTINUOUS
 62
     7
100
AcDbLine
 10
-352.6746383095993
 20
310.0716215399862
 30
0.0
 11
-269.6313971694145
 21
358.0166600271796
 31
0.0
  0
LINE
  5
1CA
330
1F
100
AcDbEntity
  8
0
  6
DASHED
 62
     7
100
AcDbLine
 10
-396.4270972651351
 20
246.7060091934232
 30
0.0
 11
-372.6113987679255
 21
260.4560093785144
 31
0.0
  0
LINE
  5
1CB
330
1F
100
AcDbEntity
  8
0
  6
DASHED
 62
     7
100
AcDbLine
 10
-403.4270973593633
 20
258.8303647920027
 30
0.0
 11
-379.6113988621537
 21
272.5803649770938
 31
0.0
  0
LINE
  5
1CC
330
1F
100
AcDbEntity
  8
0
  6
CONTINUOUS
 62
     7
100
AcDbLine
 10
-326.6746379596088
 20
265.0383007452625
 30
0.0
 11
-243.631396819424
 21
312.9833392324559
 31
0.0
  0
LINE
  5
1CD
330
1F
100
AcDbEntity
  8
0
  6
CONTINUOUS
 62
     7
100
AcDbLine
 10
-394.5521056651132
 20
243.4584168895256
 30
0.0
 11
-389.0879981588961
 21
241.9943136836066
 31
0.0
  0
LINE
  5
1CE
330
1F
100
AcDbEntity
  8
0
  6
CONTINUOUS
 62
     7
100
AcDbLine
 10
-403.8379978318553
 20
267.5420626524229
 30
0.0
 11
-405.3021010377743
 21
262.0779551462059
 31
0.0
  0
LINE
  5
1CF
330
1F
100
AcDbEntity
  8
0
  6
DASHED
 62
     7
100
AcDbLine
 10
-395.9270972584045
 20
245.8399837935246
 30
0.0
 11
-372.1113987611949
 21
259.5899839786157
 31
0.0
  0
LINE
  5
1D0
330
1F
100
AcDbEntity
  8
0
  6
CONTINUOUS
 62
     7
100
AcDbLine
 10
-389.0879956133789
 20
241.9943123711319
 30
0.0
 11
-382.5928051141399
 21
245.7443124216113
 31
0.0
  0
LINE
  5
1D1
330
1F
100
AcDbEntity
  8
0
  6
CENTER
 62
     7
100
AcDbLine
 10
-600.0
 20
253.153678894043
 30
0.0
 11
-600.0
 21
205.8039245605469
 31
0.0
  0
LINE
  5
1D2
330
1F
100
AcDbEntity
  8
0
  6
DASHED
 62
     7
100
AcDbLine
 10
-606.0
 20
233.0
 30
0.0
 11
-606.0
 21
211.0
 31
0.0
  0
LINE
  5
1D3
330
1F
100
AcDbEntity
  8
0
  6
DASHED
 62
     7
100
AcDbLine
 10
-599.9999944398679
 20
248.886739754471
 30
0.0
 11
-594.9999980621456
 21
245.9999904480338
 31
0.0
  0
LINE
  5
1D4
330
1F
100
AcDbEntity
  8
0
  6
DASHED
 62
     7
100
AcDbLine
 10
-605.0
 20
246.0
 30
0.0
 11
-605.0
 21
211.0
 31
0.0
  0
LINE
  5
1D5
330
1F
100
AcDbEntity
  8
0
  6
DASHED
 62
     7
100
AcDbLine
 10
-595.0
 20
246.0
 30
0.0
 11
-595.0
 21
211.0
 31
0.0
  0
LINE
  5
1D6
330
1F
100
AcDbEntity
  8
0
  6
DASHED
 62
     7
100
AcDbLine
 10
-594.0
 20
233.0
 30
0.0
 11
-594.0
 21
211.0
 31
0.0
  0
LINE
  5
1D7
330
1F
100
AcDbEntity
  8
0
  6
DASHED
 62
     7
100
AcDbLine
 10
-599.999988834079
 20
248.8867521433709
 30
0.0
 11
-604.9999852118013
 21
246.0000028369338
 31
0.0
  0
LINE
  5
1D8
330
1F
100
AcDbEntity
  8
0
  6
DASHED
 62
     7
100
AcDbLine
 10
-595.0
 20
246.0
 30
0.0
 11
-605.0
 21
246.0
 31
0.0
  0
LINE
  5
1D9
330
1F
100
AcDbEntity
  8
0
  6
DASHED
 62
     7
100
AcDbLine
 10
-594.0
 20
233.0
 30
0.0
 11
-606.0
 21
233.0
 31
0.0
  0
LINE
  5
1DA
330
1F
100
AcDbEntity
  8
0
  6
DASHED
 62
     7
100
AcDbLine
 10
-79.0
 20
357.0000076293945
 30
0.0
 11
-57.11846923828125
 21
357.0000076293945
 31
0.0
  0
LINE
  5
1DB
330
1F
100
AcDbEntity
  8
0
  6
DASHED
 62
     7
100
AcDbLine
 10
-94.88674823040046
 20
363.0000161336504
 30
0.0
 11
-91.99999892396329
 21
368.0000125113727
 31
0.0
  0
LINE
  5
1DC
330
1F
100
AcDbEntity
  8
0
  6
DASHED
 62
     7
100
AcDbLine
 10
-92.0
 20
358.0000076293945
 30
0.0
 11
-57.08226013183594
 21
358.0000076293945
 31
0.0
  0
LINE
  5
1DD
330
1F
100
AcDbEntity
  8
0
  6
DASHED
 62
     7
100
AcDbLine
 10
-92.0
 20
368.0000076293945
 30
0.0
 11
-57.08226013183594
 21
368.0000076293945
 31
0.0
  0
LINE
  5
1DE
330
1F
100
AcDbEntity
  8
0
  6
DASHED
 62
     7
100
AcDbLine
 10
-79.0
 20
369.0000076293945
 30
0.0
 11
-57.11846923828125
 21
369.0000076293945
 31
0.0
  0
LINE
  5
1DF
330
1F
100
AcDbEntity
  8
0
  6
DASHED
 62
     7
100
AcDbLine
 10
-94.88675306724294
 20
363.0000075027953
 30
0.0
 11
-91.99999994610845
 21
358.0000045178235
 31
0.0
  0
LINE
  5
1E0
330
1F
100
AcDbEntity
  8
0
  6
DASHED
 62
     7
100
AcDbLine
 10
-92.0
 20
368.0000085830688
 30
0.0
 11
-92.0
 21
358.0000085830688
 31
0.0
  0
LINE
  5
1E1
330
1F
100
AcDbEntity
  8
0
  6
DASHED
 62
     7
100
AcDbLine
 10
-79.0
 20
369.0000085830688
 30
0.0
 11
-79.0
 21
357.0000085830688
 31
0.0
  0
LINE
  5
1E2
330
1F
100
AcDbEntity
  8
0
  6
CONTINUOUS
 62
     7
100
AcDbLine
 10
-556.5
 20
309.3
 30
0.0
 11
-554.5
 21
309.3
 31
0.0
  0
LINE
  5
1E3
330
1F
100
AcDbEntity
  8
0
  6
CONTINUOUS
 62
     7
100
AcDbLine
 10
-556.5
 20
302.7
 30
0.0
 11
-554.5
 21
302.7
 31
0.0
  0
LINE
  5
1E4
330
1F
100
AcDbEntity
  8
0
  6
CENTER
 62
     7
100
AcDbLine
 10
-244.3553390593274
 20
398.3553390593275
 30
0.0
 11
-251.4264068711929
 21
405.426406871193
 31
0.0
  0
LINE
  5
1E5
330
1F
100
AcDbEntity
  8
0
  6
CENTER
 62
     7
100
AcDbLine
 10
-160.7037086855466
 20
375.940952255126
 30
0.0
 11
-151.0444504226559
 21
378.5291427061512
 31
0.0
  0
LINE
  5
1E6
330
1F
100
AcDbEntity
  8
0
  6
CENTER
 62
     7
100
AcDbLine
 10
-217.0
 20
273.0
 30
0.0
 11
-201.0
 21
273.0
 31
0.0
  0
LINE
  5
1E7
330
1F
100
AcDbEntity
  8
0
  6
CENTER
 62
     7
100
AcDbLine
 10
-217.0
 20
233.0
 30
0.0
 11
-201.0
 21
233.0
 31
0.0
  0
LINE
  5
1E8
330
1F
100
AcDbEntity
  8
0
  6
CENTER
 62
     7
100
AcDbLine
 10
-127.0577136594005
 20
401.0717967697246
 30
0.0
 11
-135.0577136594005
 21
414.9282032302756
 31
0.0
  0
LINE
  5
1E9
330
1F
100
AcDbEntity
  8
0
  6
CENTER
 62
     7
100
AcDbLine
 10
-92.41669750802295
 20
421.0717967697245
 30
0.0
 11
-100.4166975080229
 21
434.9282032302756
 31
0.0
  0
LINE
  5
1EA
330
1F
100
AcDbEntity
  8
0
  6
CENTER
 62
     7
100
AcDbLine
 10
-282.9422863405995
 20
414.9282032302756
 30
0.0
 11
-290.9422863405995
 21
401.0717967697246
 31
0.0
  0
LINE
  5
1EB
330
1F
100
AcDbEntity
  8
0
  6
CENTER
 62
     7
100
AcDbLine
 10
-317.5833024919772
 20
434.9282032302757
 30
0.0
 11
-325.5833024919772
 21
421.0717967697246
 31
0.0
  0
LINE
  5
1EC
330
1F
100
AcDbEntity
  8
0
  6
CONTINUOUS
 62
     7
100
AcDbLine
 10
-618.0
 20
409.5
 30
0.0
 11
-609.0
 21
409.5
 31
0.0
  0
LINE
  5
1ED
330
1F
100
AcDbEntity
  8
0
  6
CONTINUOUS
 62
     7
100
AcDbLine
 10
-618.0
 20
316.5
 30
0.0
 11
-609.0
 21
316.5
 31
0.0
  0
LINE
  5
1EE
330
1F
100
AcDbEntity
  8
0
  6
DASHED
 62
     7
100
AcDbLine
 10
-339.0
 20
357.0000076293945
 30
0.0
 11
-360.8815307617188
 21
357.0000076293945
 31
0.0
  0
LINE
  5
1EF
330
1F
100
AcDbEntity
  8
0
  6
DASHED
 62
     7
100
AcDbLine
 10
-323.1132517695995
 20
363.0000161336504
 30
0.0
 11
-326.0000010760367
 21
368.0000125113727
 31
0.0
  0
LINE
  5
1F0
330
1F
100
AcDbEntity
  8
0
  6
DASHED
 62
     7
100
AcDbLine
 10
-326.0
 20
358.0000076293945
 30
0.0
 11
-360.9177398681641
 21
358.0000076293945
 31
0.0
  0
LINE
  5
1F1
330
1F
100
AcDbEntity
  8
0
  6
DASHED
 62
     7
100
AcDbLine
 10
-326.0
 20
368.0000076293945
 30
0.0
 11
-360.9177398681641
 21
368.0000076293945
 31
0.0
  0
LINE
  5
1F2
330
1F
100
AcDbEntity
  8
0
  6
DASHED
 62
     7
100
AcDbLine
 10
-339.0
 20
369.0000076293945
 30
0.0
 11
-360.8815307617188
 21
369.0000076293945
 31
0.0
  0
LINE
  5
1F3
330
1F
100
AcDbEntity
  8
0
  6
DASHED
 62
     7
100
AcDbLine
 10
-323.1132469327571
 20
363.0000075027953
 30
0.0
 11
-326.0000000538915
 21
358.0000045178235
 31
0.0
  0
LINE
  5
1F4
330
1F
100
AcDbEntity
  8
0
  6
DASHED
 62
     7
100
AcDbLine
 10
-326.0
 20
368.0000085830688
 30
0.0
 11
-326.0
 21
358.0000085830688
 31
0.0
  0
LINE
  5
1F5
330
1F
100
AcDbEntity
  8
0
  6
DASHED
 62
     7
100
AcDbLine
 10
-339.0
 20
369.0000085830688
 30
0.0
 11
-339.0
 21
357.0000085830688
 31
0.0
  0
LINE
  5
1F6
330
1F
100
AcDbEntity
  8
0
  6
CENTER
 62
     7
100
AcDbLine
 10
-221.9409438654028
 20
314.7037064375279
 30
0.0
 11
-224.5291326384833
 21
305.0444477250335
 31
0.0
  0
LINE
  5
1F7
330
1F
100
AcDbEntity
  8
0
  6
PHANTOM
 62
     7
100
AcDbLine
 10
-646.0
 20
314.0
 30
0.0
 11
-623.0
 21
314.0
 31
0.0
  0
LINE
  5
1F8
330
1F
100
AcDbEntity
  8
0
  6
PHANTOM
 62
     7
100
AcDbLine
 10
-646.0
 20
412.0
 30
0.0
 11
-623.0
 21
412.0
 31
0.0
  0
LINE
  5
1F9
330
1F
100
AcDbEntity
  8
0
  6
PHANTOM
 62
     7
100
AcDbLine
 10
-646.0
 20
413.0
 30
0.0
 11
-623.0
 21
413.0
 31
0.0
  0
LINE
  5
1FA
330
1F
100
AcDbEntity
  8
0
  6
PHANTOM
 62
     7
100
AcDbLine
 10
-646.0
 20
313.0
 30
0.0
 11
-623.0
 21
313.0
 31
0.0
  0
LINE
  5
1FB
330
1F
100
AcDbEntity
  8
0
  6
DASHED
 62
     7
100
AcDbLine
 10
-88.55971939873609
 20
289.9996716770449
 30
0.0
 11
-94.6218971980258
 21
293.499671724159
 31
0.0
  0
LINE
  5
1FC
330
1F
100
AcDbEntity
  8
0
  6
DASHED
 62
     7
100
AcDbLine
 10
-81.40844003182252
 20
280.3860509534904
 30
0.0
 11
-90.9347194307064
 21
285.8860510275268
 31
0.0
  0
LINE
  5
1FD
330
1F
100
AcDbEntity
  8
0
  6
DASHED
 62
     7
100
AcDbLine
 10
-88.30971939537082
 20
290.4326843769942
 30
0.0
 11
-104.7642019934429
 21
299.9326845048753
 31
0.0
  0
LINE
  5
1FE
330
1F
100
AcDbEntity
  8
0
  6
DASHED
 62
     7
100
AcDbLine
 10
-73.65843992749842
 20
293.8094446519177
 30
0.0
 11
-83.1847193263823
 21
299.3094447259542
 31
0.0
  0
LINE
  5
1FF
330
1F
100
AcDbEntity
  8
0
  6
DASHED
 62
     7
100
AcDbLine
 10
-85.80971936171788
 20
294.7628113764869
 30
0.0
 11
-102.26420195979
 21
304.262811504368
 31
0.0
  0
LINE
  5
200
330
1F
100
AcDbEntity
  8
0
  6
DASHED
 62
     7
100
AcDbLine
 10
-83.1847193263823
 20
299.3094447259542
 30
0.0
 11
-90.93471943070638
 21
285.8860510275269
 31
0.0
  0
LINE
  5
201
330
1F
100
AcDbEntity
  8
0
  6
DASHED
 62
     7
100
AcDbLine
 10
-91.62189715764231
 20
298.6958241235502
 30
0.0
 11
-94.62189719802582
 21
293.499671724159
 31
0.0
  0
LINE
  5
202
330
1F
100
AcDbEntity
  8
0
  6
DASHED
 62
     7
100
AcDbLine
 10
-84.17297495968813
 20
293.5977358427691
 30
0.0
 11
-85.9050257594852
 21
294.5977358562303
 31
0.0
  0
LINE
  5
203
330
1F
100
AcDbEntity
  8
0
  6
DASHED
 62
     7
100
AcDbLine
 10
-83.01826608183971
 20
295.5977502512567
 30
0.0
 11
-84.75031688163678
 21
296.5977502647179
 31
0.0
  0
LINE
  5
204
330
1F
100
AcDbEntity
  8
0
  6
DASHED
 62
     7
100
AcDbLine
 10
-86.48236219780644
 20
289.5977598837895
 30
0.0
 11
-88.2144129976035
 21
290.5977598972507
 31
0.0
  0
LINE
  5
205
330
1F
100
AcDbEntity
  8
0
  6
DASHED
 62
     7
100
AcDbLine
 10
-87.63707107565489
 20
287.597745475302
 30
0.0
 11
-89.36912187545192
 21
288.5977454887632
 31
0.0
  0
LINE
  5
206
330
1F
100
AcDbEntity
  8
0
  6
DASHED
 62
     7
100
AcDbLine
 10
-78.49850651501126
 20
290.4262034934874
 30
0.0
 11
-80.89850044380238
 21
286.2692921455736
 31
0.0
  0
LINE
  5
207
330
1F
100
AcDbEntity
  8
0
  6
DASHED
 62
     7
100
AcDbLine
 10
-85.5597193583526
 20
295.1958240764361
 30
0.0
 11
-91.62189715764231
 21
298.6958241235502
 31
0.0
  0
LINE
  5
208
330
1F
100
AcDbEntity
  8
0
  6
DASHED
 62
     7
100
AcDbLine
 10
-83.0182660818397
 20
295.5977502512567
 30
0.0
 11
-87.63707107565486
 21
287.597745475302
 31
0.0
  0
LINE
  5
209
330
1F
100
AcDbEntity
  8
0
  6
DASHED
 62
     7
100
AcDbLine
 10
-80.38677917955715
 20
292.5556248276312
 30
0.0
 11
-78.49851097419878
 21
290.4262024053247
 31
0.0
  0
LINE
  5
20A
330
1F
100
AcDbEntity
  8
0
  6
DASHED
 62
     7
100
AcDbLine
 10
-83.6867705766514
 20
286.8398742769594
 30
0.0
 11
-80.89851261359529
 21
286.2692992650988
 31
0.0
  0
LINE
  5
20B
330
1F
100
AcDbEntity
  8
0
  6
DASHED
 62
     7
100
AcDbLine
 10
-80.38677549753784
 20
292.5556195598902
 30
0.0
 11
-83.68676333492829
 21
286.8398730637581
 31
0.0
  0
LINE
  5
20C
330
1F
100
AcDbEntity
  8
0
  6
DASHED
 62
     7
100
AcDbLine
 10
-82.25280300035979
 20
293.055620788516
 30
0.0
 11
-85.05279083101966
 21
288.2058996922825
 31
0.0
  0
LINE
  5
20D
330
1F
100
AcDbEntity
  8
0
  6
DASHED
 62
     7
100
AcDbLine
 10
-83.6867752029091
 20
286.8398621166433
 30
0.0
 11
-85.05279973108998
 21
288.2058866717817
 31
0.0
  0
LINE
  5
20E
330
1F
100
AcDbEntity
  8
0
  6
DASHED
 62
     7
100
AcDbLine
 10
-87.6370575828602
 20
287.5977441235449
 30
0.0
 11
-85.05280199778623
 21
288.2058817486252
 31
0.0
  0
LINE
  5
20F
330
1F
100
AcDbEntity
  8
0
  6
DASHED
 62
     7
100
AcDbLine
 10
-80.38676419602834
 20
292.5556218793316
 30
0.0
 11
-82.25279210400484
 21
293.0556225616808
 31
0.0
  0
LINE
  5
210
330
1F
100
AcDbEntity
  8
0
  6
DASHED
 62
     7
100
AcDbLine
 10
-83.01826900829897
 20
295.5977578882549
 30
0.0
 11
-82.25279522602091
 21
293.0556293123042
 31
0.0
  0
LINE
  5
211
330
1F
100
AcDbEntity
  8
0
  6
DASHED
 62
     7
100
AcDbLine
 10
-332.4402806416474
 20
295.1958240764362
 30
0.0
 11
-326.3781028423576
 21
298.6958241235503
 31
0.0
  0
LINE
  5
212
330
1F
100
AcDbEntity
  8
0
  6
DASHED
 62
     7
100
AcDbLine
 10
-344.3415600725016
 20
293.8094446519177
 30
0.0
 11
-334.8152806736177
 21
299.3094447259541
 31
0.0
  0
LINE
  5
213
330
1F
100
AcDbEntity
  8
0
  6
DASHED
 62
     7
100
AcDbLine
 10
-332.1902806382821
 20
294.7628113764869
 30
0.0
 11
-315.73579804021
 21
304.262811504368
 31
0.0
  0
LINE
  5
214
330
1F
100
AcDbEntity
  8
0
  6
DASHED
 62
     7
100
AcDbLine
 10
-336.5915599681774
 20
280.3860509534904
 30
0.0
 11
-327.0652805692936
 21
285.8860510275269
 31
0.0
  0
LINE
  5
215
330
1F
100
AcDbEntity
  8
0
  6
DASHED
 62
     7
100
AcDbLine
 10
-329.6902806046292
 20
290.4326843769942
 30
0.0
 11
-313.2357980065571
 21
299.9326845048753
 31
0.0
  0
LINE
  5
216
330
1F
100
AcDbEntity
  8
0
  6
DASHED
 62
     7
100
AcDbLine
 10
-327.0652805692936
 20
285.8860510275269
 30
0.0
 11
-334.8152806736176
 21
299.3094447259542
 31
0.0
  0
LINE
  5
217
330
1F
100
AcDbEntity
  8
0
  6
DASHED
 62
     7
100
AcDbLine
 10
-323.3781028019742
 20
293.499671724159
 30
0.0
 11
-326.3781028423577
 21
298.6958241235502
 31
0.0
  0
LINE
  5
218
330
1F
100
AcDbEntity
  8
0
  6
DASHED
 62
     7
100
AcDbLine
 10
-331.5176378021936
 20
289.5977598837895
 30
0.0
 11
-329.7855870023965
 21
290.5977598972507
 31
0.0
  0
LINE
  5
219
330
1F
100
AcDbEntity
  8
0
  6
DASHED
 62
     7
100
AcDbLine
 10
-330.3629289243451
 20
287.597745475302
 30
0.0
 11
-328.6308781245481
 21
288.5977454887632
 31
0.0
  0
LINE
  5
21A
330
1F
100
AcDbEntity
  8
0
  6
DASHED
 62
     7
100
AcDbLine
 10
-333.8270250403119
 20
293.5977358427691
 30
0.0
 11
-332.0949742405148
 21
294.5977358562303
 31
0.0
  0
LINE
  5
21B
330
1F
100
AcDbEntity
  8
0
  6
DASHED
 62
     7
100
AcDbLine
 10
-334.9817339181603
 20
295.5977502512567
 30
0.0
 11
-333.2496831183632
 21
296.5977502647178
 31
0.0
  0
LINE
  5
21C
330
1F
100
AcDbEntity
  8
0
  6
DASHED
 62
     7
100
AcDbLine
 10
-337.1014995561976
 20
286.2692921455736
 30
0.0
 11
-339.5014934849887
 21
290.4262034934875
 31
0.0
  0
LINE
  5
21D
330
1F
100
AcDbEntity
  8
0
  6
DASHED
 62
     7
100
AcDbLine
 10
-329.4402806012639
 20
289.9996716770449
 30
0.0
 11
-323.3781028019742
 21
293.499671724159
 31
0.0
  0
LINE
  5
21E
330
1F
100
AcDbEntity
  8
0
  6
DASHED
 62
     7
100
AcDbLine
 10
-330.3629289243451
 20
287.597745475302
 30
0.0
 11
-334.9817339181602
 21
295.5977502512568
 31
0.0
  0
LINE
  5
21F
330
1F
100
AcDbEntity
  8
0
  6
DASHED
 62
     7
100
AcDbLine
 10
-334.3132302620647
 20
286.8398736186101
 30
0.0
 11
-337.1014982689807
 21
286.2692965514248
 31
0.0
  0
LINE
  5
220
330
1F
100
AcDbEntity
  8
0
  6
DASHED
 62
     7
100
AcDbLine
 10
-337.6132198309377
 20
292.555625224806
 30
0.0
 11
-339.5014812344028
 21
290.426210473075
 31
0.0
  0
LINE
  5
221
330
1F
100
AcDbEntity
  8
0
  6
DASHED
 62
     7
100
AcDbLine
 10
-334.3132366650717
 20
286.8398730637581
 30
0.0
 11
-337.6132245024621
 21
292.5556195598901
 31
0.0
  0
LINE
  5
222
330
1F
100
AcDbEntity
  8
0
  6
DASHED
 62
     7
100
AcDbLine
 10
-332.9472091689803
 20
288.2058996922825
 30
0.0
 11
-335.7471969996402
 21
293.055620788516
 31
0.0
  0
LINE
  5
223
330
1F
100
AcDbEntity
  8
0
  6
DASHED
 62
     7
100
AcDbLine
 10
-337.6132280489516
 20
292.5556353114205
 30
0.0
 11
-335.7472038256897
 21
293.0556350064533
 31
0.0
  0
LINE
  5
224
330
1F
100
AcDbEntity
  8
0
  6
DASHED
 62
     7
100
AcDbLine
 10
-334.9817418352135
 20
295.5977392420322
 30
0.0
 11
-335.7472069559203
 21
293.0556394310481
 31
0.0
  0
LINE
  5
225
330
1F
100
AcDbEntity
  8
0
  6
DASHED
 62
     7
100
AcDbLine
 10
-334.3132403071312
 20
286.8398621166431
 30
0.0
 11
-332.947213081552
 21
288.20588936918
 31
0.0
  0
LINE
  5
226
330
1F
100
AcDbEntity
  8
0
  6
DASHED
 62
     7
100
AcDbLine
 10
-330.362920847281
 20
287.5977441911911
 30
0.0
 11
-332.9472056743325
 21
288.2058886976135
 31
0.0
  0
LINE
  5
227
330
1F
100
AcDbEntity
  8
0
  6
DASHED
 62
     7
100
AcDbLine
 10
-206.0
 20
503.8045043945312
 30
0.0
 11
-206.0
 21
496.8045043945312
 31
0.0
  0
LINE
  5
228
330
1F
100
AcDbEntity
  8
0
  6
DASHED
 62
     7
100
AcDbLine
 10
-201.25
 20
514.8045043945312
 30
0.0
 11
-201.25
 21
503.8045043945312
 31
0.0
  0
LINE
  5
229
330
1F
100
AcDbEntity
  8
0
  6
DASHED
 62
     7
100
AcDbLine
 10
-206.5
 20
503.8045043945312
 30
0.0
 11
-206.5
 21
484.8045043945312
 31
0.0
  0
LINE
  5
22A
330
1F
100
AcDbEntity
  8
0
  6
DASHED
 62
     7
100
AcDbLine
 10
-216.75
 20
514.8045043945312
 30
0.0
 11
-216.75
 21
503.8045043945312
 31
0.0
  0
LINE
  5
22B
330
1F
100
AcDbEntity
  8
0
  6
DASHED
 62
     7
100
AcDbLine
 10
-211.5
 20
503.8045043945312
 30
0.0
 11
-211.5
 21
484.8045043945312
 31
0.0
  0
LINE
  5
22C
330
1F
100
AcDbEntity
  8
0
  6
DASHED
 62
     7
100
AcDbLine
 10
-216.75
 20
503.8045043945312
 30
0.0
 11
-201.25
 21
503.8045043945312
 31
0.0
  0
LINE
  5
22D
330
1F
100
AcDbEntity
  8
0
  6
DASHED
 62
     7
100
AcDbLine
 10
-212.0
 20
496.8045043945312
 30
0.0
 11
-206.0
 21
496.8045043945312
 31
0.0
  0
LINE
  5
22E
330
1F
100
AcDbEntity
  8
0
  6
DASHED
 62
     7
100
AcDbLine
 10
-211.3093872070312
 20
505.8045043945312
 30
0.0
 11
-211.3093872070312
 21
503.8045043945312
 31
0.0
  0
LINE
  5
22F
330
1F
100
AcDbEntity
  8
0
  6
DASHED
 62
     7
100
AcDbLine
 10
-213.6188049316406
 20
505.8045043945312
 30
0.0
 11
-213.6188049316406
 21
503.8045043945312
 31
0.0
  0
LINE
  5
230
330
1F
100
AcDbEntity
  8
0
  6
DASHED
 62
     7
100
AcDbLine
 10
-206.6906127929688
 20
505.8045043945312
 30
0.0
 11
-206.6906127929688
 21
503.8045043945312
 31
0.0
  0
LINE
  5
231
330
1F
100
AcDbEntity
  8
0
  6
DASHED
 62
     7
100
AcDbLine
 10
-204.3811950683594
 20
505.8045043945312
 30
0.0
 11
-204.3811950683594
 21
503.8045043945312
 31
0.0
  0
LINE
  5
232
330
1F
100
AcDbEntity
  8
0
  6
DASHED
 62
     7
100
AcDbLine
 10
-211.3999938964844
 20
512.3045043945312
 30
0.0
 11
-206.6000061035156
 21
512.3045043945312
 31
0.0
  0
LINE
  5
233
330
1F
100
AcDbEntity
  8
0
  6
DASHED
 62
     7
100
AcDbLine
 10
-212.0
 20
503.8045043945312
 30
0.0
 11
-212.0
 21
496.8045043945312
 31
0.0
  0
LINE
  5
234
330
1F
100
AcDbEntity
  8
0
  6
DASHED
 62
     7
100
AcDbLine
 10
-213.6188049316406
 20
505.8045043945312
 30
0.0
 11
-204.3811950683594
 21
505.8045043945312
 31
0.0
  0
LINE
  5
235
330
1F
100
AcDbEntity
  8
0
  6
DASHED
 62
     7
100
AcDbLine
 10
-212.2999905139565
 20
509.6045016236964
 30
0.0
 11
-211.3999907245139
 21
512.304501076843
 31
0.0
  0
LINE
  5
236
330
1F
100
AcDbEntity
  8
0
  6
DASHED
 62
     7
100
AcDbLine
 10
-205.7000096368327
 20
509.6045005681724
 30
0.0
 11
-206.6000061843087
 21
512.3044902954189
 31
0.0
  0
LINE
  5
237
330
1F
100
AcDbEntity
  8
0
  6
DASHED
 62
     7
100
AcDbLine
 10
-212.2999877929688
 20
509.6045074462891
 30
0.0
 11
-205.7000122070312
 21
509.6045074462891
 31
0.0
  0
LINE
  5
238
330
1F
100
AcDbEntity
  8
0
  6
DASHED
 62
     7
100
AcDbLine
 10
-211.7999877929688
 20
507.7384796142578
 30
0.0
 11
-206.2000122070312
 21
507.7384796142578
 31
0.0
  0
LINE
  5
239
330
1F
100
AcDbEntity
  8
0
  6
DASHED
 62
     7
100
AcDbLine
 10
-205.6999967925612
 20
509.6045026418738
 30
0.0
 11
-206.1999964809116
 21
507.7384784168214
 31
0.0
  0
LINE
  5
23A
330
1F
100
AcDbEntity
  8
0
  6
DASHED
 62
     7
100
AcDbLine
 10
-204.3812006441009
 20
505.8045167555129
 30
0.0
 11
-206.199991083985
 21
507.7384789153832
 31
0.0
  0
LINE
  5
23B
330
1F
100
AcDbEntity
  8
0
  6
DASHED
 62
     7
100
AcDbLine
 10
-212.2999954524187
 20
509.6045160739627
 30
0.0
 11
-211.7999947767519
 21
507.7384881641957
 31
0.0
  0
LINE
  5
23C
330
1F
100
AcDbEntity
  8
0
  6
DASHED
 62
     7
100
AcDbLine
 10
-213.6188100822453
 20
505.804498041644
 30
0.0
 11
-211.7999990619552
 21
507.7384820851386
 31
0.0
  0
CIRCLE
  5
23D
330
1F
100
AcDbEntity
  8
0
  6
CONTINUOUS
 62
     7
100
AcDbCircle
 10
-22.0
 20
77.0
 30
0.0
 40
5.0
  0
ARC
  5
23E
330
1F
100
AcDbEntity
  8
0
  6
DASHED
 62
     7
100
AcDbCircle
 10
-583.0
 20
511.5545043945312
 30
0.0
 40
1.25
100
AcDbArc
 50
36.86989730957868
 51
143.1300974540939
  0
ARC
  5
23F
330
1F
100
AcDbEntity
  8
0
  6
CENTER
 62
     7
100
AcDbCircle
 10
-209.0
 20
363.0
 30
0.0
 40
85.69999694824219
100
AcDbArc
 50
152.9436449516765
 51
177.0563574012209
  0
ARC
  5
240
330
1F
100
AcDbEntity
  8
0
  6
CENTER
 62
     7
100
AcDbCircle
 10
-209.0
 20
363.0
 30
0.0
 40
85.69999694824219
100
AcDbArc
 50
122.9436509470396
 51
147.0563497362057
  0
ARC
  5
241
330
1F
100
AcDbEntity
  8
0
  6
CENTER
 62
     7
100
AcDbCircle
 10
-209.0
 20
363.0
 30
0.0
 40
57.0
100
AcDbArc
 50
141.195938145308
 51
158.8040702029525
  0
ARC
  5
242
330
1F
100
AcDbEntity
  8
0
  6
CENTER
 62
     7
100
AcDbCircle
 10
-209.0
 20
363.0
 30
0.0
 40
85.69999694824219
100
AcDbArc
 50
2.943648888395885
 51
27.05634981199606
  0
ARC
  5
243
330
1F
100
AcDbEntity
  8
0
  6
CENTER
 62
     7
100
AcDbCircle
 10
-209.0
 20
363.0
 30
0.0
 40
57.0
100
AcDbArc
 50
21.1959365135511
 51
38.80406344855372
  0
ARC
  5
244
330
1F
100
AcDbEntity
  8
0
  6
CENTER
 62
     7
100
AcDbCircle
 10
-209.0
 20
363.0
 30
0.0
 40
85.69999694824219
100
AcDbArc
 50
32.94364844256147
 51
57.05635064682211
  0
ARC
  5
245
330
1F
100
AcDbEntity
  8
0
  6
CENTER
 62
     7
100
AcDbCircle
 10
-209.0
 20
363.0
 30
0.0
 40
85.69999694824219
100
AcDbArc
 50
272.9436519334464
 51
297.0563507226125
  0
ARC
  5
246
330
1F
100
AcDbEntity
  8
0
  6
CONTINUOUS
 62
     7
100
AcDbCircle
 10
-209.0
 20
363.0
 30
0.0
 40
153.6082305908203
100
AcDbArc
 50
218.8000320430817
 51
236.309932320083
  0
CIRCLE
  5
247
330
1F
100
AcDbEntity
  8
0
  6
CONTINUOUS
 62
     7
100
AcDbCircle
 10
-121.4881286621094
 20
312.4749984741211
 30
0.0
 40
13.0
  0
CIRCLE
  5
248
330
1F
100
AcDbEntity
  8
0
  6
CONTINUOUS
 62
     7
100
AcDbCircle
 10
-95.50736999511719
 20
297.4749984741211
 30
0.0
 40
13.0
  0
ARC
  5
249
330
1F
100
AcDbEntity
  8
0
  6
CONTINUOUS
 62
     7
100
AcDbCircle
 10
-555.1617736816406
 20
305.7718353271484
 30
0.0
 40
5.599999904632568
100
AcDbArc
 50
29.7529289868846
 51
78.0265033045274
  0
ARC
  5
24A
330
1F
100
AcDbEntity
  8
0
  6
CONTINUOUS
 62
     7
100
AcDbCircle
 10
-555.1617736816406
 20
306.2281646728516
 30
0.0
 40
5.599999904632568
100
AcDbArc
 50
281.9734898652835
 51
330.2470641829262
  0
ARC
  5
24B
330
1F
100
AcDbEntity
  8
0
  6
CONTINUOUS
 62
     7
100
AcDbCircle
 10
-209.0
 20
363.0
 30
0.0
 40
152.0
100
AcDbArc
 50
339.8490260804002
 51
80.15096534396817
  0
CIRCLE
  5
24C
330
1F
100
AcDbEntity
  8
0
  6
CONTINUOUS
 62
     7
100
AcDbCircle
 10
-126.2201614379883
 20
385.1807918548584
 30
0.0
 40
13.0
  0
CIRCLE
  5
24D
330
1F
100
AcDbEntity
  8
0
  6
CONTINUOUS
 62
     7
100
AcDbCircle
 10
-186.8192081451416
 20
280.2201614379883
 30
0.0
 40
13.0
  0
ARC
  5
24E
330
1F
100
AcDbEntity
  8
0
  6
CONTINUOUS
 62
     7
100
AcDbCircle
 10
-629.0
 20
447.0
 30
0.0
 40
2.0
100
AcDbArc
 50
90.00000250447816
 51
180.0000050089563
  0
ARC
  5
24F
330
1F
100
AcDbEntity
  8
0
  6
CONTINUOUS
 62
     7
100
AcDbCircle
 10
-629.0
 20
279.0
 30
0.0
 40
2.0
100
AcDbArc
 50
179.999991348578
 51
270.0000006832453
  0
CIRCLE
  5
250
330
1F
100
AcDbEntity
  8
0
  6
CONTINUOUS
 62
     7
100
AcDbCircle
 10
-209.0
 20
363.0
 30
0.0
 40
25.0
  0
CIRCLE
  5
251
330
1F
100
AcDbEntity
  8
0
  6
CONTINUOUS
 62
     7
100
AcDbCircle
 10
-549.5
 20
499.5500030517578
 30
0.0
 40
0.5
  0
ARC
  5
252
330
1F
100
AcDbEntity
  8
0
  6
CONTINUOUS
 62
     7
100
AcDbCircle
 10
-269.6689796447754
 20
327.9727478027344
 30
0.0
 40
10.75
100
AcDbArc
 50
312.3808056161686
 51
107.6192131289564
  0
ARC
  5
253
330
1F
100
AcDbEntity
  8
0
  6
CONTINUOUS
 62
     7
100
AcDbCircle
 10
-209.0
 20
363.0
 30
0.0
 40
64.0
100
AcDbArc
 50
353.9694821209363
 51
66.03051229163977
  0
CIRCLE
  5
254
330
1F
100
AcDbEntity
  8
0
  6
CONTINUOUS
 62
     7
100
AcDbCircle
 10
-148.400951385498
 20
423.599048614502
 30
0.0
 40
13.0
  0
CIRCLE
  5
255
330
1F
100
AcDbEntity
  8
0
  6
CONTINUOUS
 62
     7
100
AcDbCircle
 10
-291.7798385620117
 20
385.1807918548584
 30
0.0
 40
13.0
  0
CIRCLE
  5
256
330
1F
100
AcDbEntity
  8
0
  6
CONTINUOUS
 62
     7
100
AcDbCircle
 10
-269.599048614502
 20
423.599048614502
 30
0.0
 40
13.0
  0
ARC
  5
257
330
1F
100
AcDbEntity
  8
0
  6
CENTER
 62
     7
100
AcDbCircle
 10
-209.0
 20
363.0
 30
0.0
 40
85.69999694824219
100
AcDbArc
 50
242.9436442684312
 51
267.0563498877864
  0
CIRCLE
  5
258
330
1F
100
AcDbEntity
  8
0
  6
CONTINUOUS
 62
     7
100
AcDbCircle
 10
-231.1807918548584
 20
280.2201614379883
 30
0.0
 40
13.0
  0
CIRCLE
  5
259
330
1F
100
AcDbEntity
  8
0
  6
CONTINUOUS
 62
     7
100
AcDbCircle
 10
-209.0000006483389
 20
464.0500030517578
 30
0.0
 40
13.0
  0
CIRCLE
  5
25A
330
1F
100
AcDbEntity
  8
0
  6
CONTINUOUS
 62
     7
100
AcDbCircle
 10
-208.9999989250684
 20
494.0500030517578
 30
0.0
 40
13.0
  0
CIRCLE
  5
25B
330
1F
100
AcDbEntity
  8
0
  6
CONTINUOUS
 62
     7
100
AcDbCircle
 10
-322.4926300048828
 20
297.4749984741211
 30
0.0
 40
8.0
  0
CIRCLE
  5
25C
330
1F
100
AcDbEntity
  8
0
  6
CONTINUOUS
 62
     7
100
AcDbCircle
 10
-322.4926300048828
 20
297.4749984741211
 30
0.0
 40
7.0
  0
CIRCLE
  5
25D
330
1F
100
AcDbEntity
  8
0
  6
CONTINUOUS
 62
     7
100
AcDbCircle
 10
-296.5118713378906
 20
312.4749984741211
 30
0.0
 40
7.0
  0
CIRCLE
  5
25E
330
1F
100
AcDbEntity
  8
0
  6
CONTINUOUS
 62
     7
100
AcDbCircle
 10
-296.5118713378906
 20
312.4749984741211
 30
0.0
 40
8.0
  0
ARC
  5
25F
330
1F
100
AcDbEntity
  8
0
  6
CONTINUOUS
 62
     7
100
AcDbCircle
 10
-275.5146484375
 20
324.5977516174316
 30
0.0
 40
15.5
100
AcDbArc
 50
354.4511372428087
 51
65.54884735137047
  0
ARC
  5
260
330
1F
100
AcDbEntity
  8
0
  6
DASHED
 62
     7
100
AcDbCircle
 10
-275.5146484375
 20
324.5977516174316
 30
0.0
 40
15.5
100
AcDbArc
 50
65.54885418155963
 51
120.0000033393042
  0
ARC
  5
261
330
1F
100
AcDbEntity
  8
0
  6
DASHED
 62
     7
100
AcDbCircle
 10
-275.5146484375
 20
324.5977516174316
 30
0.0
 40
15.5
100
AcDbArc
 50
300.0000051605371
 51
354.4511338277141
  0
ARC
  5
262
330
1F
100
AcDbEntity
  8
0
  6
CONTINUOUS
 62
     7
100
AcDbCircle
 10
-209.0
 20
363.0
 30
0.0
 40
64.0
100
AcDbArc
 50
233.9694860387081
 51
306.0305191976193
  0
ARC
  5
263
330
1F
100
AcDbEntity
  8
0
  6
CONTINUOUS
 62
     7
100
AcDbCircle
 10
-209.0
 20
363.0
 30
0.0
 40
152.0
100
AcDbArc
 50
219.8490261561906
 51
320.1509722499477
  0
ARC
  5
264
330
1F
100
AcDbEntity
  8
0
  6
CENTER
 62
     7
100
AcDbCircle
 10
-209.0
 20
363.0
 30
0.0
 40
57.0
100
AcDbArc
 50
261.1959382968888
 51
278.8040635243441
  0
CIRCLE
  5
265
330
1F
100
AcDbEntity
  8
0
  6
CONTINUOUS
 62
     7
100
AcDbCircle
 10
-208.9999994595166
 20
306.0
 30
0.0
 40
5.75
  0
CIRCLE
  5
266
330
1F
100
AcDbEntity
  8
0
  6
CONTINUOUS
 62
     7
100
AcDbCircle
 10
-258.3634490966797
 20
391.5
 30
0.0
 40
5.75
  0
CIRCLE
  5
267
330
1F
100
AcDbEntity
  8
0
  6
CONTINUOUS
 62
     7
100
AcDbCircle
 10
-159.6365509033203
 20
391.5
 30
0.0
 40
5.75
  0
ARC
  5
268
330
1F
100
AcDbEntity
  8
0
  6
CONTINUOUS
 62
     7
100
AcDbCircle
 10
-209.0
 20
363.0
 30
0.0
 40
64.0
100
AcDbArc
 50
113.9694858871274
 51
186.030515630944
  0
ARC
  5
269
330
1F
100
AcDbEntity
  8
0
  6
CONTINUOUS
 62
     7
100
AcDbCircle
 10
-209.0
 20
363.0
 30
0.0
 40
152.0
100
AcDbArc
 50
99.84902600460984
 51
200.1509755134616
  0
ARC
  5
26A
330
1F
100
AcDbEntity
  8
0
  6
CENTER
 62
     7
100
AcDbCircle
 10
-209.0
 20
363.0
 30
0.0
 40
55.0
100
AcDbArc
 50
9.7894974698854
 51
48.39007780631712
  0
CIRCLE
  5
26B
330
1F
100
AcDbEntity
  8
0
  6
CONTINUOUS
 62
     7
100
AcDbCircle
 10
-155.8740795541012
 20
377.2350474806386
 30
0.0
 40
1.65
  0
CIRCLE
  5
26C
330
1F
100
AcDbEntity
  8
0
  6
CONTINUOUS
 62
     7
100
AcDbCircle
 10
-155.8740795541012
 20
377.2350474806386
 30
0.0
 40
2.0
  0
ARC
  5
26D
330
1F
100
AcDbEntity
  8
0
  6
CENTER
 62
     7
100
AcDbCircle
 10
-209.0
 20
363.0
 30
0.0
 40
55.0
100
AcDbArc
 50
129.7894974698854
 51
140.2105025301146
  0
CIRCLE
  5
26E
330
1F
100
AcDbEntity
  8
0
  6
CONTINUOUS
 62
     7
100
AcDbCircle
 10
-223.2350474806387
 20
309.8740795541012
 30
0.0
 40
1.65
  0
CIRCLE
  5
26F
330
1F
100
AcDbEntity
  8
0
  6
CONTINUOUS
 62
     7
100
AcDbCircle
 10
-247.8908729652601
 20
401.8908729652601
 30
0.0
 40
1.65
  0
CIRCLE
  5
270
330
1F
100
AcDbEntity
  8
0
  6
CONTINUOUS
 62
     7
100
AcDbCircle
 10
-223.2350474806387
 20
309.8740795541012
 30
0.0
 40
2.0
  0
ARC
  5
271
330
1F
100
AcDbEntity
  8
0
  6
CENTER
 62
     7
100
AcDbCircle
 10
-209.0
 20
363.0
 30
0.0
 40
55.0
100
AcDbArc
 50
225.3215649927854
 51
260.2105025301145
  0
CIRCLE
  5
272
330
1F
100
AcDbEntity
  8
0
  6
CONTINUOUS
 62
     7
100
AcDbCircle
 10
-247.8908729652601
 20
401.8908729652601
 30
0.0
 40
2.0
  0
CIRCLE
  5
273
330
1F
100
AcDbEntity
  8
0
  6
CONTINUOUS
 62
     7
100
AcDbCircle
 10
-209.0
 20
273.0
 30
0.0
 40
5.0
  0
CIRCLE
  5
274
330
1F
100
AcDbEntity
  8
0
  6
CONTINUOUS
 62
     7
100
AcDbCircle
 10
-209.0
 20
273.0
 30
0.0
 40
4.25
  0
CIRCLE
  5
275
330
1F
100
AcDbEntity
  8
0
  6
CONTINUOUS
 62
     7
100
AcDbCircle
 10
-209.0
 20
233.0
 30
0.0
 40
5.0
  0
CIRCLE
  5
276
330
1F
100
AcDbEntity
  8
0
  6
CONTINUOUS
 62
     7
100
AcDbCircle
 10
-209.0
 20
233.0
 30
0.0
 40
4.25
  0
CIRCLE
  5
277
330
1F
100
AcDbEntity
  8
0
  6
CONTINUOUS
 62
     7
100
AcDbCircle
 10
-131.0577136594005
 20
408.0
 30
0.0
 40
5.0
  0
CIRCLE
  5
278
330
1F
100
AcDbEntity
  8
0
  6
CONTINUOUS
 62
     7
100
AcDbCircle
 10
-131.0577136594005
 20
408.0
 30
0.0
 40
4.25
  0
CIRCLE
  5
279
330
1F
100
AcDbEntity
  8
0
  6
CONTINUOUS
 62
     7
100
AcDbCircle
 10
-96.41669750802296
 20
428.0
 30
0.0
 40
5.0
  0
CIRCLE
  5
27A
330
1F
100
AcDbEntity
  8
0
  6
CONTINUOUS
 62
     7
100
AcDbCircle
 10
-96.41669750802296
 20
428.0
 30
0.0
 40
4.25
  0
CIRCLE
  5
27B
330
1F
100
AcDbEntity
  8
0
  6
CONTINUOUS
 62
     7
100
AcDbCircle
 10
-286.9422863405995
 20
408.0
 30
0.0
 40
5.0
  0
CIRCLE
  5
27C
330
1F
100
AcDbEntity
  8
0
  6
CONTINUOUS
 62
     7
100
AcDbCircle
 10
-286.9422863405995
 20
408.0
 30
0.0
 40
4.25
  0
CIRCLE
  5
27D
330
1F
100
AcDbEntity
  8
0
  6
CONTINUOUS
 62
     7
100
AcDbCircle
 10
-321.583302491977
 20
428.0
 30
0.0
 40
5.0
  0
CIRCLE
  5
27E
330
1F
100
AcDbEntity
  8
0
  6
CONTINUOUS
 62
     7
100
AcDbCircle
 10
-321.583302491977
 20
428.0
 30
0.0
 40
4.25
  0
ARC
  5
27F
330
1F
100
AcDbEntity
  8
0
  6
CONTINUOUS
 62
     7
100
AcDbCircle
 10
-209.0
 20
363.0
 30
0.0
 40
48.50000381469727
100
AcDbArc
 50
1.028465765103204
 51
58.97153378960475
  0
ARC
  5
280
330
1F
100
AcDbEntity
  8
0
  6
CONTINUOUS
 62
     7
100
AcDbCircle
 10
-209.0
 20
363.0
 30
0.0
 40
46.5
100
AcDbArc
 50
358.0185235250498
 51
61.98147602965824
  0
ARC
  5
281
330
1F
100
AcDbEntity
  8
0
  6
CONTINUOUS
 62
     7
100
AcDbCircle
 10
-209.0
 20
363.0
 30
0.0
 40
48.50000381469727
100
AcDbArc
 50
121.0284662103953
 51
298.9715333443127
  0
ARC
  5
282
330
1F
100
AcDbEntity
  8
0
  6
CONTINUOUS
 62
     7
100
AcDbCircle
 10
-209.0
 20
363.0
 30
0.0
 40
46.5
100
AcDbArc
 50
118.0185239703418
 51
301.9814755843662
  0
ARC
  5
283
330
1F
100
AcDbEntity
  8
0
  6
DASHED
 62
     7
100
AcDbCircle
 10
-80.34802252933072
 20
288.7227478245785
 30
0.0
 40
1.25
100
AcDbArc
 50
276.8698968642866
 51
23.13009700880183
  0
ARC
  5
284
330
1F
100
AcDbEntity
  8
0
  6
DASHED
 62
     7
100
AcDbCircle
 10
-337.6519774706693
 20
288.7227478245785
 30
0.0
 40
1.25
100
AcDbArc
 50
156.8698977548707
 51
263.130097899386
  0
ARC
  5
285
330
1F
100
AcDbEntity
  8
0
  6
DASHED
 62
     7
100
AcDbCircle
 10
-209.0
 20
511.5545043945312
 30
0.0
 40
1.25
100
AcDbArc
 50
36.86989730957868
 51
143.1300974540939
  0
SPLINE
  5
286
330
1F
100
AcDbEntity
  8
0
  6
CONTINUOUS
 62
     7
100
AcDbSpline
210
0.0
220
0.0
230
1.0
 70
  1064
 71
     3
 72
    12
 73
     8
 74
     6
 42
0.0000000001
 43
0.0000000001
 44
0.0000000001
 12
0.9964512646873538
 22
-0.0841717120116581
 32
0.0
 13
0.7504288803032946
 23
-0.6609512051632432
 33
0.0
 40
0.0
 40
0.0
 40
0.0
 40
0.0
 40
20.16958312096028
 40
30.68136750214255
 40
41.67198066676539
 40
65.5529883898302
 40
73.3122667551637
 40
73.3122667551637
 40
73.3122667551637
 40
73.3122667551637
 10
-462.0
 20
109.1999969482422
 30
0.0
 10
-455.3006644636341
 20
108.6340941676246
 30
0.0
 10
-444.9957376169856
 20
107.9304084251985
 30
0.0
 10
-431.7788932116911
 20
103.4580915973163
 30
0.0
 10
-417.9964041779596
 20
97.17900377329643
 30
0.0
 10
-406.144054669168
 20
89.15812270056385
 30
0.0
 10
-397.9409288585529
 20
82.52950115707897
 30
0.0
 10
-396.0
 20
80.81999969482422
 30
0.0
 11
-462.0
 21
109.1999969482422
 31
0.0
 11
-442.0
 21
106.5900001525879
 31
0.0
 11
-432.0
 21
103.3499984741211
 31
0.0
 11
-422.0
 21
98.79000091552734
 31
0.0
 11
-402.0
 21
85.73999977111816
 31
0.0
 11
-396.0
 21
80.81999969482422
 31
0.0
  0
SPLINE
  5
287
330
1F
100
AcDbEntity
  8
0
  6
CONTINUOUS
 62
     7
100
AcDbSpline
210
0.0
220
0.0
230
1.0
 70
  1064
 71
     3
 72
    10
 73
     6
 74
     4
 42
0.0000000001
 43
0.0000000001
 44
0.0000000001
 12
-0.4554628231039373
 22
-0.8902548044072502
 32
0.0
 13
-0.5592705295446802
 23
-0.8289852078190616
 33
0.0
 40
0.0
 40
0.0
 40
0.0
 40
0.0
 40
7.50119785256083
 40
16.30582534796183
 40
25.26671338155969
 40
25.26671338155969
 40
25.26671338155969
 40
25.26671338155969
 10
-588.1326599121094
 20
289.7338333129883
 30
0.0
 10
-589.2714988289722
 20
287.5078408373044
 30
0.0
 10
-591.4100797193752
 20
281.9102792587731
 30
0.0
 10
-585.8938949232886
 20
274.1127077788316
 30
0.0
 10
-588.8809629557165
 20
268.0218174319226
 30
0.0
 10
-590.5514831542969
 20
265.5456695556641
 30
0.0
 11
-588.1326599121094
 21
289.7338333129883
 31
0.0
 11
-590.0331726074219
 21
282.4773864746094
 31
0.0
 11
-587.6143493652344
 21
274.0115280151367
 31
0.0
 11
-590.5514831542969
 21
265.5456695556641
 31
0.0
  0
SPLINE
  5
288
330
1F
100
AcDbEntity
  8
0
  6
CONTINUOUS
 62
     7
100
AcDbSpline
210
0.0
220
0.0
230
1.0
 70
  1064
 71
     3
 72
    10
 73
     6
 74
     4
 42
0.0000000001
 43
0.0000000001
 44
0.0000000001
 12
0.07349200593746609
 22
-0.9972958061995887
 32
0.0
 13
0.1286893168157736
 23
-0.9916849599230037
 33
0.0
 40
0.0
 40
0.0
 40
0.0
 40
0.0
 40
8.14233854061275
 40
17.45604596121231
 40
26.47503697439191
 40
26.47503697439191
 40
26.47503697439191
 40
26.47503697439191
 10
-642.5560302734375
 20
288.5244216918945
 30
0.0
 10
-642.3565646759803
 20
285.8176483321577
 30
0.0
 10
-641.0907332145399
 20
279.4747329881938
 30
0.0
 10
-631.9319053979677
 20
275.7748788671382
 30
0.0
 10
-630.3305166304876
 20
269.2180955809719
 30
0.0
 10
-629.9436340332031
 20
266.2367630004883
 30
0.0
 11
-642.5560302734375
 21
288.5244216918945
 31
0.0
 11
-640.13720703125
 21
280.7496566772461
 31
0.0
 11
-633.0535278320312
 21
274.7026214599609
 31
0.0
 11
-629.9436340332031
 21
266.2367630004883
 31
0.0
  0
MTEXT
  5
289
330
1F
100
AcDbEntity
  8
0
 62
     7
100
AcDbMText
 10
-22.20000000298023
 20
77.60000002384186
 30
0.0
 40
7.0
 41
0.0
 71
     5
 72
     1
  1
{\W1;S}
  0
MTEXT
  5
28A
330
1F
100
AcDbEntity
  8
0
 62
     7
100
AcDbMText
 10
-442.0
 20
63.0
 30
0.0
 40
3.0
 41
0.0
 71
     5
 72
     1
  1
{\W1;1000}
  0
MTEXT
  5
28B
330
1F
100
AcDbEntity
  8
0
 62
     7
100
AcDbMText
 10
-422.0
 20
63.0
 30
0.0
 40
3.0
 41
0.0
 71
     5
 72
     1
  1
{\W1;2000}
  0
MTEXT
  5
28C
330
1F
100
AcDbEntity
  8
0
 62
     7
100
AcDbMText
 10
-465.0
 20
63.0
 30
0.0
 40
3.0
 41
0.0
 71
     5
 72
     1
  1
{\W1;0}
  0
MTEXT
  5
28D
330
1F
100
AcDbEntity
  8
0
 62
     7
100
AcDbMText
 10
-422.0
 20
57.0
 30
0.0
 40
3.5
 41
0.0
 71
     5
 72
     1
  1
{\W0.833333;回転数（ｒ／ｍｉｎ）}
  0
MTEXT
  5
28E
330
1F
100
AcDbEntity
  8
0
 62
     7
100
AcDbMText
 10
-476.0
 20
90.0
 30
0.0
 40
3.5
 41
0.0
 71
     5
 72
     1
  1
{\W0.833333;把握力（ｋＮ）}
 11
6.123233995736766E-17
 21
1.0
 31
0.0
  0
MTEXT
  5
28F
330
1F
100
AcDbEntity
  8
0
 62
     7
100
AcDbMText
 10
-469.2857142388821
 20
76.5
 30
0.0
 40
3.0
 41
0.0
 71
     7
 72
     1
  1
{\W1;40}
  0
MTEXT
  5
290
330
1F
100
AcDbEntity
  8
0
 62
     7
100
AcDbMText
 10
-402.0
 20
63.0
 30
0.0
 40
3.0
 41
0.0
 71
     5
 72
     1
  1
{\W1;3000}
  0
MTEXT
  5
291
330
1F
100
AcDbEntity
  8
0
 62
     7
100
AcDbMText
 10
-382.0
 20
63.0
 30
0.0
 40
3.0
 41
0.0
 71
     5
 72
     1
  1
{\W1;4000}
  0
MTEXT
  5
292
330
1F
100
AcDbEntity
  8
0
 62
     7
100
AcDbMText
 10
-422.0
 20
119.0
 30
0.0
 40
3.5
 41
0.0
 71
     5
 72
     1
  1
{\W0.833333;把握力特性図（標準生爪使用時）}
  0
MTEXT
  5
293
330
1F
100
AcDbEntity
  8
0
 62
     7
100
AcDbMText
 10
-469.2857142388821
 20
88.5
 30
0.0
 40
3.0
 41
0.0
 71
     7
 72
     1
  1
{\W1;80}
  0
MTEXT
  5
294
330
1F
100
AcDbEntity
  8
0
 62
     7
100
AcDbMText
 10
-472.2857142090797
 20
100.5
 30
0.0
 40
3.0
 41
0.0
 71
     7
 72
     1
  1
{\W1;120}
  0
MTEXT
  5
295
330
1F
100
AcDbEntity
  8
0
 62
     7
100
AcDbMText
 10
-395.5535714285714
 20
66.625
 30
0.0
 40
2.5
 41
0.0
 71
     7
 72
     1
  1
{\W1;3300}
  0
MTEXT
  5
296
330
1F
100
AcDbEntity
  8
0
 62
     7
100
AcDbMText
 10
-472.2857142090797
 20
112.5
 30
0.0
 40
3.0
 41
0.0
 71
     7
 72
     1
  1
{\W1;160}
  0
DIMENSION
  5
297
330
1F
100
AcDbEntity
  8
0
 62
     7
100
AcDbDimension
  2
*D2
 10
-498.698974609375
 20
544.5
 30
0.0
 11
-524.3484873046875
 21
544.5
 31
0.0
 70
   160
  1
51
  3
ISO-25
100
AcDbAlignedDimension
 13
-550.0
 23
513.0000152587891
 33
0.0
 14
-498.698974609375
 24
515.0500030517578
 34
0.0
 50
180.0
100
AcDbRotatedDimension
1001
ACAD
1000
DSTYLE
1002
{
1070
   287
1070
     3
1070
     7
1000
OPEN30
1070
     6
1000
OPEN30
1070
   278
1070
    46
1070
   147
1040
0.875
1070
    77
1070
     1
1070
    74
1070
     0
1070
    73
1070
     0
1070
    42
1040
2.54
1070
    44
1040
1.270004272460938
1070
    76
1070
     0
1070
    75
1070
     0
1070
   279
1070
     0
1070
   271
1070
     0
1070
   173
1070
     1
1070
    41
1040
3.0
1070
   140
1040
3.5
1002
}
  0
DIMENSION
  5
2AB
330
1F
100
AcDbEntity
  8
0
 62
     7
100
AcDbDimension
  2
*D3
 10
-473.0
 20
515.0500030517578
 30
0.0
 11
-473.0
 21
459.5510030517578
 31
0.0
 70
   160
  1
111
  3
ISO-25
100
AcDbAlignedDimension
 13
-498.698974609375
 23
404.0500030517578
 33
0.0
 14
-498.698974609375
 24
515.0500030517578
 34
0.0
 50
270.0
100
AcDbRotatedDimension
1001
ACAD
1000
DSTYLE
1002
{
1070
   287
1070
     3
1070
     7
1000
OPEN30
1070
     6
1000
OPEN30
1070
   278
1070
    46
1070
   147
1040
0.875
1070
    77
1070
     1
1070
    74
1070
     0
1070
    73
1070
     0
1070
    42
1040
2.54
1070
    44
1040
1.269989013671875
1070
    76
1070
     0
1070
    75
1070
     0
1070
   279
1070
     0
1070
   271
1070
     0
1070
   173
1070
     1
1070
    41
1040
3.0
1070
   140
1040
3.5
1002
}
  0
DIMENSION
  5
2B8
330
1F
100
AcDbEntity
  8
0
 62
     7
100
AcDbDimension
  2
*D4
 10
-484.0
 20
515.0500030517578
 30
0.0
 11
-484.0
 21
504.5510030517578
 31
0.0
 70
   160
  1
21
  3
ISO-25
100
AcDbAlignedDimension
 13
-490.5
 23
494.0500030517578
 33
0.0
 14
-498.698974609375
 24
515.0500030517578
 34
0.0
 50
270.0
100
AcDbRotatedDimension
1001
ACAD
1000
DSTYLE
1002
{
1070
   287
1070
     3
1070
     7
1000
OPEN30
1070
     6
1000
OPEN30
1070
   278
1070
    46
1070
   147
1040
0.875
1070
    77
1070
     1
1070
    74
1070
     0
1070
    73
1070
     0
1070
    42
1040
2.54
1070
    44
1040
1.269989013671875
1070
    76
1070
     1
1070
    75
1070
     1
1070
   279
1070
     0
1070
   271
1070
     0
1070
   173
1070
     1
1070
    41
1040
3.0
1070
   140
1040
3.5
1002
}
  0
DIMENSION
  5
2C3
330
1F
100
AcDbEntity
  8
0
 62
     7
100
AcDbDimension
  2
*D5
 10
-483.999
 20
464.0500030517578
 30
0.0
 11
-483.999
 21
479.0510030517578
 31
0.0
 70
   160
  1
30
  3
ISO-25
100
AcDbAlignedDimension
 13
-493.6990051269531
 23
494.0500030517578
 33
0.0
 14
-490.5
 24
464.0500030517578
 34
0.0
 50
90.00000000000001
100
AcDbRotatedDimension
1001
ACAD
1000
DSTYLE
1002
{
1070
   287
1070
     3
1070
     7
1000
OPEN30
1070
     6
1000
OPEN30
1070
   278
1070
    46
1070
   147
1040
0.875
1070
    77
1070
     1
1070
    74
1070
     0
1070
    73
1070
     0
1070
    42
1040
2.54
1070
    44
1040
1.269989013671875
1070
    76
1070
     1
1070
    75
1070
     0
1070
   279
1070
     0
1070
   271
1070
     0
1070
   173
1070
     1
1070
    41
1040
3.0
1070
   140
1040
3.5
1002
}
  0
DIMENSION
  5
2CF
330
1F
100
AcDbEntity
  8
0
 62
     7
100
AcDbDimension
  2
*D6
 10
-725.998
 20
211.0
 30
0.0
 11
-725.998
 21
363.001
 31
0.0
 70
   161
  1
\U+2205304
  3
ISO-25
100
AcDbAlignedDimension
 13
-658.0
 23
515.0
 33
0.0
 14
-658.0
 24
211.0
 34
0.0
1001
ACAD
1000
DSTYLE
1002
{
1070
   287
1070
     3
1070
     7
1000
OPEN30
1070
     6
1000
OPEN30
1070
   278
1070
    46
1070
   147
1040
0.875
1070
    77
1070
     1
1070
    74
1070
     0
1070
    73
1070
     0
1070
    42
1040
2.54
1070
    44
1040
1.27001953125
1070
    76
1070
     0
1070
    75
1070
     0
1070
   279
1070
     0
1070
   271
1070
     0
1070
   173
1070
     1
1070
    41
1040
3.0
1070
   140
1040
3.5
1002
}
  0
DIMENSION
  5
2DC
330
1F
100
AcDbEntity
  8
0
 62
     7
100
AcDbDimension
  2
*D8
 10
-505.999
 20
299.0
 30
0.0
 11
-505.999
 21
363.001
 31
0.0
 70
   160
  1
\U+2205128
  3
ISO-25
100
AcDbAlignedDimension
 13
-550.5
 23
427.0
 33
0.0
 14
-550.0
 24
299.0
 34
0.0
 50
90.00000000000001
100
AcDbRotatedDimension
1001
ACAD
1000
DSTYLE
1002
{
1070
   287
1070
     3
1070
     7
1000
OPEN30
1070
     6
1000
NONE
1070
   278
1070
    46
1070
   147
1040
0.875
1070
    77
1070
     1
1070
    74
1070
     0
1070
    73
1070
     0
1070
    42
1040
2.54
1070
    44
1040
1.269989013671875
1070
    76
1070
     0
1070
    75
1070
     1
1070
   279
1070
     0
1070
   271
1070
     0
1070
   173
1070
     1
1070
    41
1040
3.0
1070
   140
1040
3.5
1002
}
  0
DIMENSION
  5
2EE
330
1F
100
AcDbEntity
  8
0
 62
     7
100
AcDbDimension
  2
*D9
 10
-516.999
 20
306.0
 30
0.0
 11
-516.999
 21
363.001
 31
0.0
 70
   160
  1
\U+2205114
  3
ISO-25
100
AcDbAlignedDimension
 13
-543.578125
 23
420.0
 33
0.0
 14
-547.5
 24
306.0
 34
0.0
 50
90.00000000000001
100
AcDbRotatedDimension
1001
ACAD
1000
DSTYLE
1002
{
1070
   287
1070
     3
1070
     7
1000
OPEN30
1070
     6
1000
NONE
1070
   278
1070
    46
1070
   147
1040
0.875
1070
    77
1070
     1
1070
    74
1070
     0
1070
    73
1070
     0
1070
    42
1040
2.54
1070
    44
1040
1.269989013671875
1070
    76
1070
     0
1070
    75
1070
     1
1070
   279
1070
     0
1070
   271
1070
     0
1070
   173
1070
     1
1070
    41
1040
3.0
1070
   140
1040
3.5
1002
}
  0
DIMENSION
  5
2FD
330
1F
100
AcDbEntity
  8
0
 62
     7
100
AcDbDimension
  2
*D10
 10
-402.4043472456182
 20
308.058908976823
 30
0.0
 11
-411.126955073396
 21
303.0229089090325
 31
0.0
 70
   160
  1
2
  3
ISO-25
100
AcDbAlignedDimension
 13
-398.3255006670307
 23
296.9941396470766
 33
0.0
 14
-390.8434497898319
 24
288.0348475617048
 34
0.0
 50
210.0000004452932
100
AcDbRotatedDimension
1001
ACAD
1000
DSTYLE
1002
{
1070
   287
1070
     3
1070
     7
1000
NONE
1070
     6
1000
OPEN30
1070
   278
1070
    46
1070
   147
1040
0.875
1070
    77
1070
     1
1070
    74
1070
     0
1070
    73
1070
     0
1070
    42
1040
2.54
1070
    44
1040
1.269996643066412
1070
    76
1070
     1
1070
    75
1070
     1
1070
   279
1070
     0
1070
   271
1070
     0
1070
   173
1070
     1
1070
    41
1040
3.0
1070
   140
1040
3.5
1002
}
  0
DIMENSION
  5
30D
330
1F
100
AcDbEntity
  8
0
 62
     7
100
AcDbDimension
  2
*D11
 10
-424.0234913701141
 20
221.8242985345248
 30
0.0
 11
-431.3986734619141
 21
234.5984884033203
 31
0.0
 70
   161
  1
29.5
  3
ISO-25
100
AcDbAlignedDimension
 13
-403.837998196117
 23
267.5420657976695
 33
0.0
 14
-389.0879975207276
 24
241.9943156747566
 34
0.0
1001
ACAD
1000
DSTYLE
1002
{
1070
   287
1070
     3
1070
     7
1000
OPEN30
1070
     6
1000
OPEN30
1070
   278
1070
    46
1070
   147
1040
0.875
1070
    77
1070
     1
1070
    74
1070
     0
1070
    73
1070
     0
1070
    42
1040
2.54
1070
    44
1040
1.269989013671857
1070
    76
1070
     0
1070
    75
1070
     0
1070
   279
1070
     0
1070
    78
1070
     0
1070
   271
1070
     1
1070
   173
1070
     1
1070
    41
1040
3.0
1070
   140
1040
3.5
1002
}
  0
DIMENSION
  5
31A
330
1F
100
AcDbEntity
  8
0
 62
     7
100
AcDbDimension
  2
*D12
 10
-370.5051492366528
 20
281.879317051342
 30
0.0
 11
-365.2555847167969
 21
272.7868047485351
 31
0.0
 70
   161
  1
21h8
  3
ISO-25
100
AcDbAlignedDimension
 13
-370.6448947785796
 23
257.5499246100829
 33
0.0
 14
-381.1448944430848
 24
275.736457182046
 34
0.0
1001
ACAD
1000
DSTYLE
1002
{
1070
   287
1070
     3
1070
     7
1000
OPEN30
1070
     6
1000
OPEN30
1070
   278
1070
    46
1070
   147
1040
0.875
1070
    77
1070
     1
1070
    74
1070
     0
1070
    73
1070
     0
1070
    42
1040
2.54
1070
    44
1040
1.270004272460968
1070
    76
1070
     0
1070
    75
1070
     0
1070
   279
1070
     0
1070
   271
1070
     0
1070
   173
1070
     1
1070
    41
1040
3.0
1070
   140
1040
3.5
1002
}
  0
DIMENSION
  5
328
330
1F
100
AcDbEntity
  8
0
 62
     7
100
AcDbDimension
  2
*D13
 10
-184.0
 20
528.0
 30
0.0
 11
-208.999
 21
528.0
 31
0.0
 70
   160
  1
50
  3
ISO-25
100
AcDbAlignedDimension
 13
-234.0
 23
515.0500030517578
 33
0.0
 14
-184.0
 24
515.0500030517578
 34
0.0
 50
180.0
100
AcDbRotatedDimension
1001
ACAD
1000
DSTYLE
1002
{
1070
   287
1070
     3
1070
     7
1000
OPEN30
1070
     6
1000
OPEN30
1070
   278
1070
    46
1070
   147
1040
0.875
1070
    77
1070
     1
1070
    74
1070
     0
1070
    73
1070
     0
1070
    42
1040
2.54
1070
    44
1040
1.270004272460938
1070
    76
1070
     0
1070
    75
1070
     0
1070
   279
1070
     0
1070
   271
1070
     0
1070
   173
1070
     1
1070
    41
1040
3.0
1070
   140
1040
3.5
1002
}
  0
DIMENSION
  5
335
330
1F
100
AcDbEntity
  8
0
 62
     7
100
AcDbDimension
  2
*D14
 10
-193.6606529978173
 20
187.6704317536289
 30
0.0
 11
-186.0253838043213
 21
188.5066762695313
 31
0.0
 70
   165
  1
15°
  3
ISO-25
100
AcDb3PointAngularDimension
 13
-208.9999999999996
 23
201.0
 33
0.0
 14
-182.1604733857506
 24
262.8334927324083
 34
0.0
 15
-208.9999999999996
 25
362.9999688683391
 35
0.0
1001
ACAD
1000
DSTYLE
1002
{
1070
   287
1070
     3
1070
     7
1000
OPEN30
1070
     6
1000
OPEN30
1070
   278
1070
    46
1070
   275
1070
     1
1070
   147
1040
0.875
1070
    77
1070
     1
1070
    74
1070
     0
1070
    73
1070
     0
1070
    42
1040
2.54
1070
    44
1040
1.270004792391673
1070
    76
1070
     0
1070
    75
1070
     1
1070
   279
1070
     0
1070
   179
1070
     0
1070
   173
1070
     1
1070
    41
1040
3.0
1070
   140
1040
3.5
1002
}
  0
DIMENSION
  5
343
330
1F
100
AcDbEntity
  8
0
 62
     7
100
AcDbDimension
  2
*D15
 10
-239.5618607208056
 20
189.6750708470003
 30
0.0
 11
-231.9706123809814
 21
188.5067067871094
 31
0.0
 70
   165
  1
15°
  3
ISO-25
100
AcDb3PointAngularDimension
 13
-235.8395330248572
 23
262.8334944501255
 33
0.0
 14
-208.9999999999996
 24
206.0
 34
0.0
 15
-208.9999999999996
 25
362.9999945107736
 35
0.0
1001
ACAD
1000
DSTYLE
1002
{
1070
   287
1070
     3
1070
     7
1000
OPEN30
1070
     6
1000
OPEN30
1070
   278
1070
    46
1070
   275
1070
     1
1070
   147
1040
0.875
1070
    77
1070
     1
1070
    74
1070
     0
1070
    73
1070
     0
1070
    42
1040
2.54
1070
    44
1040
1.269996643066406
1070
    76
1070
     0
1070
    75
1070
     0
1070
   279
1070
     0
1070
   179
1070
     0
1070
   173
1070
     1
1070
    41
1040
3.0
1070
   140
1040
3.5
1002
}
  0
INSERT
  5
357
330
1F
100
AcDbEntity
  8
0
 62
     7
100
AcDbBlockReference
  2
SYM0001
 10
-210.9072312729399
 20
510.5049510462831
 30
0.0
  0
INSERT
  5
35F
330
1F
100
AcDbEntity
  8
0
 62
     7
100
AcDbBlockReference
  2
SYM0002
 10
-584.8325287741449
 20
510.4653148228895
 30
0.0
  0
INSERT
  5
368
330
1F
100
AcDbEntity
  8
0
 62
     7
100
AcDbBlockReference
  2
SYM0003
 10
-585.9999982103138
 20
500.0258363880084
 30
0.0
  0
DIMENSION
  5
36B
330
1F
100
AcDbEntity
  8
0
 62
     7
100
AcDbDimension
  2
*D19
 10
-598.6651447753907
 20
496.8045043945312
 30
0.0
 11
-598.6651447753907
 21
500.3055043945312
 31
0.0
 70
   160
  1
7
  3
ISO-25
100
AcDbAlignedDimension
 13
-590.75
 23
503.8045043945312
 33
0.0
 14
-586.0
 24
496.8045043945312
 34
0.0
 50
90.00000000000001
100
AcDbRotatedDimension
1001
ACAD
1000
DSTYLE
1002
{
1070
   287
1070
     3
1070
     7
1000
OPEN30
1070
     6
1000
OPEN30
1070
   278
1070
    46
1070
   147
1040
0.875
1070
    77
1070
     1
1070
    74
1070
     0
1070
    73
1070
     0
1070
    42
1040
2.54
1070
    44
1040
1.27001953125
1070
    76
1070
     0
1070
    75
1070
     1
1070
   279
1070
     0
1070
   271
1070
     0
1070
   173
1070
     1
1070
    41
1040
3.0
1070
   140
1040
3.5
1002
}
  0
DIMENSION
  5
379
330
1F
100
AcDbEntity
  8
0
 62
     7
100
AcDbDimension
  2
*D20
 10
-598.6651447753907
 20
503.8045043945312
 30
0.0
 11
-598.6651447753907
 21
509.30324609375
 31
0.0
 70
   160
  1
11
  3
ISO-25
100
AcDbAlignedDimension
 13
-592.0
 23
514.8000030517578
 33
0.0
 14
-590.75
 24
503.8045043945312
 34
0.0
 50
90.00000000000001
100
AcDbRotatedDimension
1001
ACAD
1000
DSTYLE
1002
{
1070
   287
1070
     3
1070
     7
1000
OPEN30
1070
     6
1000
OPEN30
1070
   278
1070
    46
1070
   147
1040
0.875
1070
    77
1070
     1
1070
    74
1070
     0
1070
    73
1070
     0
1070
    42
1040
2.54
1070
    44
1040
1.27001953125
1070
    76
1070
     0
1070
    75
1070
     0
1070
   279
1070
     0
1070
   271
1070
     0
1070
   173
1070
     1
1070
    41
1040
3.0
1070
   140
1040
3.5
1002
}
  0
DIMENSION
  5
386
330
1F
100
AcDbEntity
  8
0
 62
     7
100
AcDbDimension
  2
*D21
 10
-550.0
 20
533.5
 30
0.0
 11
-566.499
 21
533.5
 31
0.0
 70
   160
  1
33
  3
ISO-25
100
AcDbAlignedDimension
 13
-583.0
 23
527.9157562255859
 33
0.0
 14
-550.0
 24
513.0
 34
0.0
 50
180.0
100
AcDbRotatedDimension
1001
ACAD
1000
DSTYLE
1002
{
1070
   287
1070
     3
1070
     7
1000
OPEN30
1070
     6
1000
OPEN30
1070
   278
1070
    46
1070
   147
1040
0.875
1070
    77
1070
     1
1070
    74
1070
     0
1070
    73
1070
     0
1070
    42
1040
2.54
1070
    44
1040
1.270004272460938
1070
    76
1070
     1
1070
    75
1070
     0
1070
   279
1070
     0
1070
   271
1070
     0
1070
   173
1070
     1
1070
    41
1040
3.0
1070
   140
1040
3.5
1002
}
  0
DIMENSION
  5
392
330
1F
100
AcDbEntity
  8
0
 62
     7
100
AcDbDimension
  2
*D22
 10
-575.25
 20
522.5
 30
0.0
 11
-582.999
 21
522.5
 31
0.0
 70
   160
  1
\U+220515.5
  3
ISO-25
100
AcDbAlignedDimension
 13
-590.75
 23
514.8045043945312
 33
0.0
 14
-575.25
 24
514.8045043945312
 34
0.0
 50
180.0
100
AcDbRotatedDimension
1001
ACAD
1000
DSTYLE
1002
{
1070
   287
1070
     3
1070
     7
1000
OPEN30
1070
     6
1000
OPEN30
1070
   278
1070
    46
1070
   147
1040
0.875
1070
    77
1070
     1
1070
    74
1070
     0
1070
    73
1070
     0
1070
    42
1040
2.54
1070
    44
1040
1.270004272460938
1070
    76
1070
     0
1070
    75
1070
     0
1070
   279
1070
     0
1070
    78
1070
     0
1070
   271
1070
     1
1070
   173
1070
     1
1070
    41
1040
3.0
1070
   140
1040
3.5
1002
}
  0
INSERT
  5
3A5
330
1F
100
AcDbEntity
  8
0
 62
     7
100
AcDbBlockReference
  2
SYM0004
 10
-548.0000010034096
 20
512.2232132788314
 30
0.0
  0
DIMENSION
  5
3A8
330
1F
100
AcDbEntity
  8
0
 62
     7
100
AcDbDimension
  2
*D24
 10
-550.0
 20
544.5
 30
0.0
 11
-570.999
 21
544.5
 31
0.0
 70
   160
  1
42
  3
ISO-25
100
AcDbAlignedDimension
 13
-592.0
 23
516.6082305908203
 33
0.0
 14
-550.0
 24
513.0
 34
0.0
 50
180.0
100
AcDbRotatedDimension
1001
ACAD
1000
DSTYLE
1002
{
1070
   287
1070
     3
1070
     7
1000
OPEN30
1070
     6
1000
OPEN30
1070
   278
1070
    46
1070
   147
1040
0.875
1070
    77
1070
     1
1070
    74
1070
     0
1070
    73
1070
     0
1070
    42
1040
2.54
1070
    44
1040
1.270004272460938
1070
    76
1070
     1
1070
    75
1070
     0
1070
   279
1070
     0
1070
   271
1070
     0
1070
   173
1070
     1
1070
    41
1040
3.0
1070
   140
1040
3.5
1002
}
  0
DIMENSION
  5
3B4
330
1F
100
AcDbEntity
  8
0
 62
     7
100
AcDbDimension
  2
*D25
 10
-677.0
 20
176.001
 30
0.0
 11
-665.498
 21
176.001
 31
0.0
 70
   160
  1
23
  3
ISO-25
100
AcDbAlignedDimension
 13
-654.0
 23
253.0
 33
0.0
 14
-677.0
 24
269.3000030517578
 34
0.0
100
AcDbRotatedDimension
1001
ACAD
1000
DSTYLE
1002
{
1070
   287
1070
     3
1070
     7
1000
OPEN30
1070
     6
1000
OPEN30
1070
   278
1070
    46
1070
   147
1040
0.875
1070
    77
1070
     1
1070
    74
1070
     0
1070
    73
1070
     0
1070
    42
1040
2.54
1070
    44
1040
1.270004272460938
1070
    76
1070
     0
1070
    75
1070
     1
1070
   279
1070
     0
1070
   271
1070
     0
1070
   173
1070
     1
1070
    41
1040
3.0
1070
   140
1040
3.5
1002
}
  0
DIMENSION
  5
3C0
330
1F
100
AcDbEntity
  8
0
 62
     7
100
AcDbDimension
  2
*D26
 10
-550.0
 20
176.001
 30
0.0
 11
-601.999
 21
176.001
 31
0.0
 70
   160
  1
104
  3
ISO-25
100
AcDbAlignedDimension
 13
-654.0
 23
253.0
 33
0.0
 14
-550.0
 24
213.0
 34
0.0
 50
180.0
100
AcDbRotatedDimension
1001
ACAD
1000
DSTYLE
1002
{
1070
   287
1070
     3
1070
     7
1000
OPEN30
1070
     6
1000
OPEN30
1070
   278
1070
    46
1070
   147
1040
0.875
1070
    77
1070
     1
1070
    74
1070
     0
1070
    73
1070
     0
1070
    42
1040
2.54
1070
    44
1040
1.270004272460938
1070
    76
1070
     1
1070
    75
1070
     0
1070
   279
1070
     0
1070
   271
1070
     0
1070
   173
1070
     1
1070
    41
1040
3.0
1070
   140
1040
3.5
1002
}
  0
DIMENSION
  5
3CC
330
1F
100
AcDbEntity
  8
0
 62
     7
100
AcDbDimension
  2
*D27
 10
-297.5731991032392
 20
237.4998928053822
 30
0.0
 11
-304.4599791452756
 21
227.7419565193289
 31
0.0
 70
   163
  1
\U+2205307.2
  3
ISO-25
100
AcDbDiametricDimension
 15
-189.7961795854993
 25
390.2100538872587
 35
0.0
 40
0.0
1001
ACAD
1000
DSTYLE
1002
{
1070
   287
1070
     3
1070
     7
1000
OPEN30
1070
     6
1000
NONE
1070
   147
1040
0.875
1070
    77
1070
     1
1070
    74
1070
     0
1070
    73
1070
     0
1070
   279
1070
     0
1070
    78
1070
     0
1070
   271
1070
     1
1070
   278
1070
    46
1070
   173
1070
     1
1070
    41
1040
3.0
1070
   140
1040
3.5
1002
}
  0
DIMENSION
  5
3DB
330
1F
100
AcDbEntity
  8
0
 62
     7
100
AcDbDimension
  2
*D28
 10
-571.999
 20
464.0500030517578
 30
0.0
 11
-571.999
 21
444.5510030517578
 31
0.0
 70
   160
  1
MAX 45\PMIN 15
  3
ISO-25
100
AcDbAlignedDimension
 13
-584.2699890136719
 23
425.0499992370605
 33
0.0
 14
-555.0
 24
464.0500030517578
 34
0.0
 50
270.0
100
AcDbRotatedDimension
1001
ACAD
1000
DSTYLE
1002
{
1070
   287
1070
     3
1070
     7
1000
OPEN30
1070
     6
1000
OPEN30
1070
    71
1070
     0
1070
    72
1070
     1
1070
    48
1040
0.0
1070
    47
1040
0.0
1070
   278
1070
    46
1070
   147
1040
0.875
1070
    77
1070
     1
1070
    74
1070
     0
1070
    73
1070
     0
1070
    42
1040
2.54
1070
    44
1040
1.269989013671875
1070
    76
1070
     0
1070
    75
1070
     1
1070
   279
1070
     0
1070
   271
1070
     0
1070
   173
1070
     1
1070
    41
1040
3.0
1070
   140
1040
3.5
1002
}
  0
DIMENSION
  5
3E7
330
1F
100
AcDbEntity
  8
0
 62
     7
100
AcDbDimension
  2
*D29
 10
-582.998
 20
363.0
 30
0.0
 11
-582.998
 21
391.141001296997
 31
0.0
 70
   160
  1
MAX 62.05\PMIN 56.75
  3
ISO-25
100
AcDbAlignedDimension
 13
-548.0
 23
425.0499992370605
 33
0.0
 14
-545.0
 24
363.0
 34
0.0
 50
90.00000000000001
100
AcDbRotatedDimension
1001
ACAD
1000
DSTYLE
1002
{
1070
   287
1070
     3
1070
     7
1000
OPEN30
1070
     6
1000
OPEN30
1070
   278
1070
    46
1070
   147
1040
0.875
1070
    77
1070
     1
1070
    74
1070
     0
1070
    73
1070
     0
1070
    42
1040
2.54
1070
    44
1040
1.269989013671875
1070
    76
1070
     1
1070
    75
1070
     0
1070
   279
1070
     0
1070
    78
1070
     0
1070
   271
1070
     2
1070
   173
1070
     1
1070
    41
1040
3.0
1070
   140
1040
3.5
1002
}
  0
DIMENSION
  5
3F3
330
1F
100
AcDbEntity
  8
0
 62
     7
100
AcDbDimension
  2
*D30
 10
-483.999
 20
404.0500030517578
 30
0.0
 11
-483.999
 21
434.0510030517578
 31
0.0
 70
   160
  1
60
  3
ISO-25
100
AcDbAlignedDimension
 13
-493.6990051269531
 23
464.0500030517578
 33
0.0
 14
-498.6990051269531
 24
404.0500030517578
 34
0.0
 50
90.00000000000001
100
AcDbRotatedDimension
1001
ACAD
1000
DSTYLE
1002
{
1070
   287
1070
     3
1070
     7
1000
OPEN30
1070
     6
1000
OPEN30
1070
   278
1070
    46
1070
   147
1040
0.875
1070
    77
1070
     1
1070
    74
1070
     0
1070
    73
1070
     0
1070
    42
1040
2.54
1070
    44
1040
1.269989013671875
1070
    76
1070
     1
1070
    75
1070
     0
1070
   279
1070
     0
1070
   271
1070
     0
1070
   173
1070
     1
1070
    41
1040
3.0
1070
   140
1040
3.5
1002
}
  0
DIMENSION
  5
3FF
330
1F
100
AcDbEntity
  8
0
 62
     7
100
AcDbDimension
  2
*D31
 10
-654.0
 20
396.001
 30
0.0
 11
-674.6036752929688
 21
396.001
 31
0.0
 70
   160
  1
\A1;MAX{\H0.5x;\S ;}  8\PMIN{\H0.5x;\S ;}-15
  3
ISO-25
100
AcDbAlignedDimension
 13
-646.0
 23
416.0
 33
0.0
 14
-654.0
 24
407.8603439331055
 34
0.0
100
AcDbRotatedDimension
1001
ACAD
1000
DSTYLE
1002
{
1070
   287
1070
     3
1070
     7
1000
OPEN30
1070
     6
1000
OPEN30
1070
   278
1070
    46
1070
   147
1040
0.875
1070
    77
1070
     1
1070
    74
1070
     0
1070
    73
1070
     0
1070
    42
1040
2.54
1070
    44
1040
1.270000457763672
1070
    76
1070
     1
1070
    75
1070
     1
1070
   279
1070
     0
1070
   271
1070
     0
1070
   173
1070
     1
1070
    41
1040
3.0
1070
   140
1040
3.5
1002
}
  0
DIMENSION
  5
40B
330
1F
100
AcDbEntity
  8
0
 62
     7
100
AcDbDimension
  2
*D32
 10
-703.9979999999999
 20
277.3000030517578
 30
0.0
 11
-703.998
 21
363.001
 31
0.0
 70
   160
  1
\A1;\U+2205171.4
  3
ISO-25
100
AcDbAlignedDimension
 13
-693.9666442871094
 23
448.6999969482422
 33
0.0
 14
-682.0
 24
277.3000030517578
 34
0.0
 50
90.00000000000001
100
AcDbRotatedDimension
1001
ACAD
1000
DSTYLE
1002
{
1070
   287
1070
     3
1070
     7
1000
OPEN30
1070
     6
1000
NONE
1070
   278
1070
    46
1070
   147
1040
0.875
1070
    77
1070
     1
1070
    74
1070
     0
1070
    73
1070
     0
1070
    42
1040
2.54
1070
    44
1040
1.27001953125
1070
    76
1070
     0
1070
    75
1070
     1
1070
   279
1070
     0
1070
    78
1070
     0
1070
   271
1070
     1
1070
   173
1070
     1
1070
    41
1040
3.0
1070
   140
1040
3.5
1002
}
  0
DIMENSION
  5
416
330
1F
100
AcDbEntity
  8
0
 62
     7
100
AcDbDimension
  2
*D33
 10
-550.0
 20
165.001
 30
0.0
 11
-604.999
 21
165.001
 31
0.0
 70
   160
  1
\A1;110
  3
ISO-25
100
AcDbAlignedDimension
 13
-660.0
 23
213.0
 33
0.0
 14
-550.0
 24
213.0
 34
0.0
 50
180.0
100
AcDbRotatedDimension
1001
ACAD
1000
DSTYLE
1002
{
1070
   287
1070
     3
1070
     7
1000
OPEN30
1070
     6
1000
OPEN30
1070
   278
1070
    46
1070
   147
1040
0.875
1070
    77
1070
     1
1070
    74
1070
     0
1070
    73
1070
     0
1070
    42
1040
2.54
1070
    44
1040
1.270004272460938
1070
    76
1070
     0
1070
    75
1070
     0
1070
   279
1070
     0
1070
   271
1070
     0
1070
   173
1070
     1
1070
    41
1040
3.0
1070
   140
1040
3.5
1002
}
  0
INSERT
  5
429
330
1F
100
AcDbEntity
  8
0
 62
     7
100
AcDbBlockReference
  2
SYM0005
 10
-383.655930894818
 20
271.3999506989434
 30
0.0
  0
INSERT
  5
432
330
1F
100
AcDbEntity
  8
0
 62
     7
100
AcDbBlockReference
  2
SYM0006
 10
-667.3522047264967
 20
269.3000006990188
 30
0.0
  0
INSERT
  5
43B
330
1F
100
AcDbEntity
  8
0
 62
     7
100
AcDbBlockReference
  2
SYM0007
 10
-561.1631435238683
 20
303.0000114014021
 30
0.0
  0
DIMENSION
  5
43E
330
1F
100
AcDbEntity
  8
0
 62
     7
100
AcDbDimension
  2
*D37
 10
-556.5
 20
187.001
 30
0.0
 11
-567.03165234375
 21
187.001
 31
0.0
 70
   160
  1
6.5
  3
ISO-25
100
AcDbAlignedDimension
 13
-550.0
 23
163.7300109863281
 33
0.0
 14
-556.5
 24
299.0
 34
0.0
100
AcDbRotatedDimension
1001
ACAD
1000
DSTYLE
1002
{
1070
   287
1070
     3
1070
     7
1000
OPEN30
1070
     6
1000
OPEN30
1070
   278
1070
    46
1070
   147
1040
0.875
1070
    77
1070
     1
1070
    74
1070
     0
1070
    73
1070
     0
1070
    42
1040
2.54
1070
    44
1040
1.270004272460938
1070
    76
1070
     0
1070
    75
1070
     1
1070
   279
1070
     0
1070
    78
1070
     0
1070
   271
1070
     1
1070
   173
1070
     1
1070
    41
1040
3.0
1070
   140
1040
3.5
1002
}
  0
DIMENSION
  5
454
330
1F
100
AcDbEntity
  8
0
 62
     7
100
AcDbDimension
  2
*D38
 10
-646.0
 20
396.001
 30
0.0
 11
-638.498
 21
396.001
 31
0.0
 70
   160
  1
15
  3
ISO-25
100
AcDbAlignedDimension
 13
-631.0
 23
417.0
 33
0.0
 14
-646.0
 24
416.0
 34
0.0
100
AcDbRotatedDimension
1001
ACAD
1000
DSTYLE
1002
{
1070
   287
1070
     3
1070
     7
1000
OPEN30
1070
     6
1000
OPEN30
1070
   278
1070
    46
1070
   147
1040
0.875
1070
    77
1070
     1
1070
    74
1070
     0
1070
    73
1070
     0
1070
    42
1040
2.54
1070
    44
1040
1.270000457763672
1070
    76
1070
     1
1070
    75
1070
     0
1070
   279
1070
     0
1070
   271
1070
     0
1070
   173
1070
     1
1070
    41
1040
3.0
1070
   140
1040
3.5
1002
}
  0
DIMENSION
  5
460
330
1F
100
AcDbEntity
  8
0
 62
     7
100
AcDbDimension
  2
*D39
 10
-654.0
 20
462.001
 30
0.0
 11
-641.6551044921875
 21
462.001
 31
0.0
 70
   160
  1
\A1;MAX{\H0.5x;\S ;}23\PMIN{\H0.5x;\S ;} 0
  3
ISO-25
100
AcDbAlignedDimension
 13
-631.0
 23
447.0
 33
0.0
 14
-654.0
 24
473.0
 34
0.0
100
AcDbRotatedDimension
1001
ACAD
1000
DSTYLE
1002
{
1070
   287
1070
     3
1070
     7
1000
OPEN30
1070
     6
1000
OPEN30
1070
   278
1070
    46
1070
   147
1040
0.875
1070
    77
1070
     1
1070
    74
1070
     0
1070
    73
1070
     0
1070
    42
1040
2.54
1070
    44
1040
1.269996643066406
1070
    76
1070
     1
1070
    75
1070
     0
1070
   279
1070
     0
1070
   271
1070
     0
1070
   173
1070
     1
1070
    41
1040
3.0
1070
   140
1040
3.5
1002
}
  0
DIMENSION
  5
46C
330
1F
100
AcDbEntity
  8
0
 62
     7
100
AcDbDimension
  2
*D41
 10
-400.6720445073739
 20
309.0584726201018
 30
0.0
 11
-393.681487479393
 21
313.0944726744311
 31
0.0
 70
   160
  1
\A1;2
  3
ISO-25
100
AcDbAlignedDimension
 13
-390.3434744416921
 23
287.1688343541599
 33
0.0
 14
-381.3613993625479
 24
275.6114547026448
 34
0.0
 50
210.0000004452921
100
AcDbRotatedDimension
1001
ACAD
1000
DSTYLE
1002
{
1070
   287
1070
     3
1070
     7
1000
OPEN30
1070
     6
1000
ORIGIN
1070
   278
1070
    46
1070
   147
1040
0.875
1070
    77
1070
     1
1070
    74
1070
     0
1070
    73
1070
     0
1070
    42
1040
2.54
1070
    44
1040
1.270000457763598
1070
    76
1070
     0
1070
    75
1070
     0
1070
   279
1070
     0
1070
   271
1070
     0
1070
   173
1070
     1
1070
    41
1040
3.0
1070
   140
1040
3.5
1002
}
  0
DIMENSION
  5
488
330
1F
100
AcDbEntity
  8
0
 62
     7
100
AcDbDimension
  2
*D42
 10
-375.4614916166602
 20
210.3925156505746
 30
0.0
 11
-383.2927428015927
 21
205.8711405897116
 31
0.0
 70
   160
  1
\A1;11.5
  3
ISO-25
100
AcDbAlignedDimension
 13
-382.2178055859291
 23
245.0947941975936
 33
0.0
 14
-394.5520962862211
 24
243.4584122919914
 34
0.0
 50
30.00000044529202
100
AcDbRotatedDimension
1001
ACAD
1000
DSTYLE
1002
{
1070
   287
1070
     3
1070
     7
1000
OPEN30
1070
     6
1000
OPEN30
1070
   278
1070
    46
1070
   147
1040
0.875
1070
    77
1070
     1
1070
    74
1070
     0
1070
    73
1070
     0
1070
    42
1040
2.54
1070
    44
1040
1.270004272460919
1070
    76
1070
     0
1070
    75
1070
     1
1070
   279
1070
     0
1070
    78
1070
     0
1070
   271
1070
     1
1070
   173
1070
     1
1070
    41
1040
3.0
1070
   140
1040
3.5
1002
}
  0
DIMENSION
  5
495
330
1F
100
AcDbEntity
  8
0
 62
     7
100
AcDbDimension
  2
*D43
 10
-365.5019481249919
 20
216.1420803028211
 30
0.0
 11
-358.5725778808594
 21
220.1427541503906
 31
0.0
 70
   160
  1
\A1;16
  3
ISO-25
100
AcDbAlignedDimension
 13
-370.8613973138569
 23
257.4249180011509
 33
0.0
 14
-382.2178055859291
 24
245.0947941975936
 34
0.0
 50
30.00000044529208
100
AcDbRotatedDimension
1001
ACAD
1000
DSTYLE
1002
{
1070
   287
1070
     3
1070
     7
1000
OPEN30
1070
     6
1000
OPEN30
1070
   278
1070
    46
1070
   147
1040
0.875
1070
    77
1070
     1
1070
    74
1070
     0
1070
    73
1070
     0
1070
    42
1040
2.54
1070
    44
1040
1.270004272460919
1070
    76
1070
     0
1070
    75
1070
     0
1070
   279
1070
     0
1070
   271
1070
     0
1070
   173
1070
     1
1070
    41
1040
3.0
1070
   140
1040
3.5
1002
}
  0
DIMENSION
  5
4A2
330
1F
100
AcDbEntity
  8
0
 62
     7
100
AcDbDimension
  2
*D44
 10
-660.0
 20
187.001
 30
0.0
 11
-656.998
 21
187.001
 31
0.0
 70
   160
  1
\A1;6
  3
ISO-25
100
AcDbAlignedDimension
 13
-654.0
 23
254.0
 33
0.0
 14
-660.0
 24
213.0
 34
0.0
100
AcDbRotatedDimension
1001
ACAD
1000
DSTYLE
1002
{
1070
   287
1070
     3
1070
     7
1000
OPEN30
1070
     6
1000
OPEN30
1070
   278
1070
    46
1070
   147
1040
0.875
1070
    77
1070
     1
1070
    74
1070
     0
1070
    73
1070
     0
1070
    42
1040
2.54
1070
    44
1040
1.270004272460938
1070
    76
1070
     1
1070
    75
1070
     1
1070
   279
1070
     0
1070
   271
1070
     0
1070
   173
1070
     1
1070
    41
1040
3.0
1070
   140
1040
3.5
1002
}
  0
DIMENSION
  5
4B4
330
1F
100
AcDbEntity
  8
0
 62
     7
100
AcDbDimension
  2
*D45
 10
-714.999
 20
473.0
 30
0.0
 11
-714.999
 21
363.001
 31
0.0
 70
   160
  1
\A1;\U+2205220H6
  3
ISO-25
100
AcDbAlignedDimension
 13
-660.0
 23
253.0
 33
0.0
 14
-660.0
 24
473.0
 34
0.0
 50
270.0
100
AcDbRotatedDimension
1001
ACAD
1000
DSTYLE
1002
{
1070
   287
1070
     3
1070
     7
1000
OPEN30
1070
     6
1000
OPEN30
1070
   278
1070
    46
1070
   147
1040
0.875
1070
    77
1070
     1
1070
    74
1070
     0
1070
    73
1070
     0
1070
    42
1040
2.54
1070
    44
1040
1.27001953125
1070
    76
1070
     0
1070
    75
1070
     0
1070
   279
1070
     0
1070
   271
1070
     0
1070
   173
1070
     1
1070
    41
1040
3.0
1070
   140
1040
3.5
1002
}
  0
DIMENSION
  5
4C1
330
1F
100
AcDbEntity
  8
0
 62
     7
100
AcDbDimension
  2
*D46
 10
-692.998
 20
309.0
 30
0.0
 11
-692.998
 21
363.001
 31
0.0
 70
   160
  1
\A1;\U+2205108
  3
ISO-25
100
AcDbAlignedDimension
 13
-645.0
 23
417.0
 33
0.0
 14
-645.0
 24
309.0
 34
0.0
 50
90.00000000000001
100
AcDbRotatedDimension
1001
ACAD
1000
DSTYLE
1002
{
1070
   287
1070
     3
1070
     7
1000
OPEN30
1070
     6
1000
OPEN30
1070
   278
1070
    46
1070
   147
1040
0.875
1070
    77
1070
     1
1070
    74
1070
     0
1070
    73
1070
     0
1070
    42
1040
2.54
1070
    44
1040
1.269989013671875
1070
    76
1070
     0
1070
    75
1070
     0
1070
   279
1070
     0
1070
   271
1070
     0
1070
   173
1070
     1
1070
    41
1040
3.0
1070
   140
1040
3.5
1002
}
  0
DIMENSION
  5
4CE
330
1F
100
AcDbEntity
  8
0
 62
     7
100
AcDbDimension
  2
*D47
 10
-681.998
 20
338.0
 30
0.0
 11
-681.998
 21
363.001
 31
0.0
 70
   160
  1
\A1;\U+220550
  3
ISO-25
100
AcDbAlignedDimension
 13
-646.0
 23
388.0
 33
0.0
 14
-646.0
 24
338.0
 34
0.0
 50
90.00000000000001
100
AcDbRotatedDimension
1001
ACAD
1000
DSTYLE
1002
{
1070
   287
1070
     3
1070
     7
1000
OPEN30
1070
     6
1000
OPEN30
1070
   278
1070
    46
1070
   147
1040
0.875
1070
    77
1070
     1
1070
    74
1070
     0
1070
    73
1070
     0
1070
    42
1040
2.54
1070
    44
1040
1.269989013671875
1070
    76
1070
     0
1070
    75
1070
     0
1070
   279
1070
     0
1070
   271
1070
     0
1070
   173
1070
     1
1070
    41
1040
3.0
1070
   140
1040
3.5
1002
}
  0
DIMENSION
  5
4DB
330
1F
100
AcDbEntity
  8
0
 62
     7
100
AcDbDimension
  2
*D48
 10
-618.0
 20
325.0269590148926
 30
0.0
 11
-631.999
 21
325.0269590148926
 31
0.0
 70
   160
  1
\A1;28
  3
ISO-25
100
AcDbAlignedDimension
 13
-646.0
 23
388.0
 33
0.0
 14
-618.0
 24
363.0
 34
0.0
 50
180.0
100
AcDbRotatedDimension
1001
ACAD
1000
DSTYLE
1002
{
1070
   287
1070
     3
1070
     7
1000
OPEN30
1070
     6
1000
OPEN30
1070
   278
1070
    46
1070
   147
1040
0.875
1070
    77
1070
     1
1070
    74
1070
     0
1070
    73
1070
     0
1070
    42
1040
2.54
1070
    44
1040
1.270000457763672
1070
    76
1070
     1
1070
    75
1070
     1
1070
   279
1070
     0
1070
   271
1070
     0
1070
   173
1070
     1
1070
    41
1040
3.0
1070
   140
1040
3.5
1002
}
  0
INSERT
  5
4EC
330
1F
100
AcDbEntity
  8
0
 62
     7
100
AcDbBlockReference
  2
SYM0008
 10
-606.000005584724
 20
224.3854783709494
 30
0.0
  0
DIMENSION
  5
4EF
330
1F
100
AcDbEntity
  8
0
 62
     7
100
AcDbDimension
  2
*D50
 10
-246.3496850206617
 20
322.6267287818121
 30
0.0
 11
-231.3956272410591
 21
338.7913692657776
 31
0.0
 70
   163
  1
\U+2205110
  3
ISO-25
100
AcDbDiametricDimension
 15
-171.6503149793383
 25
403.3732712181879
 35
0.0
 40
0.0
1001
ACAD
1000
DSTYLE
1002
{
1070
   287
1070
     3
1070
     7
1000
OPEN30
1070
     6
1000
OPEN30
1070
   147
1040
0.875
1070
    77
1070
     1
1070
    74
1070
     0
1070
    73
1070
     0
1070
   279
1070
     0
1070
   271
1070
     0
1070
   278
1070
    46
1070
   173
1070
     1
1070
    41
1040
3.0
1070
   140
1040
3.5
1002
}
  0
INSERT
  5
504
330
1F
100
AcDbEntity
  8
0
 62
     7
100
AcDbBlockReference
  2
SYM0009
 10
-224.0420965061244
 20
308.0441418856375
 30
0.0
  0
DIMENSION
  5
507
330
1F
100
AcDbEntity
  8
0
 62
     7
100
AcDbDimension
  2
*D52
 10
-43.99899999999998
 20
273.0
 30
0.0
 11
-43.999
 21
318.001
 31
0.0
 70
   160
  1
90
  3
ISO-25
100
AcDbAlignedDimension
 13
-52.0
 23
363.0
 33
0.0
 14
-201.0
 24
273.0
 34
0.0
 50
90.00000000000001
100
AcDbRotatedDimension
1001
ACAD
1000
DSTYLE
1002
{
1070
   287
1070
     3
1070
     7
1000
OPEN30
1070
     6
1000
OPEN30
1070
   278
1070
    46
1070
   147
1040
0.875
1070
    77
1070
     1
1070
    74
1070
     0
1070
    73
1070
     0
1070
    42
1040
2.54
1070
    44
1040
1.27000000000001
1070
    76
1070
     0
1070
    75
1070
     0
1070
   279
1070
     0
1070
   271
1070
     0
1070
   173
1070
     1
1070
    41
1040
3.0
1070
   140
1040
3.5
1002
}
  0
DIMENSION
  5
514
330
1F
100
AcDbEntity
  8
0
 62
     7
100
AcDbDimension
  2
*D53
 10
-43.999
 20
233.0000000000001
 30
0.0
 11
-43.999
 21
253.001
 31
0.0
 70
   160
  1
40
  3
ISO-25
100
AcDbAlignedDimension
 13
-201.0
 23
273.0
 33
0.0
 14
-201.0
 24
233.0
 34
0.0
 50
90.00000000000001
100
AcDbRotatedDimension
1001
ACAD
1000
DSTYLE
1002
{
1070
   287
1070
     3
1070
     7
1000
OPEN30
1070
     6
1000
OPEN30
1070
   278
1070
    46
1070
   147
1040
0.875
1070
    77
1070
     1
1070
    74
1070
     0
1070
    73
1070
     0
1070
    42
1040
2.54
1070
    44
1040
1.27000000000001
1070
    76
1070
     0
1070
    75
1070
     1
1070
   279
1070
     0
1070
   271
1070
     0
1070
   173
1070
     1
1070
    41
1040
3.0
1070
   140
1040
3.5
1002
}
  0
INSERT
  5
526
330
1F
100
AcDbEntity
  8
0
 62
     7
100
AcDbBlockReference
  2
SYM0010
 10
-204.84503892466
 20
230.2185797760121
 30
0.0
  0
DIMENSION
  5
529
330
1F
100
AcDbEntity
  8
0
 62
     7
100
AcDbDimension
  2
*D55
 10
-527.999
 20
316.5
 30
0.0
 11
-527.999
 21
363.001
 31
0.0
 70
   160
  1
\U+220593
  3
ISO-25
100
AcDbAlignedDimension
 13
-552.0
 23
409.5
 33
0.0
 14
-552.0
 24
316.5
 34
0.0
 50
90.00000000000001
100
AcDbRotatedDimension
1001
ACAD
1000
DSTYLE
1002
{
1070
   287
1070
     3
1070
     7
1000
OPEN30
1070
     6
1000
NONE
1070
   278
1070
    46
1070
   147
1040
0.875
1070
    77
1070
     1
1070
    74
1070
     0
1070
    73
1070
     0
1070
    42
1040
2.54
1070
    44
1040
1.269999999999982
1070
    76
1070
     0
1070
    75
1070
     1
1070
   279
1070
     0
1070
   271
1070
     0
1070
   173
1070
     1
1070
    41
1040
3.0
1070
   140
1040
3.5
1002
}
  0
INSERT
  5
53E
330
1F
100
AcDbEntity
  8
0
 62
     7
100
AcDbBlockReference
  2
SYM0011
 10
-638.0
 20
413.0
 30
0.0
  0
LINE
  5
542
330
1F
100
AcDbEntity
  8
VIEW0001
  6
CONTINUOUS
 62
     7
100
AcDbLine
 10
-800.0
 20
12.0
 30
0.0
 11
-10.0
 21
12.0
 31
0.0
  0
LINE
  5
543
330
1F
100
AcDbEntity
  8
VIEW0001
  6
CONTINUOUS
 62
     7
100
AcDbLine
 10
-10.0
 20
12.0
 30
0.0
 11
-10.0
 21
585.0
 31
0.0
  0
LINE
  5
544
330
1F
100
AcDbEntity
  8
VIEW0001
  6
CONTINUOUS
 62
     7
100
AcDbLine
 10
-800.0
 20
12.0
 30
0.0
 11
-800.0
 21
585.0
 31
0.0
  0
LINE
  5
545
330
1F
100
AcDbEntity
  8
VIEW0001
  6
CONTINUOUS
 62
     7
100
AcDbLine
 10
-800.0
 20
585.0
 30
0.0
 11
-10.0
 21
585.0
 31
0.0
  0
LINE
  5
546
330
1F
100
AcDbEntity
  8
VIEW0001
  6
CONTINUOUS
 62
     7
100
AcDbLine
 10
-815.0
 20
287.0
 30
0.0
 11
-800.0
 21
287.0
 31
0.0
  0
LINE
  5
547
330
1F
100
AcDbEntity
  8
VIEW0001
  6
CONTINUOUS
 62
     7
100
AcDbLine
 10
-815.0
 20
227.0
 30
0.0
 11
-800.0
 21
227.0
 31
0.0
  0
LINE
  5
548
330
1F
100
AcDbEntity
  8
VIEW0001
  6
CONTINUOUS
 62
     7
100
AcDbLine
 10
-815.0
 20
287.0
 30
0.0
 11
-815.0
 21
227.0
 31
0.0
  0
LINE
  5
549
330
1F
100
AcDbEntity
  8
VIEW0001
  6
CONTINUOUS
 62
     7
100
AcDbLine
 10
-325.5
 20
50.0
 30
0.0
 11
-325.5
 21
12.0
 31
0.0
  0
LINE
  5
54A
330
1F
100
AcDbEntity
  8
VIEW0001
  6
CONTINUOUS
 62
     7
100
AcDbLine
 10
-325.5
 20
50.0
 30
0.0
 11
-10.0
 21
50.0
 31
0.0
  0
LINE
  5
54B
330
1F
100
AcDbEntity
  8
VIEW0001
  6
CONTINUOUS
 62
     7
100
AcDbLine
 10
-163.0
 20
50.0
 30
0.0
 11
-163.0
 21
12.0
 31
0.0
  0
LINE
  5
54C
330
1F
100
AcDbEntity
  8
VIEW0001
  6
CONTINUOUS
 62
     7
100
AcDbLine
 10
-313.5
 20
50.0
 30
0.0
 11
-313.5
 21
12.0
 31
0.0
  0
LINE
  5
54D
330
1F
100
AcDbEntity
  8
VIEW0001
  6
CONTINUOUS
 62
     7
100
AcDbLine
 10
-86.5
 20
12.0
 30
0.0
 11
-86.5
 21
40.5
 31
0.0
  0
LINE
  5
54E
330
1F
100
AcDbEntity
  8
VIEW0001
  6
CONTINUOUS
 62
     7
100
AcDbLine
 10
-112.0
 20
26.0
 30
0.0
 11
-112.0
 21
50.0
 31
0.0
  0
LINE
  5
54F
330
1F
100
AcDbEntity
  8
VIEW0001
  6
CONTINUOUS
 62
     7
100
AcDbLine
 10
-137.5
 20
50.0
 30
0.0
 11
-137.5
 21
26.0
 31
0.0
  0
LINE
  5
550
330
1F
100
AcDbEntity
  8
VIEW0001
  6
CONTINUOUS
 62
     7
100
AcDbLine
 10
-163.0
 20
40.5
 30
0.0
 11
-10.0
 21
40.5
 31
0.0
  0
LINE
  5
551
330
1F
100
AcDbEntity
  8
VIEW0001
  6
CONTINUOUS
 62
     7
100
AcDbLine
 10
-163.0
 20
26.0
 30
0.0
 11
-10.0
 21
26.0
 31
0.0
  0
LINE
  5
552
330
1F
100
AcDbEntity
  8
VIEW0001
  6
CONTINUOUS
 62
     7
100
AcDbLine
 10
-163.0
 20
50.0
 30
0.0
 11
-163.0
 21
12.0
 31
0.0
  0
LINE
  5
553
330
1F
100
AcDbEntity
  8
VIEW0001
  6
CONTINUOUS
 62
     7
100
AcDbLine
 10
-173.0
 20
50.0
 30
0.0
 11
-173.0
 21
12.0
 31
0.0
  0
LINE
  5
554
330
1F
100
AcDbEntity
  8
VIEW0001
  6
CONTINUOUS
 62
     7
100
AcDbLine
 10
-183.0
 20
50.0
 30
0.0
 11
-183.0
 21
12.0
 31
0.0
  0
LINE
  5
555
330
1F
100
AcDbEntity
  8
VIEW0001
  6
CONTINUOUS
 62
     7
100
AcDbLine
 10
-319.7495331019503
 20
23.60017386565841
 30
0.0
 11
-316.9995352610494
 21
19.40018024795393
 31
0.0
  0
LINE
  5
556
330
1F
100
AcDbEntity
  8
VIEW0001
  6
CONTINUOUS
 62
     7
100
AcDbLine
 10
-317.0
 20
19.39988899230957
 30
0.0
 11
-322.5
 21
19.39988899230957
 31
0.0
  0
LINE
  5
557
330
1F
100
AcDbEntity
  8
VIEW0001
  6
CONTINUOUS
 62
     7
100
AcDbLine
 10
-322.4991194682019
 20
19.39938335739603
 30
0.0
 11
-319.7491216273011
 21
23.59937697510051
 31
0.0
  0
LINE
  5
558
330
1F
100
AcDbEntity
  8
VIEW0001
  6
CONTINUOUS
 62
     7
100
AcDbLine
 10
-319.7496738461448
 20
48.93345696080959
 30
0.0
 11
-316.9996760052439
 21
44.73346334310511
 31
0.0
  0
LINE
  5
559
330
1F
100
AcDbEntity
  8
VIEW0001
  6
CONTINUOUS
 62
     7
100
AcDbLine
 10
-317.0
 20
44.73325729370117
 30
0.0
 11
-322.5
 21
44.73325729370117
 31
0.0
  0
LINE
  5
55A
330
1F
100
AcDbEntity
  8
VIEW0001
  6
CONTINUOUS
 62
     7
100
AcDbLine
 10
-322.499829168327
 20
44.73315033689924
 30
0.0
 11
-319.7498313274261
 21
48.93314395460372
 31
0.0
  0
LINE
  5
55B
330
1F
100
AcDbEntity
  8
VIEW0001
  6
CONTINUOUS
 62
     7
100
AcDbLine
 10
-319.7496364564819
 20
42.60014674919043
 30
0.0
 11
-316.999638615581
 21
38.40015313148595
 31
0.0
  0
LINE
  5
55C
330
1F
100
AcDbEntity
  8
VIEW0001
  6
CONTINUOUS
 62
     7
100
AcDbLine
 10
-317.0
 20
38.39990997314453
 30
0.0
 11
-322.5
 21
38.39990997314453
 31
0.0
  0
LINE
  5
55D
330
1F
100
AcDbEntity
  8
VIEW0001
  6
CONTINUOUS
 62
     7
100
AcDbLine
 10
-322.4996539469099
 20
38.39971915419207
 30
0.0
 11
-319.749656106009
 21
42.59971277189653
 31
0.0
  0
LINE
  5
55E
330
1F
100
AcDbEntity
  8
VIEW0001
  6
CONTINUOUS
 62
     7
100
AcDbLine
 10
-319.7496162398303
 20
36.26680705467956
 30
0.0
 11
-316.9996183989294
 21
32.06681343697508
 31
0.0
  0
LINE
  5
55F
330
1F
100
AcDbEntity
  8
VIEW0001
  6
CONTINUOUS
 62
     7
100
AcDbLine
 10
-317.0
 20
32.06656646728516
 30
0.0
 11
-322.5
 21
32.06656646728516
 31
0.0
  0
LINE
  5
560
330
1F
100
AcDbEntity
  8
VIEW0001
  6
CONTINUOUS
 62
     7
100
AcDbLine
 10
-322.4994615524816
 20
32.06625848859321
 30
0.0
 11
-319.7494637115807
 21
36.26625210629767
 31
0.0
  0
LINE
  5
561
330
1F
100
AcDbEntity
  8
VIEW0001
  6
CONTINUOUS
 62
     7
100
AcDbLine
 10
-319.7495788501676
 20
29.9334968430604
 30
0.0
 11
-316.9995810092666
 21
25.73350322535592
 31
0.0
  0
LINE
  5
562
330
1F
100
AcDbEntity
  8
VIEW0001
  6
CONTINUOUS
 62
     7
100
AcDbLine
 10
-317.0
 20
25.73322296142578
 30
0.0
 11
-322.5
 21
25.73322296142578
 31
0.0
  0
LINE
  5
563
330
1F
100
AcDbEntity
  8
VIEW0001
  6
CONTINUOUS
 62
     7
100
AcDbLine
 10
-322.4992863310646
 20
25.73282730588605
 30
0.0
 11
-319.7492884901637
 21
29.93282092359053
 31
0.0
  0
LINE
  5
564
330
1F
100
AcDbEntity
  8
VIEW0001
  6
CONTINUOUS
 62
     7
100
AcDbLine
 10
-15.49998887072448
 20
19.49999242614194
 30
0.0
 11
-18.99998845229474
 21
13.4999932025968
 31
0.0
  0
LINE
  5
565
330
1F
100
AcDbEntity
  8
VIEW0001
  6
CONTINUOUS
 62
     7
100
AcDbLine
 10
-19.0
 20
13.5
 30
0.0
 11
-12.0
 21
13.5
 31
0.0
  0
LINE
  5
566
330
1F
100
AcDbEntity
  8
VIEW0001
  6
CONTINUOUS
 62
     7
100
AcDbLine
 10
-11.99999970204289
 20
13.50000080954025
 30
0.0
 11
-15.49999892321649
 21
19.49999941526258
 31
0.0
  0
LINE
  5
567
330
1F
100
AcDbEntity
  8
VIEW0001
  6
CONTINUOUS
 62
     7
100
AcDbLine
 10
-61.0
 20
40.5
 30
0.0
 11
-61.0
 21
50.0
 31
0.0
  0
LINE
  5
568
330
1F
100
AcDbEntity
  8
VIEW0001
  6
CONTINUOUS
 62
     7
100
AcDbLine
 10
-325.5
 20
24.66666603088379
 30
0.0
 11
-163.0
 21
24.66666603088379
 31
0.0
  0
LINE
  5
569
330
1F
100
AcDbEntity
  8
VIEW0001
  6
CONTINUOUS
 62
     7
100
AcDbLine
 10
-325.5
 20
18.33333396911621
 30
0.0
 11
-163.0
 21
18.33333396911621
 31
0.0
  0
LINE
  5
56A
330
1F
100
AcDbEntity
  8
VIEW0001
  6
CONTINUOUS
 62
     7
100
AcDbLine
 10
-163.0
 20
30.0
 30
0.0
 11
-86.5
 21
30.0
 31
0.0
  0
LINE
  5
56B
330
1F
100
AcDbEntity
  8
VIEW0001
  6
CONTINUOUS
 62
     7
100
AcDbLine
 10
-193.0
 20
50.0
 30
0.0
 11
-193.0
 21
12.0
 31
0.0
  0
LINE
  5
56C
330
1F
100
AcDbEntity
  8
VIEW0001
  6
CONTINUOUS
 62
     7
100
AcDbLine
 10
-213.0
 20
50.0
 30
0.0
 11
-213.0
 21
12.0
 31
0.0
  0
LINE
  5
56D
330
1F
100
AcDbEntity
  8
VIEW0001
  6
CONTINUOUS
 62
     7
100
AcDbLine
 10
-325.5
 20
37.33333206176758
 30
0.0
 11
-163.0
 21
37.33333206176758
 31
0.0
  0
LINE
  5
56E
330
1F
100
AcDbEntity
  8
VIEW0001
  6
CONTINUOUS
 62
     7
100
AcDbLine
 10
-325.5
 20
31.0
 30
0.0
 11
-163.0
 21
31.0
 31
0.0
  0
LINE
  5
56F
330
1F
100
AcDbEntity
  8
VIEW0001
  6
CONTINUOUS
 62
     7
100
AcDbLine
 10
-325.5
 20
43.66666793823242
 30
0.0
 11
-163.0
 21
43.66666793823242
 31
0.0
  0
MTEXT
  5
570
330
1F
100
AcDbEntity
  8
VIEW0001
 62
     7
100
AcDbMText
 10
-118.5
 20
45.25
 30
0.0
 40
3.0
 41
0.0
 71
     5
 72
     1
  1
{\W1;1:1}
  0
MTEXT
  5
571
330
1F
100
AcDbEntity
  8
VIEW0001
 62
     7
100
AcDbMText
 10
-319.7490844726562
 20
33.56655502319336
 30
0.0
 40
2.200000047683716
 41
0.0
 71
     5
 72
     1
  1
{\W0.818182;3}
  0
MTEXT
  5
572
330
1F
100
AcDbEntity
  8
VIEW0001
 62
     7
100
AcDbMText
 10
-319.7490844726562
 20
27.23322105407715
 30
0.0
 40
2.200000047683716
 41
0.0
 71
     5
 72
     1
  1
{\W0.818182;2}
  0
MTEXT
  5
573
330
1F
100
AcDbEntity
  8
VIEW0001
 62
     7
100
AcDbMText
 10
-57.62857142686844
 20
43.75
 30
0.0
 40
3.0
 41
0.0
 71
     7
 72
     1
  1
{\W0.833333;Ｈ３ＫＴＡ１２}
  0
MTEXT
  5
574
330
1F
100
AcDbEntity
  8
VIEW0001
 62
     7
100
AcDbMText
 10
-319.7490844726562
 20
20.89988899230957
 30
0.0
 40
2.200000047683716
 41
0.0
 71
     5
 72
     1
  1
{\W0.818182;1}
  0
MTEXT
  5
575
330
1F
100
AcDbEntity
  8
VIEW0001
 62
     7
100
AcDbMText
 10
-319.7490844726562
 20
39.89988708496094
 30
0.0
 40
2.200000047683716
 41
0.0
 71
     5
 72
     1
  1
{\W0.818182;4}
  0
MTEXT
  5
576
330
1F
100
AcDbEntity
  8
VIEW0001
 62
     7
100
AcDbMText
 10
-319.7490844726562
 20
46.23322296142578
 30
0.0
 40
2.200000047683716
 41
0.0
 71
     5
 72
     1
  1
{\W0.818182;5}
  0
MTEXT
  5
577
330
1F
100
AcDbEntity
  8
VIEW0001
 62
     7
100
AcDbMText
 10
-805.744139790535
 20
5.916409492492676
 30
0.0
 40
4.167181015014648
 41
0.0
 71
     7
 72
     1
  1
{\W1;D}
  0
MTEXT
  5
578
330
1F
100
AcDbEntity
  8
VIEW0001
 62
     7
100
AcDbMText
 10
-82.71428570747375
 20
28.5
 30
0.0
 40
5.0
 41
0.0
 71
     7
 72
     1
  1
{\W0.833333;楔形３爪ビッグホローチャック}
  0
LINE
  5
57A
330
1F
100
AcDbEntity
  8
VIEW0002
  6
CONTINUOUS
 62
     7
100
AcDbLine
 10
-799.9999961157469
 20
53.4999952646005
 30
0.0
 11
-832.4999809594142
 21
12.00001200792116
 31
0.0
  0
LINE
  5
57B
330
1F
100
AcDbEntity
  8
VIEW0002
  6
CONTINUOUS
 62
     7
100
AcDbLine
 10
-163.0
 20
66.0
 30
0.0
 11
-163.0
 21
50.0
 31
0.0
  0
LINE
  5
57C
330
1F
100
AcDbEntity
  8
VIEW0002
  6
CONTINUOUS
 62
     7
100
AcDbLine
 10
-163.0
 20
66.0
 30
0.0
 11
-10.0
 21
66.0
 31
0.0
  0
LINE
  5
57D
330
1F
100
AcDbEntity
  8
VIEW0002
  6
CONTINUOUS
 62
     7
100
AcDbLine
 10
-61.0
 20
55.5
 30
0.0
 11
-10.0
 21
55.5
 31
0.0
  0
LINE
  5
57E
330
1F
100
AcDbEntity
  8
VIEW0002
  6
CONTINUOUS
 62
     7
100
AcDbLine
 10
-61.0
 20
66.0
 30
0.0
 11
-61.0
 21
50.0
 31
0.0
  0
LINE
  5
57F
330
1F
100
AcDbEntity
  8
VIEW0002
  6
CONTINUOUS
 62
     7
100
AcDbLine
 10
-798.0
 20
128.0
 30
0.0
 11
-673.5
 21
128.0
 31
0.0
  0
LINE
  5
580
330
1F
100
AcDbEntity
  8
VIEW0002
  6
CONTINUOUS
 62
     7
100
AcDbLine
 10
-798.0
 20
134.0
 30
0.0
 11
-673.5
 21
134.0
 31
0.0
  0
LINE
  5
581
330
1F
100
AcDbEntity
  8
VIEW0002
  6
CONTINUOUS
 62
     7
100
AcDbLine
 10
-798.0
 20
134.0
 30
0.0
 11
-798.0
 21
128.0
 31
0.0
  0
LINE
  5
582
330
1F
100
AcDbEntity
  8
VIEW0002
  6
CONTINUOUS
 62
     7
100
AcDbLine
 10
-673.5
 20
134.0
 30
0.0
 11
-673.5
 21
128.0
 31
0.0
  0
LINE
  5
583
330
1F
100
AcDbEntity
  8
VIEW0002
  6
CONTINUOUS
 62
     7
100
AcDbLine
 10
-800.0
 20
126.0
 30
0.0
 11
-491.0
 21
126.0
 31
0.0
  0
LINE
  5
584
330
1F
100
AcDbEntity
  8
VIEW0002
  6
CONTINUOUS
 62
     7
100
AcDbLine
 10
-800.0
 20
120.0
 30
0.0
 11
-606.0
 21
120.0
 31
0.0
  0
LINE
  5
585
330
1F
100
AcDbEntity
  8
VIEW0002
  6
CONTINUOUS
 62
     7
100
AcDbLine
 10
-800.0
 20
114.0
 30
0.0
 11
-491.0
 21
114.0
 31
0.0
  0
LINE
  5
586
330
1F
100
AcDbEntity
  8
VIEW0002
  6
CONTINUOUS
 62
     7
100
AcDbLine
 10
-800.0
 20
108.0
 30
0.0
 11
-491.0
 21
108.0
 31
0.0
  0
LINE
  5
587
330
1F
100
AcDbEntity
  8
VIEW0002
  6
CONTINUOUS
 62
     7
100
AcDbLine
 10
-800.0
 20
102.0
 30
0.0
 11
-491.0
 21
102.0
 31
0.0
  0
LINE
  5
588
330
1F
100
AcDbEntity
  8
VIEW0002
  6
CONTINUOUS
 62
     7
100
AcDbLine
 10
-754.0
 20
96.0
 30
0.0
 11
-713.0
 21
96.0
 31
0.0
  0
LINE
  5
589
330
1F
100
AcDbEntity
  8
VIEW0002
  6
CONTINUOUS
 62
     7
100
AcDbLine
 10
-754.0
 20
84.0
 30
0.0
 11
-716.0
 21
84.0
 31
0.0
  0
LINE
  5
58A
330
1F
100
AcDbEntity
  8
VIEW0002
  6
CONTINUOUS
 62
     7
100
AcDbLine
 10
-800.0
 20
78.0
 30
0.0
 11
-491.0
 21
78.0
 31
0.0
  0
LINE
  5
58B
330
1F
100
AcDbEntity
  8
VIEW0002
  6
CONTINUOUS
 62
     7
100
AcDbLine
 10
-800.0
 20
72.0
 30
0.0
 11
-491.0
 21
72.0
 31
0.0
  0
LINE
  5
58C
330
1F
100
AcDbEntity
  8
VIEW0002
  6
CONTINUOUS
 62
     7
100
AcDbLine
 10
-800.0
 20
66.0
 30
0.0
 11
-491.0
 21
66.0
 31
0.0
  0
LINE
  5
58D
330
1F
100
AcDbEntity
  8
VIEW0002
  6
CONTINUOUS
 62
     7
100
AcDbLine
 10
-800.0
 20
60.0
 30
0.0
 11
-491.0
 21
60.0
 31
0.0
  0
LINE
  5
58E
330
1F
100
AcDbEntity
  8
VIEW0002
  6
CONTINUOUS
 62
     7
100
AcDbLine
 10
-800.0
 20
54.0
 30
0.0
 11
-491.0
 21
54.0
 31
0.0
  0
LINE
  5
58F
330
1F
100
AcDbEntity
  8
VIEW0002
  6
CONTINUOUS
 62
     7
100
AcDbLine
 10
-800.0
 20
48.0
 30
0.0
 11
-491.0
 21
48.0
 31
0.0
  0
LINE
  5
590
330
1F
100
AcDbEntity
  8
VIEW0002
  6
CONTINUOUS
 62
     7
100
AcDbLine
 10
-800.0
 20
42.0
 30
0.0
 11
-491.0
 21
42.0
 31
0.0
  0
LINE
  5
591
330
1F
100
AcDbEntity
  8
VIEW0002
  6
CONTINUOUS
 62
     7
100
AcDbLine
 10
-800.0
 20
36.0
 30
0.0
 11
-491.0
 21
36.0
 31
0.0
  0
LINE
  5
592
330
1F
100
AcDbEntity
  8
VIEW0002
  6
CONTINUOUS
 62
     7
100
AcDbLine
 10
-800.0
 20
30.0
 30
0.0
 11
-491.0
 21
30.0
 31
0.0
  0
LINE
  5
593
330
1F
100
AcDbEntity
  8
VIEW0002
  6
CONTINUOUS
 62
     7
100
AcDbLine
 10
-800.0
 20
24.0
 30
0.0
 11
-491.0
 21
24.0
 31
0.0
  0
LINE
  5
594
330
1F
100
AcDbEntity
  8
VIEW0002
  6
CONTINUOUS
 62
     7
100
AcDbLine
 10
-800.0
 20
18.0
 30
0.0
 11
-491.0
 21
18.0
 31
0.0
  0
LINE
  5
595
330
1F
100
AcDbEntity
  8
VIEW0002
  6
CONTINUOUS
 62
     7
100
AcDbLine
 10
-754.0
 20
120.0
 30
0.0
 11
-754.0
 21
42.0
 31
0.0
  0
LINE
  5
596
330
1F
100
AcDbEntity
  8
VIEW0002
  6
CONTINUOUS
 62
     7
100
AcDbLine
 10
-491.0
 20
126.0
 30
0.0
 11
-491.0
 21
12.0
 31
0.0
  0
LINE
  5
597
330
1F
100
AcDbEntity
  8
VIEW0002
  6
CONTINUOUS
 62
     7
100
AcDbLine
 10
-741.0
 20
102.0
 30
0.0
 11
-741.0
 21
78.0
 31
0.0
  0
LINE
  5
598
330
1F
100
AcDbEntity
  8
VIEW0002
  6
CONTINUOUS
 62
     7
100
AcDbLine
 10
-800.0
 20
90.0
 30
0.0
 11
-491.0
 21
90.0
 31
0.0
  0
LINE
  5
599
330
1F
100
AcDbEntity
  8
VIEW0002
  6
CONTINUOUS
 62
     7
100
AcDbLine
 10
-703.0
 20
96.0
 30
0.0
 11
-491.0
 21
96.0
 31
0.0
  0
LINE
  5
59A
330
1F
100
AcDbEntity
  8
VIEW0002
  6
CONTINUOUS
 62
     7
100
AcDbLine
 10
-703.0
 20
84.0
 30
0.0
 11
-491.0
 21
84.0
 31
0.0
  0
LINE
  5
59B
330
1F
100
AcDbEntity
  8
VIEW0002
  6
CONTINUOUS
 62
     7
100
AcDbLine
 10
-606.0
 20
120.0
 30
0.0
 11
-491.0
 21
120.0
 31
0.0
  0
LINE
  5
59C
330
1F
100
AcDbEntity
  8
VIEW0002
  6
CONTINUOUS
 62
     7
100
AcDbLine
 10
-606.0
 20
126.0
 30
0.0
 11
-606.0
 21
12.0
 31
0.0
  0
LINE
  5
59D
330
1F
100
AcDbEntity
  8
VIEW0002
  6
CONTINUOUS
 62
     7
100
AcDbLine
 10
-703.0
 20
126.0
 30
0.0
 11
-703.0
 21
12.0
 31
0.0
  0
CIRCLE
  5
59E
330
1F
100
AcDbEntity
  8
VIEW0002
  6
CONTINUOUS
 62
     7
100
AcDbCircle
 10
-55.0
 20
63.0
 30
0.0
 40
1.5
  0
CIRCLE
  5
59F
330
1F
100
AcDbEntity
  8
VIEW0002
  6
CONTINUOUS
 62
     7
100
AcDbCircle
 10
-55.0
 20
58.5
 30
0.0
 40
1.5
  0
CIRCLE
  5
5A0
330
1F
100
AcDbEntity
  8
VIEW0002
  6
CONTINUOUS
 62
     7
100
AcDbCircle
 10
-35.0
 20
63.0
 30
0.0
 40
1.5
  0
CIRCLE
  5
5A1
330
1F
100
AcDbEntity
  8
VIEW0002
  6
CONTINUOUS
 62
     7
100
AcDbCircle
 10
-35.0
 20
58.5
 30
0.0
 40
1.5
  0
MTEXT
  5
5A2
330
1F
100
AcDbEntity
  8
VIEW0002
 62
     7
100
AcDbMText
 10
-46.67142857313156
 20
21.5
 30
0.0
 40
4.0
 41
0.0
 71
     7
 72
     1
  1
{\W0.833333;Ｂ－８０６}
  0
MTEXT
  5
5A3
330
1F
100
AcDbEntity
  8
VIEW0002
 62
     7
100
AcDbMText
 10
-158.15
 20
61.25
 30
0.0
 40
3.5
 41
0.0
 71
     7
 72
     1
  1
{\W0.833333;納{\H0.5x;\S　;}入{\H0.5x;\S　;}先}
  0
MTEXT
  5
5A4
330
1F
100
AcDbEntity
  8
VIEW0002
 62
     7
100
AcDbMText
 10
-31.12857142686844
 20
57.0
 30
0.0
 40
3.0
 41
0.0
 71
     7
 72
     1
  1
{\W0.833333;製作図}
  0
MTEXT
  5
5A5
330
1F
100
AcDbEntity
  8
VIEW0002
 62
     7
100
AcDbMText
 10
-31.12857142686844
 20
61.5
 30
0.0
 40
3.0
 41
0.0
 71
     7
 72
     1
  1
{\W0.833333;納入仕様図}
  0
MTEXT
  5
5A6
330
1F
100
AcDbEntity
  8
VIEW0002
 62
     7
100
AcDbMText
 10
-51.12857142686844
 20
57.0
 30
0.0
 40
3.0
 41
0.0
 71
     7
 72
     1
  1
{\W0.833333;見積図}
  0
MTEXT
  5
5A7
330
1F
100
AcDbEntity
  8
VIEW0002
 62
     7
100
AcDbMText
 10
-51.12857142686844
 20
61.5
 30
0.0
 40
3.0
 41
0.0
 71
     7
 72
     1
  1
{\W0.833333;計画図}
  0
MTEXT
  5
5A8
330
1F
100
AcDbEntity
  8
VIEW0002
 62
     7
100
AcDbMText
 10
-796.375
 20
128.875
 30
0.0
 40
3.5
 41
0.0
 71
     7
 72
     1
  1
{\W0.833333;仕様値を超えるシリンダ力を加えると，チャックが破損する恐れがあります．}
  0
MTEXT
  5
5A9
330
1F
100
AcDbEntity
  8
VIEW0002
 62
     7
100
AcDbMText
 10
-777.0
 20
114.875
 30
0.0
 40
3.5
 41
0.0
 71
     8
 72
     1
  1
{\W0.833333;チャック形番}
  0
MTEXT
  5
5AA
330
1F
100
AcDbEntity
  8
VIEW0002
 62
     7
100
AcDbMText
 10
-777.0
 20
96.0
 30
0.0
 40
3.5
 41
0.0
 71
     5
 72
     1
  1
{\W0.833333;ジョーのストローク（直径）}
  0
MTEXT
  5
5AB
330
1F
100
AcDbEntity
  8
VIEW0002
 62
     7
100
AcDbMText
 10
-777.0
 20
84.0
 30
0.0
 40
3.5
 41
0.0
 71
     5
 72
     1
  1
{\W0.833333;使用油圧力}
  0
MTEXT
  5
5AC
330
1F
100
AcDbEntity
  8
VIEW0002
 62
     7
100
AcDbMText
 10
-777.0
 20
108.875
 30
0.0
 40
3.5
 41
0.0
 71
     8
 72
     1
  1
{\W0.833333;シリンダ形番}
  0
MTEXT
  5
5AD
330
1F
100
AcDbEntity
  8
VIEW0002
 62
     7
100
AcDbMText
 10
-777.0
 20
102.875
 30
0.0
 40
3.5
 41
0.0
 71
     8
 72
     1
  1
{\W0.833333;プランジャストローク}
  0
MTEXT
  5
5AE
330
1F
100
AcDbEntity
  8
VIEW0002
 62
     7
100
AcDbMText
 10
-777.0
 20
72.875
 30
0.0
 40
3.5
 41
0.0
 71
     8
 72
     1
  1
{\W0.833333;許容シリンダ力}
  0
MTEXT
  5
5AF
330
1F
100
AcDbEntity
  8
VIEW0002
 62
     7
100
AcDbMText
 10
-747.5
 20
84.875
 30
0.0
 40
3.5
 41
0.0
 71
     8
 72
     1
  1
{\W0.833333;最大}
  0
MTEXT
  5
5B0
330
1F
100
AcDbEntity
  8
VIEW0002
 62
     7
100
AcDbMText
 10
-747.5
 20
78.875
 30
0.0
 40
3.5
 41
0.0
 71
     8
 72
     1
  1
{\W0.833333;常用}
  0
MTEXT
  5
5B1
330
1F
100
AcDbEntity
  8
VIEW0002
 62
     7
100
AcDbMText
 10
-747.5
 20
96.875
 30
0.0
 40
3.5
 41
0.0
 71
     8
 72
     1
  1
{\W0.833333;最大}
  0
MTEXT
  5
5B2
330
1F
100
AcDbEntity
  8
VIEW0002
 62
     7
100
AcDbMText
 10
-747.5
 20
90.875
 30
0.0
 40
3.5
 41
0.0
 71
     8
 72
     1
  1
{\W0.833333;常用}
  0
MTEXT
  5
5B3
330
1F
100
AcDbEntity
  8
VIEW0002
 62
     7
100
AcDbMText
 10
-706.4285714285714
 20
84.0
 30
0.0
 40
3.0
 41
0.0
 71
     6
 72
     1
  1
{\W0.857143;MPa}
  0
MTEXT
  5
5B4
330
1F
100
AcDbEntity
  8
VIEW0002
 62
     7
100
AcDbMText
 10
-706.4285714285714
 20
72.75
 30
0.0
 40
3.0
 41
0.0
 71
     9
 72
     1
  1
{\W0.857143;kN}
  0
MTEXT
  5
5B5
330
1F
100
AcDbEntity
  8
VIEW0002
 62
     7
100
AcDbMText
 10
-706.4285714285714
 20
60.75
 30
0.0
 40
3.0
 41
0.0
 71
     9
 72
     1
  1
{\W0.714286;Ｎ・ｍ}
  0
MTEXT
  5
5B6
330
1F
100
AcDbEntity
  8
VIEW0002
 62
     7
100
AcDbMText
 10
-654.5
 20
123.0
 30
0.0
 40
3.5
 41
0.0
 71
     5
 72
     1
  1
{\W0.833333;納入品目}
  0
MTEXT
  5
5B7
330
1F
100
AcDbEntity
  8
VIEW0002
 62
     7
100
AcDbMText
 10
-601.875
 20
120.875
 30
0.0
 40
3.5
 41
0.0
 71
     7
 72
     1
  1
{\W0.833333;記}
  0
MTEXT
  5
5B8
330
1F
100
AcDbEntity
  8
VIEW0002
 62
     7
100
AcDbMText
 10
-720.5
 20
102.875
 30
0.0
 40
3.5
 41
0.0
 71
     9
 72
     1
  1
{\W1;23}
  0
MTEXT
  5
5B9
330
1F
100
AcDbEntity
  8
VIEW0002
 62
     7
100
AcDbMText
 10
-720.5
 20
96.875
 30
0.0
 40
3.5
 41
0.0
 71
     9
 72
     1
  1
{\W1;10.6}
  0
MTEXT
  5
5BA
330
1F
100
AcDbEntity
  8
VIEW0002
 62
     7
100
AcDbMText
 10
-720.5
 20
72.875
 30
0.0
 40
3.5
 41
0.0
 71
     9
 72
     1
  1
{\W1;55}
  0
MTEXT
  5
5BB
330
1F
100
AcDbEntity
  8
VIEW0002
 62
     7
100
AcDbMText
 10
-720.5
 20
66.875
 30
0.0
 40
3.5
 41
0.0
 71
     9
 72
     1
  1
{\W1;144}
  0
MTEXT
  5
5BC
330
1F
100
AcDbEntity
  8
VIEW0002
 62
     7
100
AcDbMText
 10
-720.5
 20
48.875
 30
0.0
 40
3.5
 41
0.0
 71
     9
 72
     1
  1
{\W1;57.2}
  0
MTEXT
  5
5BD
330
1F
100
AcDbEntity
  8
VIEW0002
 62
     7
100
AcDbMText
 10
-720.5
 20
42.875
 30
0.0
 40
3.5
 41
0.0
 71
     9
 72
     1
  1
{\W1;0.74}
  0
MTEXT
  5
5BE
330
1F
100
AcDbEntity
  8
VIEW0002
 62
     7
100
AcDbMText
 10
-701.375
 20
114.875
 30
0.0
 40
3.5
 41
0.0
 71
     7
 72
     1
  1
{\W0.833333;Ｈ３ＫＴＡ１２}
  0
MTEXT
  5
5BF
330
1F
100
AcDbEntity
  8
VIEW0002
 62
     7
100
AcDbMText
 10
-777.0
 20
42.875
 30
0.0
 40
3.5
 41
0.0
 71
     8
 72
     1
  1
{\W0.833333;慣性モーメント}
  0
MTEXT
  5
5C0
330
1F
100
AcDbEntity
  8
VIEW0002
 62
     7
100
AcDbMText
 10
-720.5
 20
54.875
 30
0.0
 40
3.5
 41
0.0
 71
     9
 72
     1
  1
{\W1;3300}
  0
MTEXT
  5
5C1
330
1F
100
AcDbEntity
  8
VIEW0002
 62
     7
100
AcDbMText
 10
-706.4285714285714
 20
102.75
 30
0.0
 40
3.0
 41
0.0
 71
     9
 72
     1
  1
{\W0.857143;mm}
  0
MTEXT
  5
5C2
330
1F
100
AcDbEntity
  8
VIEW0002
 62
     7
100
AcDbMText
 10
-752.375
 20
114.875
 30
0.0
 40
3.5
 41
0.0
 71
     7
 72
     1
  1
{\W0.714286;Ｈ３ＫＴＡ１２}
  0
MTEXT
  5
5C3
330
1F
100
AcDbEntity
  8
VIEW0002
 62
     7
100
AcDbMText
 10
-607.5
 20
114.875
 30
0.0
 40
3.5
 41
0.0
 71
     9
 72
     1
  1
{\W0.833333;１台}
  0
MTEXT
  5
5C4
330
1F
100
AcDbEntity
  8
VIEW0002
 62
     7
100
AcDbMText
 10
-701.375
 20
102.875
 30
0.0
 40
3.5
 41
0.0
 71
     7
 72
     1
  1
{\W0.833333;　標準付属品・工具}
  0
MTEXT
  5
5C5
330
1F
100
AcDbEntity
  8
VIEW0002
 62
     7
100
AcDbMText
 10
-607.5
 20
102.875
 30
0.0
 40
3.5
 41
0.0
 71
     9
 72
     1
  1
{\W0.833333;１式}
  0
MTEXT
  5
5C6
102
{ACAD_XDICTIONARY
360
5F8
102
}
330
1F
100
AcDbEntity
  8
VIEW0002
 62
     7
100
AcDbMText
 10
-753.1607142899718
 20
43.04999846220016
 30
0.0
 40
1.899999976158142
 41
16.70914247274399
 71
     7
 72
     1
  1
{\A1;\fＭＳ Ｐゴシック|b0|i0|c0|p0;\W0.71429x;\U+3053\U+306E\U+5024\U+306E\U+FF14\U+500D\U+304C\U+FF27\U+FF24{\A1;\H0.50000x;\W0.71429x;\S２^ ;}}\P{\A1;\fＭＳ Ｐゴシック|b0|i0|c0|p0;\W0.71429x;\U+306B\U+76F8\U+5F53\U+3057\U+307E\U+3059\U+FF0E}
1001
ACAD
1000
MTEXTBEGIN
1070
    44
1040
0.7875
1000
MTEXTEND
  0
MTEXT
  5
5C7
330
1F
100
AcDbEntity
  8
VIEW0002
 62
     7
100
AcDbMText
 10
-777.0
 20
54.875
 30
0.0
 40
3.5
 41
0.0
 71
     8
 72
     1
  1
{\W0.833333;最高使用回転数}
  0
MTEXT
  5
5C8
330
1F
100
AcDbEntity
  8
VIEW0002
 62
     7
100
AcDbMText
 10
-706.4285714285714
 20
54.75
 30
0.0
 40
3.0
 41
0.0
 71
     9
 72
     1
  1
{\W0.857143;r/min}
  0
MTEXT
  5
5C9
330
1F
100
AcDbEntity
  8
VIEW0002
 62
     7
100
AcDbMText
 10
-706.4285714285714
 20
96.0
 30
0.0
 40
3.0
 41
0.0
 71
     6
 72
     1
  1
{\W0.857143;mm}
  0
MTEXT
  5
5CA
330
1F
100
AcDbEntity
  8
VIEW0002
 62
     7
100
AcDbMText
 10
-706.4285714285714
 20
66.75
 30
0.0
 40
3.0
 41
0.0
 71
     9
 72
     1
  1
{\W0.857143;kN}
  0
MTEXT
  5
5CB
330
1F
100
AcDbEntity
  8
VIEW0002
 62
     7
100
AcDbMText
 10
-706.4285714285714
 20
48.75
 30
0.0
 40
3.0
 41
0.0
 71
     9
 72
     1
  1
{\W0.857143;kg}
  0
MTEXT
  5
5CC
330
1F
100
AcDbEntity
  8
VIEW0002
 62
     7
100
AcDbMText
 10
-706.4285714285714
 20
42.75
 30
0.0
 40
3.0
 41
0.0
 71
     9
 72
     1
  1
{\W0.714286;\A1;ｋｇ・ｍ{\H0.5x;\S２^ ;}}
  0
MTEXT
  5
5CD
330
1F
100
AcDbEntity
  8
VIEW0002
 62
     7
100
AcDbMText
 10
-751.5
 20
123.0
 30
0.0
 40
3.5
 41
0.0
 71
     5
 72
     1
  1
{\W0.833333;仕様}
  0
MTEXT
  5
5CE
330
1F
100
AcDbEntity
  8
VIEW0002
 62
     7
100
AcDbMText
 10
-777.0
 20
48.875
 30
0.0
 40
3.5
 41
0.0
 71
     8
 72
     1
  1
{\W0.833333;質量}
  0
MTEXT
  5
5CF
330
1F
100
AcDbEntity
  8
VIEW0002
 62
     7
100
AcDbMText
 10
-795.625
 20
66.875
 30
0.0
 40
3.5
 41
0.0
 71
     7
 72
     1
  1
{\W0.833333;把　握　力}
  0
MTEXT
  5
5D0
330
1F
100
AcDbEntity
  8
VIEW0002
 62
     7
100
AcDbMText
 10
-795.625
 20
60.875
 30
0.0
 40
3.5
 41
0.0
 71
     7
 72
     1
  1
{\W0.833333;把握トルク}
  0
MTEXT
  5
5D1
330
1F
100
AcDbEntity
  8
VIEW0002
 62
     7
100
AcDbMText
 10
-754.3571428571429
 20
66.625
 30
0.0
 40
2.5
 41
0.0
 71
     9
 72
     1
  1
{\W0.833333;（許容シリンダ力時）}
  0
MTEXT
  5
5D2
330
1F
100
AcDbEntity
  8
VIEW0002
 62
     7
100
AcDbMText
 10
-754.3571428571429
 20
60.625
 30
0.0
 40
2.5
 41
0.0
 71
     9
 72
     1
  1
{\W0.833333;（　　　〃　　　　）}
  0
MTEXT
  5
5D3
330
1F
100
AcDbEntity
  8
VIEW0002
 62
     7
100
AcDbMText
 10
-796.375
 20
12.875
 30
0.0
 40
3.5
 41
0.0
 71
     7
 72
     1
  1
{\W0.595238;\A1;（１{\H0.5x;\S　;}ｋＮ＝１０１{\H0.5x;\S^ ・;}９７{\H0.5x;\S　;}ｋｇｆ，１{\H0.5x;\S　;}ＭＰａ＝１０{\H0.5x;\S^ ・;}１９７{\H0.5x;\S　;}ｋｇｆ／ｃｍ{\H0.5x;\S２^ ;}）}
  0
MTEXT
  5
5D4
330
1F
100
AcDbEntity
  8
VIEW0002
 62
     7
100
AcDbMText
 10
-720.5
 20
36.875
 30
0.0
 40
3.5
 41
0.0
 71
     9
 72
     1
  1
{\W1;304}
  0
MTEXT
  5
5D5
330
1F
100
AcDbEntity
  8
VIEW0002
 62
     7
100
AcDbMText
 10
-777.0
 20
36.875
 30
0.0
 40
3.5
 41
0.0
 71
     8
 72
     1
  1
{\W0.833333;\A1;標準生爪{\H0.75x;\Sによる;}最大把握径}
  0
MTEXT
  5
5D6
330
1F
100
AcDbEntity
  8
VIEW0002
 62
     7
100
AcDbMText
 10
-706.4285714285714
 20
30.75
 30
0.0
 40
3.0
 41
0.0
 71
     9
 72
     1
  1
{\W0.857143;mm}
  0
MTEXT
  5
5D7
330
1F
100
AcDbEntity
  8
VIEW0002
 62
     7
100
AcDbMText
 10
-720.5
 20
30.875
 30
0.0
 40
3.5
 41
0.0
 71
     9
 72
     1
  1
{\W1;34}
  0
MTEXT
  5
5D8
330
1F
100
AcDbEntity
  8
VIEW0002
 62
     7
100
AcDbMText
 10
-706.4285714285714
 20
36.75
 30
0.0
 40
3.0
 41
0.0
 71
     9
 72
     1
  1
{\W0.857143;mm}
  0
MTEXT
  5
5D9
330
1F
100
AcDbEntity
  8
VIEW0002
 62
     7
100
AcDbMText
 10
-777.0
 20
30.875
 30
0.0
 40
3.5
 41
0.0
 71
     8
 72
     1
  1
{\W0.833333;\A1;標準生爪{\H0.75x;\Sによる;}最小把握径}
  0
MTEXT
  5
5DA
330
1F
100
AcDbEntity
  8
VIEW0002
 62
     7
100
AcDbMText
 10
-604.875
 20
108.875
 30
0.0
 40
3.5
 41
0.0
 71
     7
 72
     1
  1
{\W0.833333;　　条件およびワーク剛性を考慮のうえ，貴社にて決定願います．}
  0
MTEXT
  5
5DB
330
1F
100
AcDbEntity
  8
VIEW0002
 62
     7
100
AcDbMText
 10
-604.875
 20
114.875
 30
0.0
 40
3.5
 41
0.0
 71
     7
 72
     1
  1
{\W0.833333;１．左記仕様値はこのチャックの最大値を示します．使用油圧力は切削}
  0
MTEXT
  5
5DC
330
1F
100
AcDbEntity
  8
VIEW0002
 62
     7
100
AcDbMText
 10
-604.875
 20
102.875
 30
0.0
 40
3.5
 41
0.0
 71
     7
 72
     1
  1
{\W0.833333;２．内径把握時のシリンダ力は，許容シリンダ力の１／２以下としてく}
  0
MTEXT
  5
5DD
330
1F
100
AcDbEntity
  8
VIEW0002
 62
     7
100
AcDbMText
 10
-604.875
 20
96.875
 30
0.0
 40
3.5
 41
0.0
 71
     7
 72
     1
  1
{\W0.833333;　　ださい．}
  0
MTEXT
  5
5DE
330
1F
100
AcDbEntity
  8
VIEW0002
 62
     7
100
AcDbMText
 10
-604.875
 20
72.875
 30
0.0
 40
3.5
 41
0.0
 71
     7
 72
     1
  1
{\W0.833333;　　推奨油種：モリコートＥＰグリース}
  0
MTEXT
  5
5DF
330
1F
100
AcDbEntity
  8
VIEW0002
 62
     7
100
AcDbMText
 10
-604.875
 20
78.875
 30
0.0
 40
3.5
 41
0.0
 71
     7
 72
     1
  1
{\W0.833333;　　ニップルより定期的に実施願います．}
  0
MTEXT
  5
5E0
330
1F
100
AcDbEntity
  8
VIEW0002
 62
     7
100
AcDbMText
 10
-604.875
 20
84.875
 30
0.0
 40
3.5
 41
0.0
 71
     7
 72
     1
  1
{\W0.833333;　　使用環境，使用する切削油の種類等を考慮した上で，図示グリ－ス}
  0
MTEXT
  5
5E1
330
1F
100
AcDbEntity
  8
VIEW0002
 62
     7
100
AcDbMText
 10
-604.875
 20
90.875
 30
0.0
 40
3.5
 41
0.0
 71
     7
 72
     1
  1
{\W0.833333;３．チャック本体への潤滑油の供給は，付属の取扱説明書に基づいて，}
  0
MTEXT
  5
5E2
330
1F
100
AcDbEntity
  8
VIEW0002
 62
     7
100
AcDbMText
 10
-604.875
 20
66.875
 30
0.0
 40
3.5
 41
0.0
 71
     7
 72
     1
  1
{\W0.833333;　　メーカ　：東レ・ダウコーニング（株）}
  0
INSERT
  5
5E9
330
1F
100
AcDbEntity
  8
VIEW0002
 62
     7
100
AcDbBlockReference
  2
$X0
 10
-35.0
 20
63.0
 30
0.0
  0
ENDSEC
  0
SECTION
  2
OBJECTS
  0
DICTIONARY
  5
C
330
0
100
AcDbDictionary
  3
ACAD_GROUP
350
D
  3
ACAD_LAYOUT
350
1A
  3
ACAD_MATERIAL
350
43
  3
ACAD_MLEADERSTYLE
350
6B
  3
ACAD_MLINESTYLE
350
17
  3
ACAD_PLOTSETTINGS
350
19
  3
ACAD_SCALELIST
350
47
  3
ACAD_VISUALSTYLE
350
2A
  3
ACDB_RECOMPOSE_DATA
350
607
  3
ACDBVARIABLEDICTIONARY
350
5ED
  3
DWGPROPS
350
5F7
1001
ACAD
1000
TREAT_AS_HARD
1070
     0
  0
DICTIONARY
  5
5FA
330
356
100
AcDbDictionary
  3
ACAD_MTEXT_RT
360
5FB
  0
DICTIONARY
  5
5FC
330
35E
100
AcDbDictionary
  3
ACAD_MTEXT_RT
360
5FD
  0
DICTIONARY
  5
5F8
330
5C6
100
AcDbDictionary
  3
ACAD_MTEXT_RT
360
5F9
  0
DICTIONARY
  5
D
102
{ACAD_REACTORS
330
C
102
}
330
C
100
AcDbDictionary
1001
ACAD
1000
TREAT_AS_HARD
1070
     0
  0
DICTIONARY
  5
1A
102
{ACAD_REACTORS
330
C
102
}
330
C
100
AcDbDictionary
1001
ACAD
1000
TREAT_AS_HARD
1070
     0
  0
DICTIONARY
  5
43
102
{ACAD_REACTORS
330
C
102
}
330
C
100
AcDbDictionary
  3
BYBLOCK
350
45
  3
BYLAYER
350
44
  3
GLOBAL
350
46
1001
ACAD
1000
TREAT_AS_HARD
1070
     0
  0
DICTIONARY
  5
6B
102
{ACAD_REACTORS
330
C
102
}
330
C
100
AcDbDictionary
  3
STANDARD
350
6C
1001
ACAD
1000
TREAT_AS_HARD
1070
     0
  0
DICTIONARY
  5
17
102
{ACAD_REACTORS
330
C
102
}
330
C
100
AcDbDictionary
  3
STANDARD
350
18
1001
ACAD
1000
TREAT_AS_HARD
1070
     0
  0
DICTIONARY
  5
19
102
{ACAD_REACTORS
330
C
102
}
330
C
100
AcDbDictionary
1001
ACAD
1000
TREAT_AS_HARD
1070
     0
  0
DICTIONARY
  5
47
102
{ACAD_REACTORS
330
C
102
}
330
C
100
AcDbDictionary
  3
A0
350
48
  3
A1
350
49
  3
A2
350
4A
  3
A3
350
4B
  3
A4
350
4C
  3
A5
350
4D
  3
A6
350
4E
  3
A7
350
4F
  3
A8
350
50
  3
A9
350
51
  3
B0
350
52
  3
B1
350
53
  3
B2
350
54
  3
B3
350
55
  3
B4
350
56
  3
B5
350
57
  3
B6
350
58
  3
B7
350
59
  3
B8
350
5A
  3
B9
350
5B
  3
C0
350
5C
  3
C1
350
5D
  3
C2
350
5E
  3
C3
350
5F
  3
C4
350
60
  3
C5
350
61
  3
C6
350
62
  3
C7
350
63
  3
C8
350
64
  3
C9
350
65
  3
D0
350
66
  3
D1
350
67
  3
D2
350
68
1001
ACAD
1000
TREAT_AS_HARD
1070
     0
  0
DICTIONARY
  5
2A
102
{ACAD_REACTORS
330
C
102
}
330
C
100
AcDbDictionary
  3
2DWIREFRAME
350
2F
  3
BASIC
350
32
  3
BRIGHTEN
350
36
  3
COLORCHANGE
350
3A
  3
CONCEPTUAL
350
34
  3
DIM
350
35
  3
EDGECOLOROFF
350
3D
  3
FACEPATTERN
350
39
  3
FLAT
350
2B
  3
FLATWITHEDGES
350
2C
  3
GOURAUD
350
2D
  3
GOURAUDWITHEDGES
350
2E
  3
HIDDEN
350
31
  3
JITTEROFF
350
3B
  3
LINEPATTERN
350
38
  3
OVERHANGOFF
350
3C
  3
REALISTIC
350
33
  3
SHADED
350
42
  3
SHADED_WITH_EDGES
350
41
  3
SHADES_OF_GRAY
350
3E
  3
SKETCHY
350
3F
  3
THICKEN
350
37
  3
WIREFRAME
350
30
  3
X-RAY
350
40
1001
ACAD
1000
TREAT_AS_HARD
1070
     0
  0
XRECORD
  5
607
102
{ACAD_REACTORS
330
C
102
}
330
C
100
AcDbXrecord
 90
        1
330
35E
330
356
330
5C6
  0
DICTIONARY
  5
5ED
102
{ACAD_REACTORS
330
C
102
}
330
C
100
AcDbDictionary
  3
CANNOSCALE
350
5FE
  3
CENTEREXE
350
5F3
  3
CENTERLTYPEFILE
350
5F4
  3
CMLEADERSTYLE
350
5EF
  3
CTABLESTYLE
350
5EE
  3
DIMASSOC
350
5F5
  3
HIDETEXT
350
5F6
  3
MSLTSCALE
350
5FF
  3
PSOLHEIGHT
350
5F0
1001
ACAD
1000
TREAT_AS_HARD
1070
     0
  0
XRECORD
  5
5F7
102
{ACAD_REACTORS
330
C
102
}
330
C
100
AcDbXrecord
  1
DWGPROPS COOKIE
  2

  3

  4

  6

  7

  8
GU470001
  9

300
=
301
=
302
=
303
=
304
=
305
=
306
=
307
=
308
=
309
=
 40
0.0
 41
2460892.251772546
 42
2460892.251772905
  1

 90
        0
  0
XRECORD
  5
5FB
102
{ACAD_REACTORS
330
5FA
102
}
330
5FA
100
AcDbXrecord
 40
1316732.0
  1
\W0.833333;\pxql;グリースニップル\P（円周等分３ヶ所）}
  0
XRECORD
  5
5FD
102
{ACAD_REACTORS
330
5FC
102
}
330
5FC
100
AcDbXrecord
 40
1316732.0
  1
\W0.833333;\pxql;グリースニップル\P（円周等分３ヶ所）}
  0
XRECORD
  5
5F9
102
{ACAD_REACTORS
330
5F8
102
}
330
5F8
100
AcDbXrecord
 40
1796651.0
  1
\W0.714286;\pxql;\A1;この値の４倍がＧＤ{\H0.5x;\S２^ ;}\Pに相当します．}
  0
MATERIAL
  5
45
102
{ACAD_REACTORS
330
43
102
}
102
{ACAD_XDICTIONARY
360
602
102
}
330
43
100
AcDbMaterial
  1
BYBLOCK
  0
MATERIAL
  5
44
102
{ACAD_REACTORS
330
43
102
}
102
{ACAD_XDICTIONARY
360
600
102
}
330
43
100
AcDbMaterial
  1
BYLAYER
  0
MATERIAL
  5
46
102
{ACAD_REACTORS
330
43
102
}
102
{ACAD_XDICTIONARY
360
604
102
}
330
43
100
AcDbMaterial
  1
GLOBAL
  0
ACAD_PROXY_OBJECT
  5
6C
102
{ACAD_REACTORS
330
6B
102
}
330
6B
100
AcDbZombieObject
 90
      499
 91
      505
 93
      610
310
40901902A4063FBFFFFFE0000000000000020400000000000020404214DD185B99185C990000000000000104090141901A00000000000004100000000000000041025764000000000000039000
340
14
340
0
340
11
340
0
 94
        0
1001
ACAD_MLEADERVER
1070
     2
  0
MLINESTYLE
  5
18
102
{ACAD_REACTORS
330
17
102
}
330
17
100
AcDbMlineStyle
  2
Standard
 70
     0
  3

 62
   256
 51
90.0
 52
90.0
 71
     2
 49
0.5
 62
   256
  6
BYLAYER
 49
-0.5
 62
   256
  6
BYLAYER
  0
ACAD_PROXY_OBJECT
  5
48
102
{ACAD_REACTORS
330
47
102
}
330
47
100
AcDbZombieObject
 90
      499
 91
      503
 93
       41
310
903313A31580
  0
ACAD_PROXY_OBJECT
  5
49
102
{ACAD_REACTORS
330
47
102
}
330
47
100
AcDbZombieObject
 90
      499
 91
      503
 93
      105
310
903313A324000000000000004000
  0
ACAD_PROXY_OBJECT
  5
4A
102
{ACAD_REACTORS
330
47
102
}
330
47
100
AcDbZombieObject
 90
      499
 91
      503
 93
      105
310
903313A344000000000000104000
  0
ACAD_PROXY_OBJECT
  5
4B
102
{ACAD_REACTORS
330
47
102
}
330
47
100
AcDbZombieObject
 90
      499
 91
      503
 93
      105
310
903313A354000000000000144000
  0
ACAD_PROXY_OBJECT
  5
4C
102
{ACAD_REACTORS
330
47
102
}
330
47
100
AcDbZombieObject
 90
      499
 91
      503
 93
      105
310
903313A384000000000000204000
  0
ACAD_PROXY_OBJECT
  5
4D
102
{ACAD_REACTORS
330
47
102
}
330
47
100
AcDbZombieObject
 90
      499
 91
      503
 93
      113
310
904313A31304000000000000244000
  0
ACAD_PROXY_OBJECT
  5
4E
102
{ACAD_REACTORS
330
47
102
}
330
47
100
AcDbZombieObject
 90
      499
 91
      503
 93
      113
310
904313A31364000000000000304000
  0
ACAD_PROXY_OBJECT
  5
4F
102
{ACAD_REACTORS
330
47
102
}
330
47
100
AcDbZombieObject
 90
      499
 91
      503
 93
      113
310
904313A32304000000000000344000
  0
ACAD_PROXY_OBJECT
  5
50
102
{ACAD_REACTORS
330
47
102
}
330
47
100
AcDbZombieObject
 90
      499
 91
      503
 93
      113
310
904313A333040000000000003E4000
  0
ACAD_PROXY_OBJECT
  5
51
102
{ACAD_REACTORS
330
47
102
}
330
47
100
AcDbZombieObject
 90
      499
 91
      503
 93
      113
310
904313A34304000000000000444000
  0
ACAD_PROXY_OBJECT
  5
52
102
{ACAD_REACTORS
330
47
102
}
330
47
100
AcDbZombieObject
 90
      499
 91
      503
 93
      113
310
904313A35304000000000000494000
  0
ACAD_PROXY_OBJECT
  5
53
102
{ACAD_REACTORS
330
47
102
}
330
47
100
AcDbZombieObject
 90
      499
 91
      503
 93
      121
310
905313A3130304000000000000594000
  0
ACAD_PROXY_OBJECT
  5
54
102
{ACAD_REACTORS
330
47
102
}
330
47
100
AcDbZombieObject
 90
      499
 91
      503
 93
      105
310
903323A310000000000000010100
  0
ACAD_PROXY_OBJECT
  5
55
102
{ACAD_REACTORS
330
47
102
}
330
47
100
AcDbZombieObject
 90
      499
 91
      503
 93
      105
310
903343A310000000000000410100
  0
ACAD_PROXY_OBJECT
  5
56
102
{ACAD_REACTORS
330
47
102
}
330
47
100
AcDbZombieObject
 90
      499
 91
      503
 93
      105
310
903383A310000000000000810100
  0
ACAD_PROXY_OBJECT
  5
57
102
{ACAD_REACTORS
330
47
102
}
330
47
100
AcDbZombieObject
 90
      499
 91
      503
 93
      113
310
90431303A310000000000000910100
  0
ACAD_PROXY_OBJECT
  5
58
102
{ACAD_REACTORS
330
47
102
}
330
47
100
AcDbZombieObject
 90
      499
 91
      503
 93
      121
310
9053130303A310000000000001650100
  0
ACAD_PROXY_OBJECT
  5
59
102
{ACAD_REACTORS
330
47
102
}
330
47
100
AcDbZombieObject
 90
      499
 91
      503
 93
      257
310
90E312F31323822203D2031272D3022000000000000200FC000000000000284000
  0
ACAD_PROXY_OBJECT
  5
5A
102
{ACAD_REACTORS
330
47
102
}
330
47
100
AcDbZombieObject
 90
      499
 91
      503
 93
      249
310
90D312F363422203D2031272D3022000000000000240FC000000000000284000
  0
ACAD_PROXY_OBJECT
  5
5B
102
{ACAD_REACTORS
330
47
102
}
330
47
100
AcDbZombieObject
 90
      499
 91
      503
 93
      249
310
90D312F333222203D2031272D3022000000000000280FC000000000000284000
  0
ACAD_PROXY_OBJECT
  5
5C
102
{ACAD_REACTORS
330
47
102
}
330
47
100
AcDbZombieObject
 90
      499
 91
      503
 93
      249
310
90D312F313622203D2031272D30220000000000002C0FC000000000000284000
  0
ACAD_PROXY_OBJECT
  5
5D
102
{ACAD_REACTORS
330
47
102
}
330
47
100
AcDbZombieObject
 90
      499
 91
      503
 93
      249
310
90D332F333222203D2031272D30220000000000002E0FC000000000000284000
  0
ACAD_PROXY_OBJECT
  5
5E
102
{ACAD_REACTORS
330
47
102
}
330
47
100
AcDbZombieObject
 90
      499
 91
      503
 93
      241
310
90C312F3822203D2031272D3022000000000000300FC000000000000284000
  0
ACAD_PROXY_OBJECT
  5
5F
102
{ACAD_REACTORS
330
47
102
}
330
47
100
AcDbZombieObject
 90
      499
 91
      503
 93
      249
310
90D332F313622203D2031272D3022000000000000320FC000000000000284000
  0
ACAD_PROXY_OBJECT
  5
60
102
{ACAD_REACTORS
330
47
102
}
330
47
100
AcDbZombieObject
 90
      499
 91
      503
 93
      241
310
90C312F3422203D2031272D3022000000000000340FC000000000000284000
  0
ACAD_PROXY_OBJECT
  5
61
102
{ACAD_REACTORS
330
47
102
}
330
47
100
AcDbZombieObject
 90
      499
 91
      503
 93
      241
310
90C332F3822203D2031272D3022000000000000360FC000000000000284000
  0
ACAD_PROXY_OBJECT
  5
62
102
{ACAD_REACTORS
330
47
102
}
330
47
100
AcDbZombieObject
 90
      499
 91
      503
 93
      241
310
90C312F3222203D2031272D3022000000000000380FC000000000000284000
  0
ACAD_PROXY_OBJECT
  5
63
102
{ACAD_REACTORS
330
47
102
}
330
47
100
AcDbZombieObject
 90
      499
 91
      503
 93
      241
310
90C332F3422203D2031272D30220000000000003A0FC000000000000284000
  0
ACAD_PROXY_OBJECT
  5
64
102
{ACAD_REACTORS
330
47
102
}
330
47
100
AcDbZombieObject
 90
      499
 91
      503
 93
      161
310
90A3122203D2031272D30224000000000000284000
  0
ACAD_PROXY_OBJECT
  5
65
102
{ACAD_REACTORS
330
47
102
}
330
47
100
AcDbZombieObject
 90
      499
 91
      503
 93
      257
310
90E312D312F3222203D2031272D30220000000000003E0FC000000000000284000
  0
ACAD_PROXY_OBJECT
  5
66
102
{ACAD_REACTORS
330
47
102
}
330
47
100
AcDbZombieObject
 90
      499
 91
      503
 93
      225
310
90A3322203D2031272D302200000000000002100000000000000284000
  0
ACAD_PROXY_OBJECT
  5
67
102
{ACAD_REACTORS
330
47
102
}
330
47
100
AcDbZombieObject
 90
      499
 91
      503
 93
      225
310
90A3622203D2031272D302200000000000006100000000000000284000
  0
ACAD_PROXY_OBJECT
  5
68
102
{ACAD_REACTORS
330
47
102
}
330
47
100
AcDbZombieObject
 90
      499
 91
      503
 93
      249
310
90D31272D3022203D2031272D30220000000000000A100000000000000284000
  0
ACAD_PROXY_OBJECT
  5
2F
102
{ACAD_REACTORS
330
2A
102
}
330
2A
100
AcDbZombieObject
 90
      499
 91
      501
 93
      436
310
42CC9915DA5C99599C985B595049028333333333333E33F0000000000000F90107901411070040501600405405064090741402480A0340
1001
ACAD
1000
AcDbSavedByObjectVersion
1070
     0
  0
ACAD_PROXY_OBJECT
  5
32
102
{ACAD_REACTORS
330
2A
102
}
330
2A
100
AcDbZombieObject
 90
      499
 91
      501
 93
      388
310
4150985CDA58D07406404333333333333E33F0000000000000F90107A41107004050150841D405064090741402480A0350
1001
ACAD
1000
AcDbSavedByObjectVersion
1070
     0
  0
ACAD_PROXY_OBJECT
  5
36
102
{ACAD_REACTORS
330
2A
102
}
330
2A
100
AcDbZombieObject
 90
      499
 91
      501
 93
      428
310
42109C9A59DA1D195B90C409028333333333333E33F0000000000000F9010790141107004050150841D405064090741402480A029950
1001
ACAD
1000
AcDbSavedByObjectVersion
1070
     0
  0
ACAD_PROXY_OBJECT
  5
3A
102
{ACAD_REACTORS
330
2A
102
}
330
2A
100
AcDbZombieObject
 90
      499
 91
      501
 93
      452
310
42D0DBDB1BDC90DA185B99D95104090240C333333333333E33F0000000000000F90108901411070040501508421405064090741402480A0350
1001
ACAD
1000
AcDbSavedByObjectVersion
1070
     0
  0
ACAD_PROXY_OBJECT
  5
34
102
{ACAD_REACTORS
330
2A
102
}
330
2A
100
AcDbZombieObject
 90
      499
 91
      501
 93
      500
310
4290DBDB98D95C1D1D585B10940D028333333333333E33F0000000000000F90107902409070040501000000000018199010841D405064090740C02480A0340
1001
ACAD
1000
AcDbSavedByObjectVersion
1070
     0
  0
ACAD_PROXY_OBJECT
  5
35
102
{ACAD_REACTORS
330
2A
102
}
330
2A
100
AcDbZombieObject
 90
      499
 91
      501
 93
      412
310
40D11A5B50B409028333333333333E33F0000000000000F9010790141107004050150841D405064090741402480A02677FFFFFD0
1001
ACAD
1000
AcDbSavedByObjectVersion
1070
     0
  0
ACAD_PROXY_OBJECT
  5
3D
102
{ACAD_REACTORS
330
2A
102
}
330
2A
100
AcDbZombieObject
 90
      499
 91
      501
 93
      452
310
43115919D950DBDB1BDC93D999916409028333333333333E33F0000000000000F9010790141107004050150841D405064090741402480A0350
1001
ACAD
1000
AcDbSavedByObjectVersion
1070
     0
  0
ACAD_PROXY_OBJECT
  5
39
102
{ACAD_REACTORS
330
2A
102
}
330
2A
100
AcDbZombieObject
 90
      499
 91
      501
 93
      444
310
42D19858D95C185D1D195C9B90F409028333333333333E33F0000000000000F9010790141107004050150841D405064090741402480A0350
1001
ACAD
1000
AcDbSavedByObjectVersion
1070
     0
  0
ACAD_PROXY_OBJECT
  5
2B
102
{ACAD_REACTORS
330
2A
102
}
330
2A
100
AcDbZombieObject
 90
      499
 91
      501
 93
      380
310
41119B185D240901404333333333333E33F0000000000000F9010740A907004050150841D405064090741402480A1B50
1001
ACAD
1000
AcDbSavedByObjectVersion
1070
     0
  0
ACAD_PROXY_OBJECT
  5
2C
102
{ACAD_REACTORS
330
2A
102
}
330
2A
100
AcDbZombieObject
 90
      499
 91
      501
 93
      468
310
43519B185D15DA5D1A115919D95CD0140901404333333333333E33F0000000000000F90107409019070040501600405405064090741402480A1B50
1001
ACAD
1000
AcDbSavedByObjectVersion
1070
     0
  0
ACAD_PROXY_OBJECT
  5
2D
102
{ACAD_REACTORS
330
2A
102
}
330
2A
100
AcDbZombieObject
 90
      499
 91
      501
 93
      404
310
41D1DBDD5C985D5910240902404333333333333E33F0000000000000F9010740A9070040501641D405064090741402480A1B50
1001
ACAD
1000
AcDbSavedByObjectVersion
1070
     0
  0
ACAD_PROXY_OBJECT
  5
2E
102
{ACAD_REACTORS
330
2A
102
}
330
2A
100
AcDbZombieObject
 90
      499
 91
      501
 93
      492
310
4411DBDD5C985D5915DA5D1A115919D95CD0340902404333333333333E33F0000000000000F90107409019070040501600405405064090741402480A1B50
1001
ACAD
1000
AcDbSavedByObjectVersion
1070
     0
  0
ACAD_PROXY_OBJECT
  5
31
102
{ACAD_REACTORS
330
2A
102
}
330
2A
100
AcDbZombieObject
 90
      499
 91
      501
 93
      476
310
41921A5919195B90640502408333333333333E33F0000000000000F901079024090700405020000000000001110200405405064090740C02480A0340
1001
ACAD
1000
AcDbSavedByObjectVersion
1070
     0
  0
ACAD_PROXY_OBJECT
  5
3B
102
{ACAD_REACTORS
330
2A
102
}
330
2A
100
AcDbZombieObject
 90
      499
 91
      501
 93
      428
310
42529A5D1D195C93D999914409028333333333333E33F0000000000000F9010790141107004050150A41D405064090741402480A0350
1001
ACAD
1000
AcDbSavedByObjectVersion
1070
     0
  0
ACAD_PROXY_OBJECT
  5
38
102
{ACAD_REACTORS
330
2A
102
}
330
2A
100
AcDbZombieObject
 90
      499
 91
      501
 93
      444
310
42D31A5B995C185D1D195C9B90E409028333333333333E33F0000000000000F9010790141107004050750841D405064090741402483A0350
1001
ACAD
1000
AcDbSavedByObjectVersion
1070
     0
  0
ACAD_PROXY_OBJECT
  5
3C
102
{ACAD_REACTORS
330
2A
102
}
330
2A
100
AcDbZombieObject
 90
      499
 91
      501
 93
      444
310
42D3DD995C9A185B99D3D999915409028333333333333E33F0000000000000F9010790141107004050150941D405064090741402480A0350
1001
ACAD
1000
AcDbSavedByObjectVersion
1070
     0
  0
ACAD_PROXY_OBJECT
  5
33
102
{ACAD_REACTORS
330
2A
102
}
330
2A
100
AcDbZombieObject
 90
      499
 91
      501
 93
      428
310
425499585B1A5CDD1A58D08409038333333333333E33F0000000000000F9010740A907004050150800405405064090740C02480A1B40
1001
ACAD
1000
AcDbSavedByObjectVersion
1070
     0
  0
ACAD_PROXY_OBJECT
  5
42
102
{ACAD_REACTORS
330
2A
102
}
330
2A
100
AcDbZombieObject
 90
      499
 91
      501
 93
      420
310
4194DA1859195911B40902404333333333333E33F0000000000000F9010740A41107004050150800405405064090840C02480A0B40
1001
ACAD
1000
AcDbSavedByObjectVersion
1070
     0
  0
ACAD_PROXY_OBJECT
  5
41
102
{ACAD_REACTORS
330
2A
102
}
330
2A
100
AcDbZombieObject
 90
      499
 91
      501
 93
      516
310
4454DA18591959081DDA5D1A08195919D95CD1A40902404333333333333E33F0000000000000F901074090142907004050250800405405064090740C02480A0B40
1001
ACAD
1000
AcDbSavedByObjectVersion
1070
     0
  0
ACAD_PROXY_OBJECT
  5
3E
102
{ACAD_REACTORS
330
2A
102
}
330
2A
100
AcDbZombieObject
 90
      499
 91
      501
 93
      532
310
4394DA1859195CC81BD98811DC985E5174090240C333333333333E33F0000000000000F901079024090741D01000000000000111010841D405064090740C02480A0340
1001
ACAD
1000
AcDbSavedByObjectVersion
1070
     0
  0
ACAD_PROXY_OBJECT
  5
3F
102
{ACAD_REACTORS
330
2A
102
}
330
2A
100
AcDbZombieObject
 90
      499
 91
      501
 93
      476
310
41D4DAD95D18DA1E51840502408333333333333E33F0000000000000F901079024090741D01000000000000111010B41D405064090741802480A0340
1001
ACAD
1000
AcDbSavedByObjectVersion
1070
     0
  0
ACAD_PROXY_OBJECT
  5
37
102
{ACAD_REACTORS
330
2A
102
}
330
2A
100
AcDbZombieObject
 90
      499
 91
      501
 93
      412
310
41D51A1A58DAD95B90D409028333333333333E33F0000000000000F9010790141107004050150C41D405064090741402480A0350
1001
ACAD
1000
AcDbSavedByObjectVersion
1070
     0
  0
ACAD_PROXY_OBJECT
  5
30
102
{ACAD_REACTORS
330
2A
102
}
330
2A
100
AcDbZombieObject
 90
      499
 91
      501
 93
      420
310
4255DA5C99599C985B595059028333333333333E33F0000000000000F90107901411070040501600405405064090740C02480A0340
1001
ACAD
1000
AcDbSavedByObjectVersion
1070
     0
  0
ACAD_PROXY_OBJECT
  5
40
102
{ACAD_REACTORS
330
2A
102
}
330
2A
100
AcDbZombieObject
 90
      499
 91
      501
 93
      404
310
41560B54985E51940902404000000000000E03F0000000000000F9010740501907004050150841D405064090740C02480A1B40
1001
ACAD
1000
AcDbSavedByObjectVersion
1070
     0
  0
DICTIONARYVAR
  5
5FE
102
{ACAD_REACTORS
330
5ED
102
}
330
5ED
100
DictionaryVariables
280
     0
  1
1:1
  0
DICTIONARYVAR
  5
5F3
102
{ACAD_REACTORS
330
5ED
102
}
330
5ED
100
DictionaryVariables
280
     0
  1
3.500000
  0
DICTIONARYVAR
  5
5F4
102
{ACAD_REACTORS
330
5ED
102
}
330
5ED
100
DictionaryVariables
280
     0
  1
acadiso.lin
  0
DICTIONARYVAR
  5
5EF
102
{ACAD_REACTORS
330
5ED
102
}
330
5ED
100
DictionaryVariables
280
     0
  1
Standard
  0
DICTIONARYVAR
  5
5EE
102
{ACAD_REACTORS
330
5ED
102
}
330
5ED
100
DictionaryVariables
280
     0
  1
Standard
  0
DICTIONARYVAR
  5
5F5
102
{ACAD_REACTORS
330
5ED
102
}
330
5ED
100
DictionaryVariables
280
     0
  1
2
  0
DICTIONARYVAR
  5
5F6
102
{ACAD_REACTORS
330
5ED
102
}
330
5ED
100
DictionaryVariables
280
     0
  1
1
  0
DICTIONARYVAR
  5
5FF
102
{ACAD_REACTORS
330
5ED
102
}
330
5ED
100
DictionaryVariables
280
     0
  1
1
  0
DICTIONARYVAR
  5
5F0
102
{ACAD_REACTORS
330
5ED
102
}
330
5ED
100
DictionaryVariables
280
     0
  1
80.000000
  0
DICTIONARY
  5
602
330
45
100
AcDbDictionary
  3
ACAD_XREC_ROUNDTRIP
360
603
1001
ACAD
1000
TREAT_AS_HARD
1070
     1
  0
DICTIONARY
  5
600
330
44
100
AcDbDictionary
  3
ACAD_XREC_ROUNDTRIP
360
601
1001
ACAD
1000
TREAT_AS_HARD
1070
     1
  0
DICTIONARY
  5
604
330
46
100
AcDbDictionary
  3
ACAD_XREC_ROUNDTRIP
360
605
1001
ACAD
1000
TREAT_AS_HARD
1070
     1
  0
XRECORD
  5
603
102
{ACAD_REACTORS
330
602
102
}
330
602
100
AcDbXrecord
102
MATERIAL
148
0.0
149
0.0
149
0.0
 93
        0
 94
      127
282
     0
 72
     1
 77
     1
171
     1
175
     1
179
     1
273
     0
  0
XRECORD
  5
601
102
{ACAD_REACTORS
330
600
102
}
330
600
100
AcDbXrecord
102
MATERIAL
148
0.0
149
0.0
149
0.0
 93
        0
 94
      127
282
     0
 72
     1
 77
     1
171
     1
175
     1
179
     1
273
     0
  0
XRECORD
  5
605
102
{ACAD_REACTORS
330
604
102
}
330
604
100
AcDbXrecord
102
MATERIAL
148
0.0
149
0.0
149
0.0
 93
        0
 94
      127
282
     0
 72
     1
 77
     1
171
     1
175
     1
179
     1
273
     0
  0
ENDSEC
  0
EOF
